  0
SECTION
  2
HEADER
  9
$ACADVER
  1
AC1015
  9
$ACADMAINTVER
 70
     6
  9
$DWGCODEPAGE
  3
ANSI_1252
  9
$INSBASE
 10
0.0
 20
0.0
 30
0.0
  9
$EXTMIN
 10
0.0
 20
0.0
 30
0.0
  9
$EXTMAX
 10
594.0
 20
420.0
 30
0.0
  9
$LIMMIN
 10
0.0
 20
0.0
  9
$LIMMAX
 10
594.0
 20
420.0
  9
$ORTHOMODE
 70
     0
  9
$REGENMODE
 70
     1
  9
$FILLMODE
 70
     1
  9
$QTEXTMODE
 70
     0
  9
$MIRRTEXT
 70
     1
  9
$LTSCALE
 40
1.0
  9
$ATTMODE
 70
     1
  9
$TEXTSIZE
 40
7.0
  9
$TRACEWID
 40
1.0
  9
$TEXTSTYLE
  7
Standard
  9
$CLAYER
  8
0
  9
$CELTYPE
  6
ByLayer
  9
$CECOLOR
 62
   256
  9
$CELTSCALE
 40
1.0
  9
$DISPSILH
 70
     0
  9
$DIMSCALE
 40
1.0
  9
$DIMASZ
 40
2.0
  9
$DIMEXO
 40
2.0
  9
$DIMDLI
 40
3.75
  9
$DIMRND
 40
0.0
  9
$DIMDLE
 40
0.0
  9
$DIMEXE
 40
2.0
  9
$DIMTP
 40
0.0
  9
$DIMTM
 40
0.0
  9
$DIMTXT
 40
6.0
  9
$DIMCEN
 40
2.5
  9
$DIMTSZ
 40
0.0
  9
$DIMTOL
 70
     0
  9
$DIMLIM
 70
     0
  9
$DIMTIH
 70
     1
  9
$DIMTOH
 70
     1
  9
$DIMSE1
 70
     0
  9
$DIMSE2
 70
     0
  9
$DIMTAD
 70
     1
  9
$DIMZIN
 70
     0
  9
$DIMBLK
  1

  9
$DIMASO
 70
     1
  9
$DIMSHO
 70
     1
  9
$DIMPOST
  1

  9
$DIMAPOST
  1

  9
$DIMALT
 70
     0
  9
$DIMALTD
 70
     3
  9
$DIMALTF
 40
0.0393700787
  9
$DIMLFAC
 40
1.0
  9
$DIMTOFL
 70
     1
  9
$DIMTVP
 40
0.0
  9
$DIMTIX
 70
     0
  9
$DIMSOXD
 70
     0
  9
$DIMSAH
 70
     0
  9
$DIMBLK1
  1

  9
$DIMBLK2
  1

  9
$DIMSTYLE
  2
ISO-25
  9
$DIMCLRD
 70
     0
  9
$DIMCLRE
 70
     0
  9
$DIMCLRT
 70
     0
  9
$DIMTFAC
 40
1.0
  9
$DIMGAP
 40
3.048
  9
$DIMJUST
 70
     0
  9
$DIMSD1
 70
     0
  9
$DIMSD2
 70
     0
  9
$DIMTOLJ
 70
     0
  9
$DIMTZIN
 70
     0
  9
$DIMALTZ
 70
     0
  9
$DIMALTTZ
 70
     0
  9
$DIMUPT
 70
     0
  9
$DIMDEC
 70
     2
  9
$DIMTDEC
 70
     2
  9
$DIMALTU
 70
     2
  9
$DIMALTTD
 70
     3
  9
$DIMTXSTY
  7
Standard
  9
$DIMAUNIT
 70
     0
  9
$DIMADEC
 70
     0
  9
$DIMALTRND
 40
0.0
  9
$DIMAZIN
 70
     0
  9
$DIMDSEP
 70
    44
  9
$DIMATFIT
 70
     3
  9
$DIMFRAC
 70
     0
  9
$DIMLDRBLK
  1

  9
$DIMLUNIT
 70
     2
  9
$DIMLWD
 70
    -2
  9
$DIMLWE
 70
    -2
  9
$DIMTMOVE
 70
     0
  9
$LUNITS
 70
     2
  9
$LUPREC
 70
     2
  9
$SKETCHINC
 40
1.0
  9
$FILLETRAD
 40
10.0
  9
$AUNITS
 70
     0
  9
$AUPREC
 70
     0
  9
$MENU
  1
.
  9
$ELEVATION
 40
0.0
  9
$PELEVATION
 40
0.0
  9
$THICKNESS
 40
0.0
  9
$LIMCHECK
 70
     0
  9
$CHAMFERA
 40
10.0
  9
$CHAMFERB
 40
10.0
  9
$CHAMFERC
 40
20.0
  9
$CHAMFERD
 40
0.0
  9
$SKPOLY
 70
     0
  9
$TDCREATE
 40
2457667.715163889
  9
$TDUCREATE
 40
2457667.631830555
  9
$TDUPDATE
 40
2457667.715163901
  9
$TDUUPDATE
 40
2457667.631830567
  9
$TDINDWG
 40
0.0000000116
  9
$TDUSRTIMER
 40
0.0000000116
  9
$USRTIMER
 70
     1
  9
$ANGBASE
 50
0.0
  9
$ANGDIR
 70
     0
  9
$PDMODE
 70
     0
  9
$PDSIZE
 40
-1.0
  9
$PLINEWID
 40
0.0
  9
$SPLFRAME
 70
     0
  9
$SPLINETYPE
 70
     6
  9
$SPLINESEGS
 70
     8
  9
$HANDSEED
  5
34A
  9
$SURFTAB1
 70
     6
  9
$SURFTAB2
 70
     6
  9
$SURFTYPE
 70
     6
  9
$SURFU
 70
     6
  9
$SURFV
 70
     6
  9
$UCSBASE
  2

  9
$UCSNAME
  2

  9
$UCSORG
 10
0.0
 20
0.0
 30
0.0
  9
$UCSXDIR
 10
1.0
 20
0.0
 30
0.0
  9
$UCSYDIR
 10
0.0
 20
1.0
 30
0.0
  9
$UCSORTHOREF
  2

  9
$UCSORTHOVIEW
 70
     0
  9
$UCSORGTOP
 10
0.0
 20
0.0
 30
0.0
  9
$UCSORGBOTTOM
 10
0.0
 20
0.0
 30
0.0
  9
$UCSORGLEFT
 10
0.0
 20
0.0
 30
0.0
  9
$UCSORGRIGHT
 10
0.0
 20
0.0
 30
0.0
  9
$UCSORGFRONT
 10
0.0
 20
0.0
 30
0.0
  9
$UCSORGBACK
 10
0.0
 20
0.0
 30
0.0
  9
$PUCSBASE
  2

  9
$PUCSNAME
  2

  9
$PUCSORG
 10
0.0
 20
0.0
 30
0.0
  9
$PUCSXDIR
 10
1.0
 20
0.0
 30
0.0
  9
$PUCSYDIR
 10
0.0
 20
1.0
 30
0.0
  9
$PUCSORTHOREF
  2

  9
$PUCSORTHOVIEW
 70
     0
  9
$PUCSORGTOP
 10
0.0
 20
0.0
 30
0.0
  9
$PUCSORGBOTTOM
 10
0.0
 20
0.0
 30
0.0
  9
$PUCSORGLEFT
 10
0.0
 20
0.0
 30
0.0
  9
$PUCSORGRIGHT
 10
0.0
 20
0.0
 30
0.0
  9
$PUCSORGFRONT
 10
0.0
 20
0.0
 30
0.0
  9
$PUCSORGBACK
 10
0.0
 20
0.0
 30
0.0
  9
$USERI1
 70
     0
  9
$USERI2
 70
     0
  9
$USERI3
 70
     0
  9
$USERI4
 70
     0
  9
$USERI5
 70
     0
  9
$USERR1
 40
0.0
  9
$USERR2
 40
0.0
  9
$USERR3
 40
0.0
  9
$USERR4
 40
0.0
  9
$USERR5
 40
0.0
  9
$WORLDVIEW
 70
     1
  9
$SHADEDGE
 70
     3
  9
$SHADEDIF
 70
    70
  9
$TILEMODE
 70
     1
  9
$MAXACTVP
 70
    64
  9
$PINSBASE
 10
0.0
 20
0.0
 30
0.0
  9
$PLIMCHECK
 70
     0
  9
$PEXTMIN
 10
1.0000000000E+20
 20
1.0000000000E+20
 30
1.0000000000E+20
  9
$PEXTMAX
 10
-1.0000000000E+20
 20
-1.0000000000E+20
 30
-1.0000000000E+20
  9
$PLIMMIN
 10
0.0
 20
0.0
  9
$PLIMMAX
 10
420.0
 20
297.0
  9
$UNITMODE
 70
     0
  9
$VISRETAIN
 70
     1
  9
$PLINEGEN
 70
     0
  9
$PSLTSCALE
 70
     1
  9
$TREEDEPTH
 70
  3020
  9
$CMLSTYLE
  2
Standard
  9
$CMLJUST
 70
     0
  9
$CMLSCALE
 40
20.0
  9
$PROXYGRAPHICS
 70
     1
  9
$MEASUREMENT
 70
     1
  9
$CELWEIGHT
370
    -1
  9
$ENDCAPS
280
     0
  9
$JOINSTYLE
280
     0
  9
$LWDISPLAY
290
     1
  9
$INSUNITS
 70
     4
  9
$HYPERLINKBASE
  1

  9
$STYLESHEET
  1

  9
$XEDIT
290
     1
  9
$CEPSNTYPE
380
     0
  9
$PSTYLEMODE
290
     1
  9
$FINGERPRINTGUID
  2
{06476035-3252-46C5-A7E0-12A2C7C5129C}
  9
$VERSIONGUID
  2
{FAEB1C32-E019-11D5-929B-00C0DF256EC4}
  9
$EXTNAMES
290
     1
  9
$PSVPSCALE
 40
0.0
  9
$OLESTARTUP
290
     0
  0
ENDSEC
  0
SECTION
  2
CLASSES
  0
CLASS
  1
ACDBDICTIONARYWDFLT
  2
AcDbDictionaryWithDefault
  3
ObjectDBX Classes
 90
        0
280
     0
281
     0
  0
CLASS
  1
VISUALSTYLE
  2
AcDbVisualStyle
  3
ObjectDBX Classes
 90
     4095
280
     0
281
     0
  0
CLASS
  1
DICTIONARYVAR
  2
AcDbDictionaryVar
  3
ObjectDBX Classes
 90
        0
280
     0
281
     0
  0
CLASS
  1
ACDBPLACEHOLDER
  2
AcDbPlaceHolder
  3
ObjectDBX Classes
 90
        0
280
     0
281
     0
  0
CLASS
  1
LAYOUT
  2
AcDbLayout
  3
ObjectDBX Classes
 90
        0
280
     0
281
     0
  0
ENDSEC
  0
SECTION
  2
TABLES
  0
TABLE
  2
VPORT
  5
8
330
0
100
AcDbSymbolTable
 70
     1
  0
VPORT
  5
29
330
8
100
AcDbSymbolTableRecord
100
AcDbViewportTableRecord
  2
*Active
 70
     0
 10
0.0
 20
0.0
 11
1.0
 21
1.0
 12
297.0
 22
210.0
 13
0.0
 23
0.0
 14
10.0
 24
10.0
 15
10.0
 25
10.0
 16
0.0
 26
0.0
 36
1.0
 17
0.0
 27
0.0
 37
0.0
 40
420.0
 41
1.4142857143
 42
50.0
 43
0.0
 44
0.0
 50
0.0
 51
0.0
 71
     0
 72
  2000
 73
     1
 74
     3
 75
     0
 76
     0
 77
     0
 78
     0
281
     0
 65
     1
110
0.0
120
0.0
130
0.0
111
1.0
121
0.0
131
0.0
112
0.0
122
1.0
132
0.0
 79
     0
146
0.0
  0
ENDTAB
  0
TABLE
  2
LTYPE
  5
5
330
0
100
AcDbSymbolTable
 70
     6
  0
LTYPE
  5
14
330
5
100
AcDbSymbolTableRecord
100
AcDbLinetypeTableRecord
  2
ByBlock
 70
     0
  3

 72
    65
 73
     0
 40
0.0
  0
LTYPE
  5
15
330
5
100
AcDbSymbolTableRecord
100
AcDbLinetypeTableRecord
  2
ByLayer
 70
     0
  3

 72
    65
 73
     0
 40
0.0
  0
LTYPE
  5
16
330
5
100
AcDbSymbolTableRecord
100
AcDbLinetypeTableRecord
  2
Continuous
 70
     0
  3
Solid line
 72
    65
 73
     0
 40
0.0
  0
LTYPE
  5
3B
330
5
100
AcDbSymbolTableRecord
100
AcDbLinetypeTableRecord
  2
HIDDEN
 70
     0
  3
Hidden __ __ __ __ __ __ __ __ __ __ __ __ __ __
 72
    65
 73
     2
 40
1.905
 49
1.27
 74
     0
 49
-0.635
 74
     0
  0
LTYPE
  5
3C
330
5
100
AcDbSymbolTableRecord
100
AcDbLinetypeTableRecord
  2
PHANTOM
 70
     0
  3
Phantom ______  __  __  ______  __  __  ______
 72
    65
 73
     6
 40
12.7
 49
6.35
 74
     0
 49
-1.27
 74
     0
 49
1.27
 74
     0
 49
-1.27
 74
     0
 49
1.27
 74
     0
 49
-1.27
 74
     0
  0
LTYPE
  5
3D
330
5
100
AcDbSymbolTableRecord
100
AcDbLinetypeTableRecord
  2
CENTER
 70
     0
  3
Center ____ _ ____ _ ____ _ ____ _ ____ _ ____
 72
    65
 73
     4
 40
10.16
 49
6.35
 74
     0
 49
-1.27
 74
     0
 49
1.27
 74
     0
 49
-1.27
 74
     0
  0
LTYPE
  5
3E
330
5
100
AcDbSymbolTableRecord
100
AcDbLinetypeTableRecord
  2
CENTERX2
 70
     0
  3
Center (2x) ________  __  ________  __  _____
 72
    65
 73
     4
 40
20.32
 49
12.7
 74
     0
 49
-2.54
 74
     0
 49
2.54
 74
     0
 49
-2.54
 74
     0
  0
LTYPE
  5
3F
330
5
100
AcDbSymbolTableRecord
100
AcDbLinetypeTableRecord
  2
DOT2
 70
     0
  3
Dot (.5x) ........................................
 72
    65
 73
     2
 40
0.635
 49
0.0
 74
     0
 49
-0.635
 74
     0
  0
ENDTAB
  0
TABLE
  2
LAYER
  5
2
330
0
100
AcDbSymbolTable
 70
     5
  0
LAYER
  5
10
330
2
100
AcDbSymbolTableRecord
100
AcDbLayerTableRecord
  2
0
 70
     0
 62
     7
  6
Continuous
370
    -3
390
F
  0
LAYER
  5
40
330
2
100
AcDbSymbolTableRecord
100
AcDbLayerTableRecord
  2
FORMAT
 70
     0
 62
     7
  6
Continuous
370
    -3
390
F
  0
LAYER
  5
41
330
2
100
AcDbSymbolTableRecord
100
AcDbLayerTableRecord
  2
QUOTE
 70
     0
 62
   252
  6
Continuous
370
    -3
390
F
  0
LAYER
  5
42
330
2
100
AcDbSymbolTableRecord
100
AcDbLayerTableRecord
  2
LIVELLO2
 70
     0
 62
     7
  6
Continuous
370
    30
390
F
  0
LAYER
  5
43
330
2
100
AcDbSymbolTableRecord
100
AcDbLayerTableRecord
  2
MODIFICHE
 70
     0
 62
     1
  6
Continuous
370
    -3
390
F
  0
ENDTAB
  0
TABLE
  2
STYLE
  5
3
330
0
100
AcDbSymbolTable
 70
     3
  0
STYLE
  5
11
330
3
100
AcDbSymbolTableRecord
100
AcDbTextStyleTableRecord
  2
Standard
 70
     0
 40
0.0
 41
1.0
 50
0.0
 71
     0
 42
2.5
  3
txt
  4

  0
STYLE
  5
94
330
3
100
AcDbSymbolTableRecord
100
AcDbTextStyleTableRecord
  2
SLDTEXTSTYLE0
 70
     0
 40
0.0
 41
0.75
 50
0.0
 71
     0
 42
0.2
  3
TXT
  4

  0
STYLE
  5
D1
330
3
100
AcDbSymbolTableRecord
100
AcDbTextStyleTableRecord
  2
SLDTEXTSTYLE1
 70
     0
 40
0.0
 41
0.605
 50
0.0
 71
     0
 42
0.2
  3
TXT
  4

  0
ENDTAB
  0
TABLE
  2
VIEW
  5
6
330
0
100
AcDbSymbolTable
 70
     0
  0
ENDTAB
  0
TABLE
  2
UCS
  5
7
330
0
100
AcDbSymbolTable
 70
     0
  0
ENDTAB
  0
TABLE
  2
APPID
  5
9
330
0
100
AcDbSymbolTable
 70
     1
  0
APPID
  5
12
330
9
100
AcDbSymbolTableRecord
100
AcDbRegAppTableRecord
  2
ACAD
 70
     0
  0
ENDTAB
  0
TABLE
  2
DIMSTYLE
  5
A
330
0
100
AcDbSymbolTable
 70
     3
100
AcDbDimStyleTable
  0
DIMSTYLE
105
27
330
A
100
AcDbSymbolTableRecord
100
AcDbDimStyleTableRecord
  2
ISO-25
 70
     0
 41
2.5
 42
0.625
 43
3.75
 44
1.25
 73
     0
 74
     0
 77
     1
 78
     8
140
2.5
141
2.5
143
0.0393700787
147
0.625
171
     3
172
     1
271
     2
272
     2
274
     3
278
    44
283
     0
284
     8
340
11
  0
DIMSTYLE
105
15B
102
{ACAD_REACTORS
330
15A
102
}
330
A
100
AcDbSymbolTableRecord
100
AcDbDimStyleTableRecord
  2
SLDDIMSTYLE0
 70
     0
 41
2.0
 44
0.0
 45
0.000000001
 78
    12
140
6.0
147
1.5
173
     1
271
     0
272
     0
284
    12
340
D1
341
15C
343
15C
344
15C
  0
DIMSTYLE
105
16D
102
{ACAD_REACTORS
330
16C
330
289
330
294
330
29E
102
}
330
A
100
AcDbSymbolTableRecord
100
AcDbDimStyleTableRecord
  2
SLDDIMSTYLE1
 70
     0
 41
2.0
 44
0.0
 45
0.000000001
 78
    12
140
6.0
147
1.5
173
     1
271
     2
272
     2
284
    12
340
D1
341
15C
343
15C
344
15C
  0
ENDTAB
  0
TABLE
  2
BLOCK_RECORD
  5
1
330
0
100
AcDbSymbolTable
 70
    10
  0
BLOCK_RECORD
  5
1F
330
1
100
AcDbSymbolTableRecord
100
AcDbBlockTableRecord
  2
*Model_Space
340
22
  0
BLOCK_RECORD
  5
1B
330
1
100
AcDbSymbolTableRecord
100
AcDbBlockTableRecord
  2
*Paper_Space
340
1E
  0
BLOCK_RECORD
  5
23
330
1
100
AcDbSymbolTableRecord
100
AcDbBlockTableRecord
  2
*Paper_Space0
340
26
  0
BLOCK_RECORD
  5
AF
330
1
100
AcDbSymbolTableRecord
100
AcDbBlockTableRecord
  2
SW_NOTE_0
340
0
102
{BLKREFS
331
B4
102
}
  0
BLOCK_RECORD
  5
B6
330
1
100
AcDbSymbolTableRecord
100
AcDbBlockTableRecord
  2
SW_NOTE_1
340
0
102
{BLKREFS
331
BB
102
}
  0
BLOCK_RECORD
  5
BF
330
1
100
AcDbSymbolTableRecord
100
AcDbBlockTableRecord
  2
SW_NOTE_2
340
0
102
{BLKREFS
331
C6
102
}
  0
BLOCK_RECORD
  5
15C
330
1
100
AcDbSymbolTableRecord
100
AcDbBlockTableRecord
  2
_CLOSED
340
0
102
{BLKREFS
331
166
331
167
331
171
331
172
331
28D
331
28E
331
298
331
299
331
2A2
331
2A3
102
}
  0
BLOCK_RECORD
  5
163
330
1
100
AcDbSymbolTableRecord
100
AcDbBlockTableRecord
  2
*D5
340
0
  0
BLOCK_RECORD
  5
16E
330
1
100
AcDbSymbolTableRecord
100
AcDbBlockTableRecord
  2
*D6
340
0
  0
BLOCK_RECORD
  5
28A
330
1
100
AcDbSymbolTableRecord
100
AcDbBlockTableRecord
  2
*D7
340
0
  0
BLOCK_RECORD
  5
295
330
1
100
AcDbSymbolTableRecord
100
AcDbBlockTableRecord
  2
*D8
340
0
  0
BLOCK_RECORD
  5
29F
330
1
100
AcDbSymbolTableRecord
100
AcDbBlockTableRecord
  2
*D9
340
0
  0
ENDTAB
  0
ENDSEC
  0
SECTION
  2
BLOCKS
  0
BLOCK
  5
20
330
1F
100
AcDbEntity
  8
0
100
AcDbBlockBegin
  2
*Model_Space
 70
     0
 10
0.0
 20
0.0
 30
0.0
  3
*Model_Space
  1

  0
ENDBLK
  5
21
330
1F
100
AcDbEntity
  8
0
100
AcDbBlockEnd
  0
BLOCK
  5
1C
330
1B
100
AcDbEntity
 67
     1
  8
0
100
AcDbBlockBegin
  2
*Paper_Space
 70
     0
 10
0.0
 20
0.0
 30
0.0
  3
*Paper_Space
  1

  0
ENDBLK
  5
1D
330
1B
100
AcDbEntity
 67
     1
  8
0
100
AcDbBlockEnd
  0
BLOCK
  5
24
330
23
100
AcDbEntity
  8
0
100
AcDbBlockBegin
  2
*Paper_Space0
 70
     0
 10
0.0
 20
0.0
 30
0.0
  3
*Paper_Space0
  1

  0
ENDBLK
  5
25
330
23
100
AcDbEntity
  8
0
100
AcDbBlockEnd
  0
BLOCK
  5
B0
330
AF
100
AcDbEntity
  8
0
100
AcDbBlockBegin
  2
SW_NOTE_0
 70
     0
 10
0.0
 20
0.0
 30
0.0
  3
SW_NOTE_0
  1

  0
MTEXT
  5
B2
330
AF
100
AcDbEntity
  8
FORMAT
 62
     0
100
AcDbMText
 10
0.0
 20
4.7749217527
 30
0.0
 40
3.7041666667
 41
0.0
 71
     1
 72
     1
  1
MATERIALE: 
  7
SLDTEXTSTYLE0
 73
     1
 44
1.0
  0
MTEXT
  5
B3
330
AF
100
AcDbEntity
  8
FORMAT
 62
     0
100
AcDbMText
 10
27.7289468795
 20
5.8275646936
 30
0.0
 40
4.7625
 41
0.0
 71
     1
 72
     1
  1
.
  7
SLDTEXTSTYLE0
 73
     1
 44
1.0
  0
ENDBLK
  5
B1
330
AF
100
AcDbEntity
  8
0
100
AcDbBlockEnd
  0
BLOCK
  5
B7
330
B6
100
AcDbEntity
  8
0
100
AcDbBlockBegin
  2
SW_NOTE_1
 70
     0
 10
0.0
 20
0.0
 30
0.0
  3
SW_NOTE_1
  1

  0
MTEXT
  5
B9
330
B6
100
AcDbEntity
  8
FORMAT
 62
     0
100
AcDbMText
 10
0.0
 20
4.7749217527
 30
0.0
 40
3.7041666667
 41
0.0
 71
     1
 72
     1
  1
SCALA: 
  7
SLDTEXTSTYLE0
 73
     1
 44
1.0
  0
MTEXT
  5
BA
330
B6
100
AcDbEntity
  8
FORMAT
 62
     0
100
AcDbMText
 10
18.456524238
 20
5.8275649264
 30
0.0
 40
4.7625
 41
0.0
 71
     1
 72
     1
  1
1:2
  7
SLDTEXTSTYLE0
 73
     1
 44
1.0
  0
ENDBLK
  5
B8
330
B6
100
AcDbEntity
  8
0
100
AcDbBlockEnd
  0
BLOCK
  5
C0
330
BF
100
AcDbEntity
  8
0
100
AcDbBlockBegin
  2
SW_NOTE_2
 70
     0
 10
0.0
 20
0.0
 30
0.0
  3
SW_NOTE_2
  1

  0
MTEXT
  5
C2
330
BF
100
AcDbEntity
  8
FORMAT
 62
     0
100
AcDbMText
 10
0.0
 20
4.7749217527
 30
0.0
 40
3.7041666667
 41
0.0
 71
     1
 72
     1
  1
FOGLIO N° 
  7
SLDTEXTSTYLE0
 73
     1
 44
1.0
  0
MTEXT
  5
C3
330
BF
100
AcDbEntity
  8
FORMAT
 62
     0
100
AcDbMText
 10
26.4582112432
 20
5.8275649264
 30
0.0
 40
4.7625
 41
0.0
 71
     1
 72
     1
  1
1
  7
SLDTEXTSTYLE0
 73
     1
 44
1.0
  0
MTEXT
  5
C4
330
BF
100
AcDbEntity
  8
FORMAT
 62
     0
100
AcDbMText
 10
29.6839233488
 20
4.7749217527
 30
0.0
 40
3.7041666667
 41
0.0
 71
     1
 72
     1
  1
 DI 
  7
SLDTEXTSTYLE0
 73
     1
 44
1.0
  0
MTEXT
  5
C5
330
BF
100
AcDbEntity
  8
FORMAT
 62
     0
100
AcDbMText
 10
37.0279476047
 20
5.8275649264
 30
0.0
 40
4.7625
 41
0.0
 71
     1
 72
     1
  1
1
  7
SLDTEXTSTYLE0
 73
     1
 44
1.0
  0
ENDBLK
  5
C1
330
BF
100
AcDbEntity
  8
0
100
AcDbBlockEnd
  0
BLOCK
  5
15D
330
15C
100
AcDbEntity
  8
0
100
AcDbBlockBegin
  2
_CLOSED
 70
     0
 10
0.0
 20
0.0
 30
0.0
  3
_CLOSED
  1

  0
LINE
  5
15F
330
15C
100
AcDbEntity
  8
0
  6
ByBlock
 62
     0
370
    -2
100
AcDbLine
 10
-1.0
 20
0.166667
 30
0.0
 11
0.0
 21
0.0
 31
0.0
  0
LINE
  5
160
330
15C
100
AcDbEntity
  8
0
  6
ByBlock
 62
     0
370
    -2
100
AcDbLine
 10
0.0
 20
0.0
 30
0.0
 11
-1.0
 21
-0.166667
 31
0.0
  0
LINE
  5
161
330
15C
100
AcDbEntity
  8
0
  6
ByBlock
 62
     0
370
    -2
100
AcDbLine
 10
-1.0
 20
0.166667
 30
0.0
 11
-1.0
 21
-0.166667
 31
0.0
  0
LINE
  5
162
330
15C
100
AcDbEntity
  8
0
  6
ByBlock
 62
     0
370
    -2
100
AcDbLine
 10
0.0
 20
0.0
 30
0.0
 11
-1.0
 21
0.0
 31
0.0
  0
ENDBLK
  5
15E
330
15C
100
AcDbEntity
  8
0
100
AcDbBlockEnd
  0
BLOCK
  5
164
330
163
100
AcDbEntity
  8
0
100
AcDbBlockBegin
  2
*D5
 70
     1
 10
0.0
 20
0.0
 30
0.0
  3
*D5
  1

  0
INSERT
  5
166
330
163
100
AcDbEntity
  8
FORMAT
100
AcDbBlockReference
  2
_CLOSED
 10
265.7455504045
 20
236.7530791773
 30
132.8312915123
 41
2.0
 42
2.0
 50
360.0
  0
INSERT
  5
167
330
163
100
AcDbEntity
  8
FORMAT
100
AcDbBlockReference
  2
_CLOSED
 10
112.3455504044
 20
236.7530791773
 30
132.8312915123
 41
2.0
 42
2.0
 50
180.0
  0
LINE
  5
168
330
163
100
AcDbEntity
  8
FORMAT
100
AcDbLine
 10
265.7455504045
 20
225.8952325285
 30
0.0
 11
265.7455504045
 21
238.7530791773
 31
0.0
  0
LINE
  5
169
330
163
100
AcDbEntity
  8
FORMAT
100
AcDbLine
 10
112.3455504044
 20
225.8533981153
 30
0.0
 11
112.3455504044
 21
238.7530791773
 31
0.0
  0
LINE
  5
16A
330
163
100
AcDbEntity
  8
FORMAT
100
AcDbLine
 10
265.7455504045
 20
236.7530791773
 30
0.0
 11
112.3455504044
 21
236.7530791773
 31
0.0
  0
MTEXT
  5
16B
330
163
100
AcDbEntity
  8
FORMAT
100
AcDbMText
 10
188.7229349769
 20
244.4874860815
 30
0.0
 40
6.0
 41
0.0
 71
     1
 72
     1
  1
153
  7
SLDTEXTSTYLE1
 73
     1
 44
1.0
  0
ENDBLK
  5
165
330
163
100
AcDbEntity
  8
0
100
AcDbBlockEnd
  0
BLOCK
  5
16F
330
16E
100
AcDbEntity
  8
0
100
AcDbBlockBegin
  2
*D6
 70
     1
 10
0.0
 20
0.0
 30
0.0
  3
*D6
  1

  0
INSERT
  5
171
330
16E
100
AcDbEntity
  8
FORMAT
100
AcDbBlockReference
  2
_CLOSED
 10
117.0455504045
 20
159.7077976147
 30
132.8312915123
 41
2.0
 42
2.0
 50
180.0
  0
INSERT
  5
172
330
16E
100
AcDbEntity
  8
FORMAT
100
AcDbBlockReference
  2
_CLOSED
 10
261.0455504045
 20
159.7077976147
 30
132.8312915123
 41
2.0
 42
2.0
 50
0.0
  0
LINE
  5
173
330
16E
100
AcDbEntity
  8
FORMAT
100
AcDbLine
 10
117.0455504045
 20
185.3533981155
 30
0.0
 11
117.0455504045
 21
157.7077976147
 31
0.0
  0
LINE
  5
174
330
16E
100
AcDbEntity
  8
FORMAT
100
AcDbLine
 10
261.0455504045
 20
185.3533981155
 30
0.0
 11
261.0455504045
 21
157.7077976147
 31
0.0
  0
LINE
  5
175
330
16E
100
AcDbEntity
  8
FORMAT
100
AcDbLine
 10
117.0455504045
 20
159.7077976147
 30
0.0
 11
261.0455504045
 21
159.7077976147
 31
0.0
  0
MTEXT
  5
176
330
16E
100
AcDbEntity
  8
FORMAT
100
AcDbMText
 10
188.7229349769
 20
167.442204519
 30
0.0
 40
6.0
 41
0.0
 71
     1
 72
     1
  1
144
  7
SLDTEXTSTYLE1
 73
     1
 44
1.0
  0
ENDBLK
  5
170
330
16E
100
AcDbEntity
  8
0
100
AcDbBlockEnd
  0
BLOCK
  5
28B
330
28A
100
AcDbEntity
  8
0
100
AcDbBlockBegin
  2
*D7
 70
     1
 10
0.0
 20
0.0
 30
0.0
  3
*D7
  1

  0
INSERT
  5
28D
330
28A
100
AcDbEntity
  8
FORMAT
100
AcDbBlockReference
  2
_CLOSED
 10
449.2233791476
 20
187.3533981155
 30
-142.555842975
 41
2.0
 42
2.0
 50
270.0
  0
INSERT
  5
28E
330
28A
100
AcDbEntity
  8
FORMAT
100
AcDbBlockReference
  2
_CLOSED
 10
449.2233791476
 20
223.3533981155
 30
-142.555842975
 41
2.0
 42
2.0
 50
90.0
  0
LINE
  5
28F
330
28A
100
AcDbEntity
  8
FORMAT
100
AcDbLine
 10
428.182132061
 20
187.3533981155
 30
0.0
 11
451.2233791476
 21
187.3533981155
 31
0.0
  0
LINE
  5
290
330
28A
100
AcDbEntity
  8
FORMAT
100
AcDbLine
 10
428.182132061
 20
223.3533981155
 30
0.0
 11
451.2233791476
 21
223.3533981155
 31
0.0
  0
LINE
  5
291
330
28A
100
AcDbEntity
  8
FORMAT
100
AcDbLine
 10
449.2233791476
 20
187.3533981155
 30
0.0
 11
449.2233791476
 21
200.6272486941
 31
0.0
  0
LINE
  5
292
330
28A
100
AcDbEntity
  8
FORMAT
100
AcDbLine
 10
449.2233791476
 20
223.3533981155
 30
0.0
 11
449.2233791476
 21
209.9517370107
 31
0.0
  0
MTEXT
  5
293
330
28A
100
AcDbEntity
  8
FORMAT
100
AcDbMText
 10
445.4660178529
 20
208.3616555984
 30
0.0
 40
6.0
 41
0.0
 71
     1
 72
     1
  1
36
  7
SLDTEXTSTYLE1
 73
     1
 44
1.0
  0
ENDBLK
  5
28C
330
28A
100
AcDbEntity
  8
0
100
AcDbBlockEnd
  0
BLOCK
  5
296
330
295
100
AcDbEntity
  8
0
100
AcDbBlockBegin
  2
*D8
 70
     1
 10
0.0
 20
0.0
 30
0.0
  3
*D8
  1

  0
INSERT
  5
298
330
295
100
AcDbEntity
  8
FORMAT
100
AcDbBlockReference
  2
_CLOSED
 10
431.682132061
 20
232.3589898124
 30
-142.555842975
 41
2.0
 42
2.0
 50
359.9999999997
  0
INSERT
  5
299
330
295
100
AcDbEntity
  8
FORMAT
100
AcDbBlockReference
  2
_CLOSED
 10
389.6821320609
 20
232.3589898126
 30
-142.555842975
 41
2.0
 42
2.0
 50
179.9999999997
  0
LINE
  5
29A
330
295
100
AcDbEntity
  8
FORMAT
100
AcDbLine
 10
431.682132061
 20
225.8533981152
 30
0.0
 11
431.682132061
 21
234.3589898124
 31
0.0
  0
LINE
  5
29B
330
295
100
AcDbEntity
  8
FORMAT
100
AcDbLine
 10
389.6821320609
 20
225.8533981154
 30
0.0
 11
389.6821320609
 21
234.3589898126
 31
0.0
  0
LINE
  5
29C
330
295
100
AcDbEntity
  8
FORMAT
100
AcDbLine
 10
431.682132061
 20
232.3589898124
 30
0.0
 11
389.6821320609
 21
232.3589898126
 31
0.0
  0
MTEXT
  5
29D
330
295
100
AcDbEntity
  8
FORMAT
100
AcDbMText
 10
406.8679253263
 20
240.0933967168
 30
0.0
 40
6.0
 41
0.0
 71
     1
 72
     1
  1
42
  7
SLDTEXTSTYLE1
 73
     1
 44
1.0
  0
ENDBLK
  5
297
330
295
100
AcDbEntity
  8
0
100
AcDbBlockEnd
  0
BLOCK
  5
2A0
330
29F
100
AcDbEntity
  8
0
100
AcDbBlockBegin
  2
*D9
 70
     1
 10
0.0
 20
0.0
 30
0.0
  3
*D9
  1

  0
INSERT
  5
2A2
330
29F
100
AcDbEntity
  8
FORMAT
100
AcDbBlockReference
  2
_CLOSED
 10
395.182132061
 20
169.5625264746
 30
-142.555842975
 41
2.0
 42
2.0
 50
180.0
  0
INSERT
  5
2A3
330
29F
100
AcDbEntity
  8
FORMAT
100
AcDbBlockReference
  2
_CLOSED
 10
426.182132061
 20
169.5625264746
 30
-142.555842975
 41
2.0
 42
2.0
 50
360.0
  0
LINE
  5
2A4
330
29F
100
AcDbEntity
  8
FORMAT
100
AcDbLine
 10
395.182132061
 20
185.3533981155
 30
0.0
 11
395.182132061
 21
167.5625264746
 31
0.0
  0
LINE
  5
2A5
330
29F
100
AcDbEntity
  8
FORMAT
100
AcDbLine
 10
426.182132061
 20
185.3533981155
 30
0.0
 11
426.182132061
 21
167.5625264746
 31
0.0
  0
LINE
  5
2A6
330
29F
100
AcDbEntity
  8
FORMAT
100
AcDbLine
 10
395.182132061
 20
169.5625264746
 30
0.0
 11
426.182132061
 21
169.5625264746
 31
0.0
  0
MTEXT
  5
2A7
330
29F
100
AcDbEntity
  8
FORMAT
100
AcDbMText
 10
407.6351321734
 20
177.2969333789
 30
0.0
 40
6.0
 41
0.0
 71
     1
 72
     1
  1
31
  7
SLDTEXTSTYLE1
 73
     1
 44
1.0
  0
ENDBLK
  5
2A1
330
29F
100
AcDbEntity
  8
0
100
AcDbBlockEnd
  0
ENDSEC
  0
SECTION
  2
ENTITIES
  0
HATCH
  5
44
330
1F
100
AcDbEntity
  8
FORMAT
100
AcDbHatch
 10
0.0
 20
0.0
 30
0.0
210
0.0
220
0.0
230
1.0
  2
SOLID
 70
     1
 71
     0
 91
        1
 92
        0
 93
        4
 72
     1
 10
530.3068903027043
 20
32.4470282819962
 11
530.3068903027043
 21
35.40292667549856
 72
     2
 10
530.3461979739384
 20
24.32280331825582
 40
11.08019308066122
 50
90.20326075293244
 51
269.7967392470684
 73
     1
 72
     1
 10
530.3068903027043
 20
13.24267996101318
 11
530.3068903027043
 21
16.19857835451549
 72
     2
 10
530.3461979739384
 20
24.32280331825582
 40
8.12432005490181
 50
90.27721365429254
 51
269.7227863457083
 73
     0
 97
        0
 75
     0
 76
     1
 98
        1
 10
0.0
 20
0.0
  0
HATCH
  5
45
330
1F
100
AcDbEntity
  8
FORMAT
100
AcDbHatch
 10
0.0
 20
0.0
 30
0.0
210
0.0
220
0.0
230
1.0
  2
SOLID
 70
     1
 71
     0
 91
        1
 92
        0
 93
        4
 72
     1
 10
537.5198914802269
 20
13.24267996101317
 11
537.5198914802269
 21
35.40292667549856
 72
     1
 10
537.5198914802269
 20
35.40292667549856
 11
534.5674427016536
 21
35.40292667549856
 72
     1
 10
534.5674427016536
 20
35.40292667549856
 11
534.5674427016536
 21
13.24267996101317
 72
     1
 10
534.5674427016536
 20
13.24267996101317
 11
537.5198914802269
 21
13.24267996101317
 97
        0
 75
     0
 76
     1
 98
        1
 10
0.0
 20
0.0
  0
HATCH
  5
46
330
1F
100
AcDbEntity
  8
FORMAT
100
AcDbHatch
 10
0.0
 20
0.0
 30
0.0
210
0.0
220
0.0
230
1.0
  2
SOLID
 70
     1
 71
     0
 91
        1
 92
        0
 93
        6
 72
     1
 10
549.9492382777493
 20
13.02898310846642
 11
559.2406531606698
 21
38.2757983168614
 72
     1
 10
559.2406531606698
 20
38.2757983168614
 11
556.0170041441418
 21
38.27579831686141
 72
     1
 10
556.0170041441418
 20
38.27579831686141
 11
549.9129416432667
 21
21.68971967093144
 72
     1
 10
549.9129416432667
 20
21.68971967093144
 11
543.8078839063804
 21
38.2757983168614
 72
     1
 10
543.8078839063804
 20
38.2757983168614
 11
540.656308477397
 21
38.2757983168614
 72
     1
 10
540.656308477397
 20
38.2757983168614
 11
549.9492382777493
 21
13.02898310846642
 97
        0
 75
     0
 76
     1
 98
        1
 10
0.0
 20
0.0
  0
HATCH
  5
47
330
1F
100
AcDbEntity
  8
FORMAT
100
AcDbHatch
 10
0.0
 20
0.0
 30
0.0
210
0.0
220
0.0
230
1.0
  2
SOLID
 70
     1
 71
     0
 91
        1
 92
        0
 93
        4
 72
     1
 10
562.7531654969633
 20
35.40292667549856
 11
562.7531654969633
 21
13.24267996101317
 72
     1
 10
562.7531654969633
 20
13.24267996101317
 11
565.7056142755366
 21
13.24267996101317
 72
     1
 10
565.7056142755366
 20
13.24267996101317
 11
565.7056142755366
 21
35.40292667549856
 72
     1
 10
565.7056142755366
 20
35.40292667549856
 11
562.7531654969633
 21
35.40292667549856
 97
        0
 75
     0
 76
     1
 98
        1
 10
0.0
 20
0.0
  0
HATCH
  5
48
330
1F
100
AcDbEntity
  8
FORMAT
100
AcDbHatch
 10
0.0
 20
0.0
 30
0.0
210
0.0
220
0.0
230
1.0
  2
SOLID
 70
     1
 71
     0
 91
        1
 92
        0
 93
        4
 72
     2
 10
580.730752684143
 20
24.32280636785606
 40
8.124320054901796
 50
90.27721365429171
 51
269.7227863457091
 73
     0
 72
     1
 10
580.6914450129091
 20
32.44703133159638
 11
580.6914450129091
 21
35.40292972509874
 72
     2
 10
580.730752684143
 20
24.32280636785606
 40
11.08019308066121
 50
90.20326075293184
 51
269.7967392470701
 73
     1
 72
     1
 10
580.6914450129093
 20
13.24268301061339
 11
580.6914450129091
 21
16.19858140411571
 97
        0
 75
     0
 76
     1
 98
        1
 10
0.0
 20
0.0
  0
HATCH
  5
49
330
1F
100
AcDbEntity
  8
FORMAT
100
AcDbHatch
 10
0.0
 20
0.0
 30
0.0
210
0.0
220
0.0
230
1.0
  2
SOLID
 70
     1
 71
     0
 91
        2
 92
        0
 93
        7
 72
     1
 10
557.1107556566337
 20
39.03771898333247
 11
560.9100333519841
 21
49.36119103883285
 72
     1
 10
560.9100333519841
 20
49.36119103883285
 11
538.9843598627089
 21
49.36119103883286
 72
     1
 10
538.9843598627089
 20
49.36119103883286
 11
542.7836375580592
 21
39.03771898333247
 72
     1
 10
542.7836375580592
 20
39.03771898333247
 11
544.1716674447418
 21
39.03771898333242
 72
     1
 10
544.1716674447418
 20
39.03771898333242
 11
549.9476674041356
 21
23.34561684209137
 72
     1
 10
549.9476674041356
 20
23.34561684209137
 11
555.7227257699511
 21
39.03771898333248
 72
     1
 10
555.7227257699511
 20
39.03771898333248
 11
557.1107556566337
 21
39.03771898333247
 97
        0
 92
        0
 93
        7
 72
     1
 10
549.9487931416367
 20
25.1215476658363
 11
544.6050983603803
 21
39.64154019360966
 72
     1
 10
544.6050983603803
 20
39.64154019360966
 11
543.2117450862938
 21
39.64154019360966
 72
     1
 10
543.2117450862938
 20
39.64154019360966
 11
539.8542960243935
 21
48.76446679903074
 72
     1
 10
539.8542960243935
 20
48.76446679903074
 11
560.0432902588801
 21
48.76446679903074
 72
     1
 10
560.0432902588801
 20
48.76446679903074
 11
556.6858411969797
 21
39.64154019360966
 72
     1
 10
556.6858411969797
 20
39.64154019360966
 11
555.2924879228931
 21
39.64154019360966
 72
     1
 10
555.2924879228931
 20
39.64154019360966
 11
549.9487931416367
 21
25.1215476658363
 97
        0
 75
     0
 76
     1
 98
        1
 10
0.0
 20
0.0
  0
LINE
  5
4A
330
1F
100
AcDbEntity
  8
0
  6
Continuous
 62
     7
370
     0
100
AcDbLine
 10
297.0
 20
20.0
 30
0.0
 11
297.0
 21
10.0
 31
0.0
  0
LINE
  5
4B
330
1F
100
AcDbEntity
  8
0
  6
Continuous
 62
     7
370
     0
100
AcDbLine
 10
584.0
 20
10.0
 30
0.0
 11
584.0
 21
410.0
 31
0.0
  0
LINE
  5
4C
330
1F
100
AcDbEntity
  8
0
  6
Continuous
 62
     7
370
     0
100
AcDbLine
 10
574.0
 20
400.0
 30
0.0
 11
20.0
 21
400.0
 31
0.0
  0
LINE
  5
4D
330
1F
100
AcDbEntity
  8
0
  6
Continuous
 62
     7
370
     0
100
AcDbLine
 10
584.0
 20
410.0
 30
0.0
 11
10.0
 21
410.0
 31
0.0
  0
LINE
  5
4E
330
1F
100
AcDbEntity
  8
0
  6
Continuous
 62
     7
370
     0
100
AcDbLine
 10
20.0
 20
400.0
 30
0.0
 11
20.0
 21
20.0
 31
0.0
  0
LINE
  5
4F
330
1F
100
AcDbEntity
  8
0
  6
Continuous
 62
     7
370
     0
100
AcDbLine
 10
10.0
 20
410.0
 30
0.0
 11
10.0
 21
10.0
 31
0.0
  0
LINE
  5
50
330
1F
100
AcDbEntity
  8
0
  6
Continuous
 62
     7
370
     0
100
AcDbLine
 10
20.0
 20
110.0
 30
0.0
 11
10.0
 21
110.0
 31
0.0
  0
LINE
  5
51
330
1F
100
AcDbEntity
  8
0
  6
Continuous
 62
     7
370
     0
100
AcDbLine
 10
10.0
 20
210.0
 30
0.0
 11
30.0
 21
210.0
 31
0.0
  0
LINE
  5
52
330
1F
100
AcDbEntity
  8
0
  6
Continuous
 62
     7
370
     0
100
AcDbLine
 10
10.0
 20
10.0
 30
0.0
 11
584.0
 21
10.0
 31
0.0
  0
LINE
  5
53
330
1F
100
AcDbEntity
  8
0
  6
Continuous
 62
     7
370
     0
100
AcDbLine
 10
20.0
 20
20.0
 30
0.0
 11
407.2
 21
20.0
 31
0.0
  0
LINE
  5
54
330
1F
100
AcDbEntity
  8
0
  6
Continuous
 62
     7
370
     0
100
AcDbLine
 10
97.0
 20
10.0
 30
0.0
 11
97.0
 21
20.0
 31
0.0
  0
LINE
  5
55
330
1F
100
AcDbEntity
  8
0
  6
Continuous
 62
     7
370
     0
100
AcDbLine
 10
197.0
 20
20.0
 30
0.0
 11
197.0
 21
10.0
 31
0.0
  0
LINE
  5
56
330
1F
100
AcDbEntity
  8
0
  6
Continuous
 62
     7
370
     0
100
AcDbLine
 10
20.0
 20
310.0
 30
0.0
 11
10.0
 21
310.0
 31
0.0
  0
LINE
  5
57
330
1F
100
AcDbEntity
  8
0
  6
Continuous
 62
     7
370
     0
100
AcDbLine
 10
97.0
 20
400.0
 30
0.0
 11
97.0
 21
410.0
 31
0.0
  0
LINE
  5
58
330
1F
100
AcDbEntity
  8
0
  6
Continuous
 62
     7
370
     0
100
AcDbLine
 10
197.0
 20
410.0
 30
0.0
 11
197.0
 21
400.0
 31
0.0
  0
LINE
  5
59
330
1F
100
AcDbEntity
  8
0
  6
Continuous
 62
     7
370
     0
100
AcDbLine
 10
297.0
 20
410.0
 30
0.0
 11
297.0
 21
390.0
 31
0.0
  0
LINE
  5
5A
330
1F
100
AcDbEntity
  8
0
  6
Continuous
 62
     7
370
     0
100
AcDbLine
 10
574.0
 20
115.0
 30
0.0
 11
574.0
 21
400.0
 31
0.0
  0
LINE
  5
5B
330
1F
100
AcDbEntity
  8
0
  6
Continuous
 62
     7
370
     0
100
AcDbLine
 10
516.2
 20
44.0
 30
0.0
 11
407.2
 21
44.0
 31
0.0
  0
LINE
  5
5C
330
1F
100
AcDbEntity
  8
0
  6
Continuous
 62
     7
370
     0
100
AcDbLine
 10
584.0
 20
210.0
 30
0.0
 11
574.0
 21
210.0
 31
0.0
  0
LINE
  5
5D
330
1F
100
AcDbEntity
  8
0
  6
Continuous
 62
     7
370
     0
100
AcDbLine
 10
397.0
 20
410.0
 30
0.0
 11
397.0
 21
400.0
 31
0.0
  0
LINE
  5
5E
330
1F
100
AcDbEntity
  8
0
  6
Continuous
 62
     7
370
     0
100
AcDbLine
 10
497.0
 20
400.0
 30
0.0
 11
497.0
 21
410.0
 31
0.0
  0
LINE
  5
5F
330
1F
100
AcDbEntity
  8
0
  6
Continuous
 62
     7
370
     0
100
AcDbLine
 10
574.0
 20
310.0
 30
0.0
 11
584.0
 21
310.0
 31
0.0
  0
LINE
  5
60
330
1F
100
AcDbEntity
  8
0
  6
Continuous
 62
     7
370
     0
100
AcDbLine
 10
584.0
 20
115.0
 30
0.0
 11
407.2
 21
115.0
 31
0.0
  0
LINE
  5
61
330
1F
100
AcDbEntity
  8
0
  6
Continuous
 62
     7
370
     0
100
AcDbLine
 10
584.0284406343
 20
50.8
 30
0.0
 11
407.2
 21
50.8
 31
0.0
  0
LINE
  5
62
330
1F
100
AcDbEntity
  8
0
  6
Continuous
 62
     7
370
     0
100
AcDbLine
 10
584.0075347842
 20
90.0
 30
0.0
 11
407.2075347842
 21
90.0
 31
0.0
  0
LINE
  5
63
330
1F
100
AcDbEntity
  8
0
  6
Continuous
 62
     7
370
     0
100
AcDbLine
 10
439.2
 20
50.8
 30
0.0
 11
439.2
 21
10.0
 31
0.0
  0
LINE
  5
64
330
1F
100
AcDbEntity
  8
0
  6
Continuous
 62
     7
370
     0
100
AcDbLine
 10
477.7
 20
50.8
 30
0.0
 11
477.7
 21
10.0
 31
0.0
  0
LINE
  5
65
330
1F
100
AcDbEntity
  8
0
  6
Continuous
 62
     7
370
     0
100
AcDbLine
 10
516.1876038347
 20
37.2
 30
0.0
 11
407.1684118385
 21
37.2
 31
0.0
  0
LINE
  5
66
330
1F
100
AcDbEntity
  8
0
  6
Continuous
 62
     7
370
     0
100
AcDbLine
 10
516.1876038347
 20
30.4
 30
0.0
 11
407.1684118385
 21
30.4
 31
0.0
  0
LINE
  5
67
330
1F
100
AcDbEntity
  8
0
  6
Continuous
 62
     7
370
     0
100
AcDbLine
 10
516.1876038347
 20
23.6
 30
0.0
 11
407.1684118385
 21
23.6
 31
0.0
  0
LINE
  5
68
330
1F
100
AcDbEntity
  8
0
  6
Continuous
 62
     7
370
     0
100
AcDbLine
 10
516.1876038347
 20
16.8
 30
0.0
 11
407.1684118385
 21
16.8
 31
0.0
  0
LINE
  5
69
330
1F
100
AcDbEntity
  8
FORMAT
100
AcDbLine
 10
530.3068903027
 20
35.4029266755
 30
0.0
 11
530.3068903027
 21
32.447028282
 31
0.0
  0
LINE
  5
6A
330
1F
100
AcDbEntity
  8
FORMAT
100
AcDbLine
 10
530.3068903027
 20
16.1985783545
 30
0.0
 11
530.3068903027
 21
13.242679961
 31
0.0
  0
LINE
  5
6B
330
1F
100
AcDbEntity
  8
FORMAT
100
AcDbLine
 10
534.5674427017
 20
35.4029266755
 30
0.0
 11
537.5198914802
 21
35.4029266755
 31
0.0
  0
LINE
  5
6C
330
1F
100
AcDbEntity
  8
FORMAT
100
AcDbLine
 10
537.5198914802
 20
13.242679961
 30
0.0
 11
534.5674427017
 21
13.242679961
 31
0.0
  0
LINE
  5
6D
330
1F
100
AcDbEntity
  8
FORMAT
100
AcDbLine
 10
534.5674427017
 20
13.242679961
 30
0.0
 11
534.5674427017
 21
35.4029266755
 31
0.0
  0
LINE
  5
6E
330
1F
100
AcDbEntity
  8
0
  6
Continuous
 62
     7
370
     0
100
AcDbLine
 10
516.2
 20
90.0
 30
0.0
 11
516.2
 21
10.0
 31
0.0
  0
LINE
  5
6F
330
1F
100
AcDbEntity
  8
FORMAT
100
AcDbLine
 10
549.9492382777
 20
13.0289831085
 30
0.0
 11
540.6563084774
 21
38.2757983169
 31
0.0
  0
LINE
  5
70
330
1F
100
AcDbEntity
  8
FORMAT
100
AcDbLine
 10
540.6563084774
 20
38.2757983169
 30
0.0
 11
543.8078839064
 21
38.2757983169
 31
0.0
  0
LINE
  5
71
330
1F
100
AcDbEntity
  8
FORMAT
100
AcDbLine
 10
543.8078839064
 20
38.2757983169
 30
0.0
 11
549.9129416433
 21
21.6897196709
 31
0.0
  0
LINE
  5
72
330
1F
100
AcDbEntity
  8
0
  6
Continuous
 62
     7
370
     0
100
AcDbLine
 10
407.2
 20
115.0
 30
0.0
 11
407.2
 21
10.0
 31
0.0
  0
LINE
  5
73
330
1F
100
AcDbEntity
  8
FORMAT
100
AcDbLine
 10
549.9129416433
 20
21.6897196709
 30
0.0
 11
556.0170041441
 21
38.2757983169
 31
0.0
  0
LINE
  5
74
330
1F
100
AcDbEntity
  8
0
  6
Continuous
 62
     7
370
     0
100
AcDbLine
 10
584.0
 20
80.2
 30
0.0
 11
407.2
 21
80.2
 31
0.0
  0
LINE
  5
75
330
1F
100
AcDbEntity
  8
FORMAT
100
AcDbLine
 10
556.0170041441
 20
38.2757983169
 30
0.0
 11
559.2406531607
 21
38.2757983169
 31
0.0
  0
LINE
  5
76
330
1F
100
AcDbEntity
  8
FORMAT
100
AcDbLine
 10
559.2406531607
 20
38.2757983169
 30
0.0
 11
549.9492382777
 21
13.0289831085
 31
0.0
  0
LINE
  5
77
330
1F
100
AcDbEntity
  8
0
  6
Continuous
 62
     7
370
     0
100
AcDbLine
 10
461.2
 20
90.0
 30
0.0
 11
461.2
 21
70.4
 31
0.0
  0
LINE
  5
78
330
1F
100
AcDbEntity
  8
0
  6
Continuous
 62
     7
370
     0
100
AcDbLine
 10
584.0284406343
 20
70.4
 30
0.0
 11
407.2284406343
 21
70.4
 31
0.0
  0
LINE
  5
79
330
1F
100
AcDbEntity
  8
0
  6
Continuous
 62
     7
370
     0
100
AcDbLine
 10
584.0284406343
 20
60.6
 30
0.0
 11
407.2284406343
 21
60.6
 31
0.0
  0
LINE
  5
7A
330
1F
100
AcDbEntity
  8
FORMAT
100
AcDbLine
 10
565.7056142755
 20
13.242679961
 30
0.0
 11
562.753165497
 21
13.242679961
 31
0.0
  0
LINE
  5
7B
330
1F
100
AcDbEntity
  8
FORMAT
100
AcDbLine
 10
562.753165497
 20
35.4029266755
 30
0.0
 11
565.7056142755
 21
35.4029266755
 31
0.0
  0
LINE
  5
7C
330
1F
100
AcDbEntity
  8
FORMAT
370
     0
100
AcDbLine
 10
565.7056142755
 20
35.4029266755
 30
0.0
 11
565.7056142755
 21
13.242679961
 31
0.0
  0
LINE
  5
7D
330
1F
100
AcDbEntity
  8
FORMAT
100
AcDbLine
 10
562.753165497
 20
13.242679961
 30
0.0
 11
562.753165497
 21
35.4029266755
 31
0.0
  0
LINE
  5
7E
330
1F
100
AcDbEntity
  8
FORMAT
100
AcDbLine
 10
580.6914450129
 20
35.4029297251
 30
0.0
 11
580.6914450129
 21
32.4470313316
 31
0.0
  0
LINE
  5
7F
330
1F
100
AcDbEntity
  8
FORMAT
370
     0
100
AcDbLine
 10
537.5198914802
 20
35.4029266755
 30
0.0
 11
537.5198914802
 21
13.242679961
 31
0.0
  0
LINE
  5
80
330
1F
100
AcDbEntity
  8
FORMAT
100
AcDbLine
 10
555.72272577
 20
39.0377189833
 30
0.0
 11
549.9476674041
 21
23.3456168421
 31
0.0
  0
LINE
  5
81
330
1F
100
AcDbEntity
  8
FORMAT
100
AcDbLine
 10
555.72272577
 20
39.0377189833
 30
0.0
 11
557.1107556566
 21
39.0377189833
 31
0.0
  0
LINE
  5
82
330
1F
100
AcDbEntity
  8
FORMAT
100
AcDbLine
 10
560.910033352
 20
49.3611910388
 30
0.0
 11
557.1107556566
 21
39.0377189833
 31
0.0
  0
LINE
  5
83
330
1F
100
AcDbEntity
  8
FORMAT
100
AcDbLine
 10
544.1716674447
 20
39.0377189833
 30
0.0
 11
549.9476674041
 21
23.3456168421
 31
0.0
  0
LINE
  5
84
330
1F
100
AcDbEntity
  8
FORMAT
100
AcDbLine
 10
542.7836375581
 20
39.0377189833
 30
0.0
 11
538.9843598627
 21
49.3611910388
 31
0.0
  0
LINE
  5
85
330
1F
100
AcDbEntity
  8
FORMAT
100
AcDbLine
 10
542.7836375581
 20
39.0377189833
 30
0.0
 11
544.1716674447
 21
39.0377189833
 31
0.0
  0
LINE
  5
86
330
1F
100
AcDbEntity
  8
FORMAT
 62
   250
100
AcDbLine
 10
549.9487931416
 20
25.1215476658
 30
0.0
 11
555.2924879229
 21
39.6415401936
 31
0.0
  0
LINE
  5
87
330
1F
100
AcDbEntity
  8
FORMAT
 62
   250
100
AcDbLine
 10
555.2924879229
 20
39.6415401936
 30
0.0
 11
556.685841197
 21
39.6415401936
 31
0.0
  0
LINE
  5
88
330
1F
100
AcDbEntity
  8
FORMAT
 62
   250
100
AcDbLine
 10
556.685841197
 20
39.6415401936
 30
0.0
 11
560.0432902589
 21
48.764466799
 31
0.0
  0
LINE
  5
89
330
1F
100
AcDbEntity
  8
FORMAT
 62
   250
100
AcDbLine
 10
560.0432902589
 20
48.764466799
 30
0.0
 11
539.8542960244
 21
48.764466799
 31
0.0
  0
LINE
  5
8A
330
1F
100
AcDbEntity
  8
FORMAT
 62
   250
100
AcDbLine
 10
539.8542960244
 20
48.764466799
 30
0.0
 11
543.2117450863
 21
39.6415401936
 31
0.0
  0
LINE
  5
8B
330
1F
100
AcDbEntity
  8
FORMAT
 62
   250
100
AcDbLine
 10
543.2117450863
 20
39.6415401936
 30
0.0
 11
544.6050983604
 21
39.6415401936
 31
0.0
  0
LINE
  5
8C
330
1F
100
AcDbEntity
  8
FORMAT
 62
   250
100
AcDbLine
 10
544.6050983604
 20
39.6415401936
 30
0.0
 11
549.9487931416
 21
25.1215476658
 31
0.0
  0
LINE
  5
8D
330
1F
100
AcDbEntity
  8
FORMAT
100
AcDbLine
 10
560.910033352
 20
49.3611910388
 30
0.0
 11
538.9843598627
 21
49.3611910388
 31
0.0
  0
LINE
  5
8E
330
1F
100
AcDbEntity
  8
FORMAT
100
AcDbLine
 10
580.6914450129
 20
16.1985814041
 30
0.0
 11
580.6914450129
 21
13.2426830106
 31
0.0
  0
LINE
  5
8F
330
1F
100
AcDbEntity
  8
0
  6
Continuous
 62
     7
370
     0
100
AcDbLine
 10
461.2
 20
60.6
 30
0.0
 11
461.2
 21
50.8
 31
0.0
  0
ARC
  5
90
330
1F
100
AcDbEntity
  8
FORMAT
100
AcDbCircle
 10
530.3461979739
 20
24.3228033183
 30
0.0
 40
8.124320054901833
100
AcDbArc
 50
90.2772136543
 51
269.7227863457
  0
ARC
  5
91
330
1F
100
AcDbEntity
  8
FORMAT
100
AcDbCircle
 10
580.7307526841
 20
24.3228063679
 30
0.0
 40
11.08019308066121
100
AcDbArc
 50
90.2032607529
 51
269.7967392471
  0
ARC
  5
92
330
1F
100
AcDbEntity
  8
FORMAT
100
AcDbCircle
 10
530.3461979739
 20
24.3228033183
 30
0.0
 40
11.08019308066127
100
AcDbArc
 50
90.2032607529
 51
269.7967392471
  0
ARC
  5
93
330
1F
100
AcDbEntity
  8
FORMAT
100
AcDbCircle
 10
580.7307526841
 20
24.3228063679
 30
0.0
 40
8.124320054901808
100
AcDbArc
 50
90.2772136543
 51
269.7227863457
  0
MTEXT
  5
95
330
1F
100
AcDbEntity
  8
0
  6
Continuous
 62
     7
370
     0
100
AcDbMText
 10
13.3333333333
 20
262.3360328071
 30
0.0
 40
3.7041666667
 41
0.0
 71
     1
 72
     1
  1
B
  7
SLDTEXTSTYLE0
 73
     1
 44
1.0
  0
MTEXT
  5
96
330
1F
100
AcDbEntity
  8
0
  6
Continuous
 62
     7
370
     0
100
AcDbMText
 10
13.3333333333
 20
162.3360328071
 30
0.0
 40
3.7041666667
 41
0.0
 71
     1
 72
     1
  1
C
  7
SLDTEXTSTYLE0
 73
     1
 44
1.0
  0
MTEXT
  5
97
330
1F
100
AcDbEntity
  8
0
  6
Continuous
 62
     7
370
     0
100
AcDbMText
 10
13.3333333333
 20
62.3360328071
 30
0.0
 40
3.7041666667
 41
0.0
 71
     1
 72
     1
  1
D
  7
SLDTEXTSTYLE0
 73
     1
 44
1.0
  0
MTEXT
  5
98
330
1F
100
AcDbEntity
  8
0
  6
Continuous
 62
     7
370
     0
100
AcDbMText
 10
46.1666746667
 20
17.3360328071
 30
0.0
 40
3.7041666667
 41
0.0
 71
     1
 72
     1
  1
1
  7
SLDTEXTSTYLE0
 73
     1
 44
1.0
  0
MTEXT
  5
99
330
1F
100
AcDbEntity
  8
0
  6
Continuous
 62
     7
370
     0
100
AcDbMText
 10
145.3333413333
 20
17.3360328071
 30
0.0
 40
3.7041666667
 41
0.0
 71
     1
 72
     1
  1
2
  7
SLDTEXTSTYLE0
 73
     1
 44
1.0
  0
MTEXT
  5
9A
330
1F
100
AcDbEntity
  8
0
  6
Continuous
 62
     7
370
     0
100
AcDbMText
 10
13.3333333333
 20
362.3360328071
 30
0.0
 40
3.7041666667
 41
0.0
 71
     1
 72
     1
  1
A
  7
SLDTEXTSTYLE0
 73
     1
 44
1.0
  0
MTEXT
  5
9B
330
1F
100
AcDbEntity
  8
0
  6
Continuous
 62
     7
370
     0
100
AcDbMText
 10
346.5908120826
 20
17.6471605274
 30
0.0
 40
3.7041666667
 41
0.0
 71
     1
 72
     1
  1
4
  7
SLDTEXTSTYLE0
 73
     1
 44
1.0
  0
MTEXT
  5
9C
330
1F
100
AcDbEntity
  8
0
  6
Continuous
 62
     7
370
     0
100
AcDbMText
 10
145.3333413333
 20
407.3360328071
 30
0.0
 40
3.7041666667
 41
0.0
 71
     1
 72
     1
  1
2
  7
SLDTEXTSTYLE0
 73
     1
 44
1.0
  0
MTEXT
  5
9D
330
1F
100
AcDbEntity
  8
0
  6
Continuous
 62
     7
370
     0
100
AcDbMText
 10
46.1666746667
 20
407.3360328071
 30
0.0
 40
3.7041666667
 41
0.0
 71
     1
 72
     1
  1
1
  7
SLDTEXTSTYLE0
 73
     1
 44
1.0
  0
MTEXT
  5
9E
330
1F
100
AcDbEntity
  8
0
  6
Continuous
 62
     7
370
     0
100
AcDbMText
 10
345.3333413333
 20
407.3360328071
 30
0.0
 40
3.7041666667
 41
0.0
 71
     1
 72
     1
  1
4
  7
SLDTEXTSTYLE0
 73
     1
 44
1.0
  0
MTEXT
  5
9F
330
1F
100
AcDbEntity
  8
0
  6
Continuous
 62
     7
370
     0
100
AcDbMText
 10
577.3333493333
 20
262.3360328071
 30
0.0
 40
3.7041666667
 41
0.0
 71
     1
 72
     1
  1
B
  7
SLDTEXTSTYLE0
 73
     1
 44
1.0
  0
MTEXT
  5
A0
330
1F
100
AcDbEntity
  8
0
  6
Continuous
 62
     7
370
     0
100
AcDbMText
 10
577.3333493333
 20
362.3360328071
 30
0.0
 40
3.7041666667
 41
0.0
 71
     1
 72
     1
  1
A
  7
SLDTEXTSTYLE0
 73
     1
 44
1.0
  0
MTEXT
  5
A1
330
1F
100
AcDbEntity
  8
0
  6
Continuous
 62
     7
370
     0
100
AcDbMText
 10
445.3333413333
 20
407.3360328071
 30
0.0
 40
3.7041666667
 41
0.0
 71
     1
 72
     1
  1
5
  7
SLDTEXTSTYLE0
 73
     1
 44
1.0
  0
MTEXT
  5
A2
330
1F
100
AcDbEntity
  8
0
  6
Continuous
 62
     7
370
     0
100
AcDbMText
 10
545.3333413333
 20
407.3360328071
 30
0.0
 40
3.7041666667
 41
0.0
 71
     1
 72
     1
  1
6
  7
SLDTEXTSTYLE0
 73
     1
 44
1.0
  0
MTEXT
  5
A3
330
1F
100
AcDbEntity
  8
0
  6
Continuous
 62
     7
370
     0
100
AcDbMText
 10
577.3853041316
 20
164.2992441028
 30
0.0
 40
3.7041666667
 41
0.0
 71
     1
 72
     1
  1
C
  7
SLDTEXTSTYLE0
 73
     1
 44
1.0
  0
MTEXT
  5
A4
330
1F
100
AcDbEntity
  8
FORMAT
 62
     7
100
AcDbMText
 10
246.6377994747
 20
407.616514991
 30
0.0
 40
3.7041666667
 41
0.0
 71
     1
 72
     1
  1
3
  7
SLDTEXTSTYLE0
 73
     1
 44
1.0
  0
MTEXT
  5
A5
330
1F
100
AcDbEntity
  8
FORMAT
 62
     7
100
AcDbMText
 10
249.0873952985
 20
17.6555952902
 30
0.0
 40
3.7041666667
 41
0.0
 71
     1
 72
     1
  1
3
  7
SLDTEXTSTYLE0
 73
     1
 44
1.0
  0
MTEXT
  5
A6
330
1F
100
AcDbEntity
  8
FORMAT
 62
     7
100
AcDbMText
 10
516.5894437889
 20
87.7203237054
 30
0.0
 40
3.7041666667
 41
0.0
 71
     1
 72
     1
  1
COD: 
  7
SLDTEXTSTYLE0
 73
     1
 44
1.0
  0
MTEXT
  5
A7
330
1F
100
AcDbEntity
  8
FORMAT
 62
     7
100
AcDbMText
 10
461.5894437889
 20
87.7203237054
 30
0.0
 40
3.7041666667
 41
0.0
 71
     1
 72
     1
  1
DATA: 
  7
SLDTEXTSTYLE0
 73
     1
 44
1.0
  0
MTEXT
  5
A8
330
1F
100
AcDbEntity
  8
FORMAT
 62
     7
100
AcDbMText
 10
407.6128683576
 20
49.2738154699
 30
0.0
 40
3.7041666667
 41
0.0
 71
     1
 72
     1
  1
REVISIONE 5:
  7
SLDTEXTSTYLE0
 73
     1
 44
1.0
  0
MTEXT
  5
A9
330
1F
100
AcDbEntity
  8
FORMAT
 62
     7
100
AcDbMText
 10
407.6128683576
 20
42.4738154699
 30
0.0
 40
3.7041666667
 41
0.0
 71
     1
 72
     1
  1
REVISIONE 4:
  7
SLDTEXTSTYLE0
 73
     1
 44
1.0
  0
MTEXT
  5
AA
330
1F
100
AcDbEntity
  8
FORMAT
 62
     7
100
AcDbMText
 10
407.6128683576
 20
28.8738154699
 30
0.0
 40
3.7041666667
 41
0.0
 71
     1
 72
     1
  1
REVISIONE 2:
  7
SLDTEXTSTYLE0
 73
     1
 44
1.0
  0
MTEXT
  5
AB
330
1F
100
AcDbEntity
  8
FORMAT
 62
     7
100
AcDbMText
 10
407.6128683576
 20
35.6738154699
 30
0.0
 40
3.7041666667
 41
0.0
 71
     1
 72
     1
  1
REVISIONE 3:
  7
SLDTEXTSTYLE0
 73
     1
 44
1.0
  0
MTEXT
  5
AC
330
1F
100
AcDbEntity
  8
FORMAT
 62
     7
100
AcDbMText
 10
407.6128683576
 20
22.0738154699
 30
0.0
 40
3.7041666667
 41
0.0
 71
     1
 72
     1
  1
REVISIONE 1:
  7
SLDTEXTSTYLE0
 73
     1
 44
1.0
  0
MTEXT
  5
AD
330
1F
100
AcDbEntity
  8
FORMAT
 62
     7
100
AcDbMText
 10
478.0131722845
 20
15.2738154699
 30
0.0
 40
3.7041666667
 41
0.0
 71
     1
 72
     1
  1
APPROVATA DA
  7
SLDTEXTSTYLE0
 73
     1
 44
1.0
  0
MTEXT
  5
AE
330
1F
100
AcDbEntity
  8
FORMAT
 62
     7
100
AcDbMText
 10
439.5131722845
 20
15.2738154699
 30
0.0
 40
3.7041666667
 41
0.0
 71
     1
 72
     1
  1
DATA REVISIONE
  7
SLDTEXTSTYLE0
 73
     1
 44
1.0
  0
INSERT
  5
B4
330
1F
100
AcDbEntity
  8
FORMAT
 62
     7
100
AcDbBlockReference
  2
SW_NOTE_0
 10
407.6271038363
 20
62.2206786586
 30
0.0
  0
MTEXT
  5
B5
330
1F
100
AcDbEntity
  8
FORMAT
 62
     7
100
AcDbMText
 10
407.6030950503
 20
112.9102695924
 30
0.0
 40
3.7041666667
 41
0.0
 71
     1
 72
     1
  1
DENOMINAZIONE
  7
SLDTEXTSTYLE0
 73
     1
 44
1.0
  0
INSERT
  5
BB
330
1F
100
AcDbEntity
  8
FORMAT
 62
     7
100
AcDbBlockReference
  2
SW_NOTE_1
 10
407.5529881015
 20
72.0270505749
 30
0.0
  0
MTEXT
  5
BC
330
1F
100
AcDbEntity
  8
FORMAT
 62
     7
100
AcDbMText
 10
565.8083783867
 20
78.8724720271
 30
0.0
 40
5.8208333333
 41
0.0
 71
     1
 72
     1
  1
A4
  7
SLDTEXTSTYLE0
 73
     1
 44
1.0
  0
MTEXT
  5
BD
330
1F
100
AcDbEntity
  8
FORMAT
 62
     7
100
AcDbMText
 10
407.6009906808
 20
103.8654750032
 30
0.0
 40
8.4666666667
 41
0.0
 71
     1
 72
     1
  1
.AIR-5   JAI.5265.xxx
  7
SLDTEXTSTYLE0
 73
     1
 44
1.0
  0
MTEXT
  5
BE
330
1F
100
AcDbEntity
  8
FORMAT
 62
     7
100
AcDbMText
 10
407.5894437889
 20
87.7203237054
 30
0.0
 40
3.7041666667
 41
0.0
 71
     1
 72
     1
  1
DISEGNATORE: D.M.
  7
SLDTEXTSTYLE0
 73
     1
 44
1.0
  0
INSERT
  5
C6
330
1F
100
AcDbEntity
  8
FORMAT
 62
     7
100
AcDbBlockReference
  2
SW_NOTE_2
 10
461.5446357877
 20
72.0429537778
 30
0.0
  0
MTEXT
  5
C7
330
1F
100
AcDbEntity
  8
FORMAT
 62
     7
100
AcDbMText
 10
516.5748784382
 20
66.997560881
 30
0.0
 40
3.7041666667
 41
0.0
 71
     1
 72
     1
  1
FINITURA:
  7
SLDTEXTSTYLE0
 73
     1
 44
1.0
  0
MTEXT
  5
C8
330
1F
100
AcDbEntity
  8
FORMAT
 62
     7
100
AcDbMText
 10
407.6522092072
 20
57.196579759
 30
0.0
 40
3.7041666667
 41
0.0
 71
     1
 72
     1
  1
PESO:
  7
SLDTEXTSTYLE0
 73
     1
 44
1.0
  0
MTEXT
  5
C9
330
1F
100
AcDbEntity
  8
FORMAT
 62
     7
100
AcDbMText
 10
461.5739832813
 20
57.2419024804
 30
0.0
 40
3.7041666667
 41
0.0
 71
     1
 72
     1
  1
TOLLERANZE:
  7
SLDTEXTSTYLE0
 73
     1
 44
1.0
  0
MTEXT
  5
CA
330
1F
100
AcDbEntity
  8
FORMAT
 62
     7
100
AcDbMText
 10
516.4729523699
 20
57.1472358681
 30
0.0
 40
3.7041666667
 41
0.0
 71
     1
 72
     1
  1
FORNITORE:
  7
SLDTEXTSTYLE0
 73
     1
 44
1.0
  0
MTEXT
  5
CB
330
1F
100
AcDbEntity
  8
FORMAT
 62
     7
100
AcDbMText
 10
407.5131722845
 20
15.2738154699
 30
0.0
 40
3.7041666667
 41
0.0
 71
     1
 72
     1
  1
N° REVISIONE
  7
SLDTEXTSTYLE0
 73
     1
 44
1.0
  0
MTEXT
  5
CC
330
1F
100
AcDbEntity
  8
QUOTE
 62
     7
100
AcDbMText
 10
439.5131722845
 20
23.0269676174
 30
0.0
 40
4.7625
 41
0.0
 71
     1
 72
     1
  1
.
  7
SLDTEXTSTYLE0
 73
     1
 44
1.0
  0
MTEXT
  5
CD
330
1F
100
AcDbEntity
  8
QUOTE
 62
     7
100
AcDbMText
 10
439.5131722845
 20
29.8269676174
 30
0.0
 40
4.7625
 41
0.0
 71
     1
 72
     1
  1
.
  7
SLDTEXTSTYLE0
 73
     1
 44
1.0
  0
MTEXT
  5
CE
330
1F
100
AcDbEntity
  8
FORMAT
 62
     7
100
AcDbMText
 10
439.5131722845
 20
36.6269676174
 30
0.0
 40
4.7625
 41
0.0
 71
     1
 72
     1
  1
.
  7
SLDTEXTSTYLE0
 73
     1
 44
1.0
  0
MTEXT
  5
CF
330
1F
100
AcDbEntity
  8
FORMAT
 62
     7
100
AcDbMText
 10
439.5131722845
 20
43.4269676174
 30
0.0
 40
4.7625
 41
0.0
 71
     1
 72
     1
  1
.
  7
SLDTEXTSTYLE0
 73
     1
 44
1.0
  0
MTEXT
  5
D0
330
1F
100
AcDbEntity
  8
FORMAT
 62
     7
100
AcDbMText
 10
439.5131722845
 20
50.2269676174
 30
0.0
 40
4.7625
 41
0.0
 71
     1
 72
     1
  1
.
  7
SLDTEXTSTYLE0
 73
     1
 44
1.0
  0
MTEXT
  5
D2
330
1F
100
AcDbEntity
  8
FORMAT
100
AcDbMText
 10
484.1761854521
 20
88.1997971487
 30
0.0
 40
5.2916666667
 41
0.0
 71
     1
 72
     1
  1
xx-xx-xxxx
  7
SLDTEXTSTYLE1
 73
     1
 44
1.0
  0
MTEXT
  5
D3
330
1F
100
AcDbEntity
  8
FORMAT
100
AcDbMText
 10
539.1704260824
 20
88.1997971487
 30
0.0
 40
5.2916666667
 41
0.0
 71
     1
 72
     1
  1
xx-xx-xxxx
  7
SLDTEXTSTYLE1
 73
     1
 44
1.0
  0
SPLINE
  5
D4
330
1F
100
AcDbEntity
  8
0
  6
Continuous
 62
     7
370
    15
100
AcDbSpline
210
0.0
220
0.0
230
1.0
 70
     8
 71
     3
 72
    13
 73
     9
 74
     0
 42
0.00000001
 43
0.00000001
 40
0.0
 40
0.0
 40
0.0
 40
0.0
 40
0.1271842846189007
 40
0.2403080582673188
 40
0.4465048077015512
 40
0.7773401753443195
 40
0.93595901296425
 40
1.0
 40
1.0
 40
1.0
 40
1.0
 10
262.1086807277013
 20
193.1994237851594
 30
0.0
 10
262.0759826185673
 20
193.1463768443858
 30
0.0
 10
262.014201250385
 20
193.0461474223899
 30
0.0
 10
261.8642199092056
 20
192.8935298728234
 30
0.0
 10
261.6210396148049
 20
192.7405080438396
 30
0.0
 10
261.3602519943649
 20
192.6699913157358
 30
0.0
 10
261.1519749274105
 20
192.6368333740178
 30
0.0
 10
261.0693281020007
 20
192.6305370202917
 30
0.0
 10
261.0455573823263
 20
192.6287260752414
 30
0.0
  0
SPLINE
  5
D5
330
1F
100
AcDbEntity
  8
0
  6
Continuous
 62
     7
370
    15
100
AcDbSpline
210
0.0
220
0.0
230
1.0
 70
    24
 71
     1
 72
     4
 73
     2
 74
     0
 42
0.00000001
 43
0.00000001
 40
0.0
 40
0.0
 40
1.0
 40
1.0
 10
262.983676913004
 20
192.7152366291974
 30
0.0
 10
277.573076012354
 20
219.158868948767
 30
0.0
  0
SPLINE
  5
D6
330
1F
100
AcDbEntity
  8
0
  6
Continuous
 62
     7
370
    15
100
AcDbSpline
210
0.0
220
0.0
230
1.0
 70
    24
 71
     1
 72
     4
 73
     2
 74
     0
 42
0.00000001
 43
0.00000001
 40
0.0
 40
0.0
 40
1.0
 40
1.0
 10
276.6974986817647
 20
219.6419385176395
 30
0.0
 10
262.1080995824148
 20
193.1983089920376
 30
0.0
  0
SPLINE
  5
D7
330
1F
100
AcDbEntity
  8
0
  6
Continuous
 62
     7
370
    15
100
AcDbSpline
210
0.0
220
0.0
230
1.0
 70
     8
 71
     3
 72
    13
 73
     9
 74
     0
 42
0.00000001
 43
0.00000001
 40
0.0
 40
0.0
 40
0.0
 40
0.0
 40
0.2394550250169793
 40
0.368359349722864
 40
0.4999993946796202
 40
0.631637876317595
 40
0.7605427114306123
 40
1.0
 40
1.0
 40
1.0
 40
1.0
 10
277.573076012354
 20
219.158868948767
 30
0.0
 10
277.6824571225339
 20
219.3571290067097
 30
0.0
 10
277.8507206810662
 20
219.6621171606003
 30
0.0
 10
278.0531581819827
 20
220.0290466567056
 30
0.0
 10
278.1924769632708
 20
220.2815376006559
 30
0.0
 10
278.3046865070981
 20
220.4849443549254
 30
0.0
 10
278.4131250570023
 20
220.681475279993
 30
0.0
 10
278.4309901188081
 20
220.7138603758074
 30
0.0
 10
278.4426034714987
 20
220.7349126141761
 30
0.0
  0
SPLINE
  5
D8
330
1F
100
AcDbEntity
  8
0
  6
Continuous
 62
     7
370
    15
100
AcDbSpline
210
0.0
220
0.0
230
1.0
 70
     8
 71
     3
 72
    13
 73
     9
 74
     0
 42
0.00000001
 43
0.00000001
 40
0.0
 40
0.0
 40
0.0
 40
0.0
 40
0.2394573801281706
 40
0.3683616150822714
 40
0.5000007578854762
 40
0.6316407339027977
 40
0.7605439629349128
 40
0.9999999999999999
 40
0.9999999999999999
 40
0.9999999999999999
 40
0.9999999999999999
 10
277.5670261409093
 20
221.2179859083388
 30
0.0
 10
277.5554129472872
 20
221.1969310581489
 30
0.0
 10
277.5375481616762
 20
221.1645420016199
 30
0.0
 10
277.4291085678934
 20
220.9680191093664
 30
0.0
 10
277.3169000007472
 20
220.7646064803137
 30
0.0
 10
277.1775816356413
 20
220.5121167271326
 30
0.0
 10
276.9751414178922
 20
220.1451897553138
 30
0.0
 10
276.8068793257978
 20
219.8402003027486
 30
0.0
 10
276.6974986817647
 20
219.6419385176395
 30
0.0
  0
SPLINE
  5
D9
330
1F
100
AcDbEntity
  8
0
  6
Continuous
 62
     7
370
    15
100
AcDbSpline
210
0.0
220
0.0
230
1.0
 70
     8
 71
     3
 72
    13
 73
     9
 74
     0
 42
0.00000001
 43
0.00000001
 40
0.0
 40
0.0
 40
0.0
 40
0.0
 40
0.1212750100711155
 40
0.2780978527308916
 40
0.4915771267054363
 40
0.7380016208942499
 40
0.8653141766068744
 40
1.0
 40
1.0
 40
1.0
 40
1.0
 10
261.0455573823263
 20
191.9348674740885
 30
0.0
 10
261.1287181352525
 20
191.9442122088103
 30
0.0
 10
261.3194155164088
 20
191.9656407839053
 30
0.0
 10
261.651033054607
 20
192.0073926537971
 30
0.0
 10
262.0697250605705
 20
192.0817806574505
 30
0.0
 10
262.4670801053122
 20
192.2165015443778
 30
0.0
 10
262.7966741374807
 20
192.4399477088498
 30
0.0
 10
262.9205973870809
 20
192.6224895603567
 30
0.0
 10
262.9843027617742
 20
192.7163290705774
 30
0.0
  0
SPLINE
  5
DA
330
1F
100
AcDbEntity
  8
0
  6
Continuous
 62
     7
370
    15
100
AcDbSpline
210
0.0
220
0.0
230
1.0
 70
    24
 71
     1
 72
     4
 73
     2
 74
     0
 42
0.00000001
 43
0.00000001
 40
0.0
 40
0.0
 40
1.0
 40
1.0
 10
262.9296602036763
 20
190.1244797658418
 30
0.0
 10
262.9584492471029
 20
189.8723754015062
 30
0.0
  0
SPLINE
  5
DB
330
1F
100
AcDbEntity
  8
0
  6
Continuous
 62
     7
370
    15
100
AcDbSpline
210
0.0
220
0.0
230
1.0
 70
     8
 71
     3
 72
    19
 73
    15
 74
     0
 42
0.00000001
 43
0.00000001
 40
0.0
 40
0.0
 40
0.0
 40
0.0
 40
0.0285302612190202
 40
0.1219688462232689
 40
0.2146862767962384
 40
0.3080510776649811
 40
0.4008327170794607
 40
0.4941198072018043
 40
0.5869747462451279
 40
0.6801776019824608
 40
0.7731182568595992
 40
0.8662309065571356
 40
0.9592683968137737
 40
1.0
 40
1.0
 40
1.0
 40
1.0
 10
261.0455573823263
 20
191.8001972984765
 30
0.0
 10
261.1242728547977
 20
191.7933110385783
 30
0.0
 10
261.46078696112
 20
191.7638717997249
 30
0.0
 10
261.9996528434061
 20
191.4663874965122
 30
0.0
 10
262.5693958629532
 20
190.938592555805
 30
0.0
 10
262.9356387450589
 20
190.2435448261962
 30
0.0
 10
263.0660550245177
 20
189.4709891235678
 30
0.0
 10
262.9459054662154
 20
188.6972644749765
 30
0.0
 10
262.5871639034577
 20
187.9998205246303
 30
0.0
 10
262.0280474392531
 20
187.4526812544046
 30
0.0
 10
261.3221307146147
 20
187.1064124785429
 30
0.0
 10
260.5509997344488
 20
187.0122200472347
 30
0.0
 10
259.9093975851999
 20
187.1019005695474
 30
0.0
 10
259.5926547650246
 20
187.2946942516096
 30
0.0
 10
259.4962091471959
 20
187.3533983629439
 30
0.0
  0
SPLINE
  5
DC
330
1F
100
AcDbEntity
  8
0
  6
Continuous
 62
     7
370
    15
100
AcDbSpline
210
0.0
220
0.0
230
1.0
 70
     8
 71
     3
 72
    19
 73
    15
 74
     0
 42
0.00000001
 43
0.00000001
 40
0.0
 40
0.0
 40
0.0
 40
0.0
 40
0.0154998458382354
 40
0.1077533296370566
 40
0.2012796688710626
 40
0.2936791412978206
 40
0.387212966210093
 40
0.4796068358621
 40
0.5731406405136964
 40
0.6655392102798772
 40
0.7590639697051981
 40
0.851476095484645
 40
0.9449838761962972
 40
1.0
 40
1.0
 40
1.0
 40
1.0
 10
257.9593033816626
 20
187.3533983629439
 30
0.0
 10
257.9907703669934
 20
187.301482369027
 30
0.0
 10
258.2095256035575
 20
186.9405677338526
 30
0.0
 10
258.8829735667232
 20
186.4700352661864
 30
0.0
 10
259.8944587328559
 20
186.057873984614
 30
0.0
 10
261.0101730774635
 20
186.0096512215334
 30
0.0
 10
262.0741748819645
 20
186.3084004131231
 30
0.0
 10
262.9947335482793
 20
186.9318895347092
 30
0.0
 10
263.6684741907046
 20
187.8101928529668
 30
0.0
 10
264.0316211118782
 20
188.8597212036576
 30
0.0
 10
264.0470049900243
 20
189.9692137672184
 30
0.0
 10
263.702285011795
 20
191.0179259351603
 30
0.0
 10
263.1602940473444
 20
191.824793804754
 30
0.0
 10
262.6681127696805
 20
192.139516934616
 30
0.0
 10
262.4857993151953
 20
192.2560964625571
 30
0.0
  0
SPLINE
  5
DD
330
1F
100
AcDbEntity
  8
0
  6
Continuous
 62
     7
370
    15
100
AcDbSpline
210
0.0
220
0.0
230
1.0
 70
     8
 71
     3
 72
     9
 73
     5
 74
     0
 42
0.00000001
 43
0.00000001
 40
0.0
 40
0.0
 40
0.0
 40
0.0
 40
0.9189637766718316
 40
0.9999999999999999
 40
0.9999999999999999
 40
0.9999999999999999
 40
0.9999999999999999
 10
261.4641608025839
 20
192.7156045016144
 30
0.0
 10
261.3391317909873
 20
192.7743900227755
 30
0.0
 10
261.2030774493795
 20
192.8383593789714
 30
0.0
 10
261.0573653412614
 20
192.8332368061345
 30
0.0
 10
261.0455573823263
 20
192.8328216921781
 30
0.0
  0
SPLINE
  5
DE
330
1F
100
AcDbEntity
  8
0
  6
Continuous
 62
     7
370
    15
100
AcDbSpline
210
0.0
220
0.0
230
1.0
 70
    24
 71
     1
 72
     4
 73
     2
 74
     0
 42
0.00000001
 43
0.00000001
 40
0.0
 40
0.0
 40
1.0
 40
1.0
 10
263.9063568141271
 20
190.314571085224
 30
0.0
 10
263.8903827693273
 20
190.4020241376255
 30
0.0
  0
SPLINE
  5
DF
330
1F
100
AcDbEntity
  8
0
  6
Continuous
 62
     7
370
    15
100
AcDbSpline
210
0.0
220
0.0
230
1.0
 70
     8
 71
     3
 72
    11
 73
     7
 74
     0
 42
0.00000001
 43
0.00000001
 40
0.0
 40
0.0
 40
0.0
 40
0.0
 40
0.1021728903653637
 40
0.6200217877354715
 40
0.8191092307484925
 40
1.0
 40
1.0
 40
1.0
 40
1.0
 10
263.1927402045537
 20
191.6770773854349
 30
0.0
 10
263.1728191190231
 20
191.7089945550492
 30
0.0
 10
263.0519308186126
 20
191.9026794013221
 30
0.0
 10
262.926039523383
 20
192.1838651809458
 30
0.0
 10
262.9033187062018
 20
192.523042037252
 30
0.0
 10
262.9582242655027
 20
192.6539720783323
 30
0.0
 10
262.984362366419
 20
192.7163020622228
 30
0.0
  0
SPLINE
  5
E0
330
1F
100
AcDbEntity
  8
0
  6
Continuous
 62
     7
370
    15
100
AcDbSpline
210
0.0
220
0.0
230
1.0
 70
    24
 71
     1
 72
     4
 73
     2
 74
     0
 42
0.00000001
 43
0.00000001
 40
0.0
 40
0.0
 40
1.0
 40
1.0
 10
262.9836620118429
 20
192.7152152087782
 30
0.0
 10
262.983676913004
 20
192.7152366291974
 30
0.0
  0
SPLINE
  5
E1
330
1F
100
AcDbEntity
  8
0
  6
Continuous
 62
     7
370
    15
100
AcDbSpline
210
0.0
220
0.0
230
1.0
 70
    24
 71
     1
 72
     4
 73
     2
 74
     0
 42
0.00000001
 43
0.00000001
 40
0.0
 40
0.0
 40
1.0
 40
1.0
 10
262.1080995824148
 20
193.1983089920376
 30
0.0
 10
262.1080846812536
 20
193.1982875716184
 30
0.0
  0
SPLINE
  5
E2
330
1F
100
AcDbEntity
  8
0
  6
Continuous
 62
     7
370
    15
100
AcDbSpline
210
0.0
220
0.0
230
1.0
 70
    24
 71
     1
 72
     4
 73
     2
 74
     0
 42
0.00000001
 43
0.00000001
 40
0.0
 40
0.0
 40
1.0
 40
1.0
 10
262.8442765500356
 20
190.3282615270708
 30
0.0
 10
262.9295856978704
 20
190.1244574141
 30
0.0
  0
SPLINE
  5
E3
330
1F
100
AcDbEntity
  8
0
  6
Continuous
 62
     7
370
    15
100
AcDbSpline
210
0.0
220
0.0
230
1.0
 70
     8
 71
     3
 72
    18
 73
    14
 74
     0
 42
0.00000001
 43
0.00000001
 40
0.0
 40
0.0
 40
0.0
 40
0.0
 40
0.0430718714634139
 40
0.0813828067740504
 40
0.1512139986460609
 40
0.2632555591820408
 40
0.316973505678353
 40
0.3800899442070521
 40
0.6371523590697615
 40
0.8152249388999843
 40
0.9066511317254278
 40
0.9526171256804556
 40
1.0
 40
1.0
 40
1.0
 40
1.0
 10
114.2206908490469
 20
192.1074955638741
 30
0.0
 10
114.2539781699099
 20
192.0548192389829
 30
0.0
 10
114.3168734077944
 20
191.9552891506787
 30
0.0
 10
114.3881070420922
 20
191.7534928905748
 30
0.0
 10
114.4185477457712
 20
191.4679443644575
 30
0.0
 10
114.3683262662067
 20
191.2019975758264
 30
0.0
 10
114.2907243022464
 20
190.9573289367372
 30
0.0
 10
114.1394276508505
 20
190.5751172497304
 30
0.0
 10
113.8902430699153
 20
190.0965045803089
 30
0.0
 10
113.6421452415503
 20
189.5180563949282
 30
0.0
 10
113.5500502513616
 20
189.1059795909388
 30
0.0
 10
113.5315467430315
 20
188.8445812167872
 30
0.0
 10
113.5443632381413
 20
188.7105068693797
 30
0.0
 10
113.5508687522222
 20
188.6424521830176
 30
0.0
  0
SPLINE
  5
E4
330
1F
100
AcDbEntity
  8
0
  6
Continuous
 62
     7
370
    15
100
AcDbSpline
210
0.0
220
0.0
230
1.0
 70
    24
 71
     1
 72
     4
 73
     2
 74
     0
 42
0.00000001
 43
0.00000001
 40
0.0
 40
0.0
 40
1.0
 40
1.0
 10
115.0400386478712
 20
192.680825191388
 30
0.0
 10
97.69400668404596
 20
217.403914491484
 30
0.0
  0
SPLINE
  5
E5
330
1F
100
AcDbEntity
  8
0
  6
Continuous
 62
     7
370
    15
100
AcDbSpline
210
0.0
220
0.0
230
1.0
 70
    24
 71
     1
 72
     4
 73
     2
 74
     0
 42
0.00000001
 43
0.00000001
 40
0.0
 40
0.0
 40
1.0
 40
1.0
 10
96.87539276741045
 20
216.8295678597186
 30
0.0
 10
114.221428456526
 20
192.1064776283
 30
0.0
  0
SPLINE
  5
E6
330
1F
100
AcDbEntity
  8
0
  6
Continuous
 62
     7
370
    15
100
AcDbSpline
210
0.0
220
0.0
230
1.0
 70
     8
 71
     3
 72
    13
 73
     9
 74
     0
 42
0.00000001
 43
0.00000001
 40
0.0
 40
0.0
 40
0.0
 40
0.0
 40
0.2394564494786957
 40
0.3683604284778014
 40
0.4999991563730613
 40
0.6316388803402033
 40
0.7605427559292479
 40
1.0
 40
1.0
 40
1.0
 40
1.0
 10
97.69400668404596
 20
217.403914491484
 30
0.0
 10
97.56395609481193
 20
217.5892757519947
 30
0.0
 10
97.3638967901729
 20
217.8744205183752
 30
0.0
 10
97.12319866866099
 20
218.2174714710306
 30
0.0
 10
96.95757995196436
 20
218.4535410730579
 30
0.0
 10
96.82414557050545
 20
218.6437108176901
 30
0.0
 10
96.69523514900506
 20
218.8274519001455
 30
0.0
 10
96.67398979822181
 20
218.8577319396041
 30
0.0
 10
96.660179021578
 20
218.8774158161376
 30
0.0
  0
SPLINE
  5
E7
330
1F
100
AcDbEntity
  8
0
  6
Continuous
 62
     7
370
    15
100
AcDbSpline
210
0.0
220
0.0
230
1.0
 70
     8
 71
     3
 72
    13
 73
     9
 74
     0
 42
0.00000001
 43
0.00000001
 40
0.0
 40
0.0
 40
0.0
 40
0.0
 40
0.2394572625696039
 40
0.3683612573108052
 40
0.5000013066368066
 40
0.6316399054722188
 40
0.7605433291799966
 40
1.0
 40
1.0
 40
1.0
 40
1.0
 10
95.84156883023279
 20
218.3030654590819
 30
0.0
 10
95.85537926313812
 20
218.2833829171492
 30
0.0
 10
95.87662409144035
 20
218.253104921754
 30
0.0
 10
96.00553724664027
 20
218.0693655331818
 30
0.0
 10
96.13896271231542
 20
217.8791884160684
 30
0.0
 10
96.30459099793073
 20
217.6431270202178
 30
0.0
 10
96.54528045789957
 20
217.3000717142073
 30
0.0
 10
96.74534108220075
 20
217.0149284700654
 30
0.0
 10
96.87539276741045
 20
216.8295678597186
 30
0.0
  0
SPLINE
  5
E8
330
1F
100
AcDbEntity
  8
0
  6
Continuous
 62
     7
370
    15
100
AcDbSpline
210
0.0
220
0.0
230
1.0
 70
     8
 71
     3
 72
    17
 73
    13
 74
     0
 42
0.00000001
 43
0.00000001
 40
0.0
 40
0.0
 40
0.0
 40
0.0
 40
0.0783097656608823
 40
0.1925464756950458
 40
0.3006465236960047
 40
0.4250120726845454
 40
0.5188240854104346
 40
0.6046978665683309
 40
0.7215953381448431
 40
0.8565339362576361
 40
0.9262471172521711
 40
1.0
 40
1.0
 40
1.0
 40
1.0
 10
114.5410509135534
 20
188.7825650077556
 30
0.0
 10
114.5322847456357
 20
188.9017505690137
 30
0.0
 10
114.5107306683931
 20
189.194801628231
 30
0.0
 10
114.5826942711284
 20
189.6199593193117
 30
0.0
 10
114.7042594500783
 20
190.0678743705168
 30
0.0
 10
114.8419721790828
 20
190.4648841526798
 30
0.0
 10
114.9711406204433
 20
190.8238085783958
 30
0.0
 10
115.0905362352027
 20
191.1728597916088
 30
0.0
 10
115.2075728975837
 20
191.5814436298777
 30
0.0
 10
115.2611310766511
 20
191.9976555432391
 30
0.0
 10
115.2051868687826
 20
192.3918916115403
 30
0.0
 10
115.0956492677265
 20
192.583413014476
 30
0.0
 10
115.0393382932951
 20
192.6818701353167
 30
0.0
  0
SPLINE
  5
E9
330
1F
100
AcDbEntity
  8
0
  6
Continuous
 62
     7
370
    15
100
AcDbSpline
210
0.0
220
0.0
230
1.0
 70
     8
 71
     3
 72
    13
 73
     9
 74
     0
 42
0.00000001
 43
0.00000001
 40
0.0
 40
0.0
 40
0.0
 40
0.0
 40
0.1502019627642294
 40
0.3296547353369893
 40
0.507502439320453
 40
0.6868297132135689
 40
0.8647767922643183
 40
1.0
 40
1.0
 40
1.0
 40
1.0
 10
114.5710469510366
 20
188.6967371132467
 30
0.0
 10
114.5430930239186
 20
188.9126049893597
 30
0.0
 10
114.4817413326614
 20
189.3863795410243
 30
0.0
 10
114.6868996649695
 20
190.107085865762
 30
0.0
 10
115.1084857878112
 20
190.7667919015251
 30
0.0
 10
115.7206475608076
 20
191.2494406984593
 30
0.0
 10
116.3965354018493
 20
191.5211603543963
 30
0.0
 10
116.849824035482
 20
191.50946547707
 30
0.0
 10
117.0455486800482
 20
191.5044157680367
 30
0.0
  0
SPLINE
  5
EA
330
1F
100
AcDbEntity
  8
0
  6
Continuous
 62
     7
370
    15
100
AcDbSpline
210
0.0
220
0.0
230
1.0
 70
     8
 71
     3
 72
    14
 73
    10
 74
     0
 42
0.00000001
 43
0.00000001
 40
0.0
 40
0.0
 40
0.0
 40
0.0
 40
0.1332953261739546
 40
0.2669052838274624
 40
0.42016814606808
 40
0.5301222079396264
 40
0.6643304175569399
 40
0.820155966081212
 40
1.0
 40
1.0
 40
1.0
 40
1.0
 10
118.5546116258909
 20
187.3533983629439
 30
0.0
 10
118.3721178908694
 20
187.2074601876273
 30
0.0
 10
118.0066996609827
 20
186.9152393632203
 30
0.0
 10
117.2913441211731
 20
186.7008122884754
 30
0.0
 10
116.590545532177
 20
186.6996870664252
 30
0.0
 10
115.9207410798155
 20
186.8989342602883
 30
0.0
 10
115.3243597432409
 20
187.2699006503098
 30
0.0
 10
114.7688206123907
 20
187.9035407528102
 30
0.0
 10
114.6204969598724
 20
188.4759028491415
 30
0.0
 10
114.5410285618116
 20
188.7825612824653
 30
0.0
  0
SPLINE
  5
EB
330
1F
100
AcDbEntity
  8
0
  6
Continuous
 62
     7
370
    15
100
AcDbSpline
210
0.0
220
0.0
230
1.0
 70
     8
 71
     3
 72
    17
 73
    13
 74
     0
 42
0.00000001
 43
0.00000001
 40
0.0
 40
0.0
 40
0.0
 40
0.0
 40
0.1366440545644717
 40
0.255037957444651
 40
0.3550383767658871
 40
0.43766050600511
 40
0.5027154759414085
 40
0.5648649539815154
 40
0.6934701316904359
 40
0.8234228262270349
 40
0.955166222336863
 40
1.0
 40
1.0
 40
1.0
 40
1.0
 10
113.550891103964
 20
188.6424549769853
 30
0.0
 10
113.6407699217394
 20
188.2703402205867
 30
0.0
 10
113.8085233609654
 20
187.5758102777407
 30
0.0
 10
114.4076702081881
 20
186.7657781892933
 30
0.0
 10
115.0588471346302
 20
186.2330257098452
 30
0.0
 10
115.6797576561454
 20
185.9265461351825
 30
0.0
 10
116.2420151928994
 20
185.7656312105251
 30
0.0
 10
116.9484837387194
 20
185.6781201660048
 30
0.0
 10
117.8526925520278
 20
185.7751327973826
 30
0.0
 10
118.8389156592931
 20
186.2411801651635
 30
0.0
 10
119.521046034626
 20
186.802259432882
 30
0.0
 10
119.7421761611648
 20
187.2417975586855
 30
0.0
 10
119.7983221437742
 20
187.3533983629439
 30
0.0
  0
SPLINE
  5
EC
330
1F
100
AcDbEntity
  8
0
  6
Continuous
 62
     7
370
    15
100
AcDbSpline
210
0.0
220
0.0
230
1.0
 70
     8
 71
     3
 72
    10
 73
     6
 74
     0
 42
0.00000001
 43
0.00000001
 40
0.0
 40
0.0
 40
0.0
 40
0.0
 40
0.0871825503182531
 40
0.6618751260885025
 40
0.9999999999999999
 40
0.9999999999999999
 40
0.9999999999999999
 40
0.9999999999999999
 10
117.0455486800482
 20
192.5058687951658
 30
0.0
 10
116.990799500368
 20
192.5148857116043
 30
0.0
 10
116.5751530198305
 20
192.5833406109262
 30
0.0
 10
115.9159832312796
 20
192.4385602397489
 30
0.0
 10
115.4181794833311
 20
192.1417929468704
 30
0.0
 10
115.2337835457136
 20
192.0318647202347
 30
0.0
  0
SPLINE
  5
ED
330
1F
100
AcDbEntity
  8
0
  6
Continuous
 62
     7
370
    15
100
AcDbSpline
210
0.0
220
0.0
230
1.0
 70
     8
 71
     3
 72
    11
 73
     7
 74
     0
 42
0.00000001
 43
0.00000001
 40
0.0
 40
0.0
 40
0.0
 40
0.0
 40
0.1235753773692594
 40
0.4577194820508237
 40
0.7954049013093419
 40
0.9999999999999999
 40
0.9999999999999999
 40
0.9999999999999999
 40
0.9999999999999999
 10
114.3721760537435
 20
191.3159458812569
 30
0.0
 10
114.2765386905767
 20
191.2215600466772
 30
0.0
 10
113.9223007730776
 20
190.8719577534334
 30
0.0
 10
113.6056159476292
 20
190.0433316803442
 30
0.0
 10
113.4480110495328
 20
189.0871445485864
 30
0.0
 10
113.6017647129351
 20
188.5158913812688
 30
0.0
 10
113.6597738888075
 20
188.3003652941678
 30
0.0
  0
SPLINE
  5
EE
330
1F
100
AcDbEntity
  8
0
  6
Continuous
 62
     7
370
    15
100
AcDbSpline
210
0.0
220
0.0
230
1.0
 70
     8
 71
     3
 72
    11
 73
     7
 74
     0
 42
0.00000001
 43
0.00000001
 40
0.0
 40
0.0
 40
0.0
 40
0.0
 40
0.3102651183271122
 40
0.7080924172724643
 40
0.8610370637641741
 40
0.9999999999999999
 40
0.9999999999999999
 40
0.9999999999999999
 40
0.9999999999999999
 10
116.3965062525083
 20
192.4443698402737
 30
0.0
 10
116.2488963886795
 20
192.4273631568871
 30
0.0
 10
115.9120186053975
 20
192.3885502100307
 30
0.0
 10
115.492211534034
 20
192.3948618214316
 30
0.0
 10
115.1773723288148
 20
192.524296869093
 30
0.0
 10
115.0838868602481
 20
192.6310722095382
 30
0.0
 10
115.0393829967787
 20
192.6819027316068
 30
0.0
  0
SPLINE
  5
EF
330
1F
100
AcDbEntity
  8
0
  6
Continuous
 62
     7
370
    15
100
AcDbSpline
210
0.0
220
0.0
230
1.0
 70
    24
 71
     1
 72
     4
 73
     2
 74
     0
 42
0.00000001
 43
0.00000001
 40
0.0
 40
0.0
 40
1.0
 40
1.0
 10
115.0400535490324
 20
192.6808047022913
 30
0.0
 10
115.0400386478712
 20
192.680825191388
 30
0.0
  0
SPLINE
  5
F0
330
1F
100
AcDbEntity
  8
0
  6
Continuous
 62
     7
370
    15
100
AcDbSpline
210
0.0
220
0.0
230
1.0
 70
     8
 71
     3
 72
    11
 73
     7
 74
     0
 42
0.00000001
 43
0.00000001
 40
0.0
 40
0.0
 40
0.0
 40
0.0
 40
0.2475177789104661
 40
0.4994408451849663
 40
0.7517944905429635
 40
1.0
 40
1.0
 40
1.0
 40
1.0
 10
265.7015444066335
 20
223.8987867634986
 30
0.0
 10
265.7052198748698
 20
223.9419611486432
 30
0.0
 10
265.7126362268205
 20
224.0290783306972
 30
0.0
 10
265.6680029607483
 20
224.159354792214
 30
0.0
 10
265.5843245694373
 20
224.2737654026479
 30
0.0
 10
265.5017176972437
 20
224.3224215594253
 30
0.0
 10
265.4607565429021
 20
224.3465480309222
 30
0.0
  0
SPLINE
  5
F1
330
1F
100
AcDbEntity
  8
0
  6
Continuous
 62
     7
370
    15
100
AcDbSpline
210
0.0
220
0.0
230
1.0
 70
     8
 71
     3
 72
    11
 73
     7
 74
     0
 42
0.00000001
 43
0.00000001
 40
0.0
 40
0.0
 40
0.0
 40
0.0
 40
0.2482081786665337
 40
0.500563321683748
 40
0.7524835763146318
 40
1.0
 40
1.0
 40
1.0
 40
1.0
 10
112.6303495194723
 20
224.3465480309222
 30
0.0
 10
112.5893862797612
 20
224.3224215520007
 30
0.0
 10
112.5067754026867
 20
224.2737654984636
 30
0.0
 10
112.4230840370243
 20
224.1593561262726
 30
0.0
 10
112.3784652356277
 20
224.0290777552032
 30
0.0
 10
112.385879674492
 20
223.9419610407306
 30
0.0
 10
112.3895542051603
 20
223.8987867634986
 30
0.0
  0
SPLINE
  5
F2
330
1F
100
AcDbEntity
  8
0
  6
Continuous
 62
     7
370
    15
100
AcDbSpline
210
0.0
220
0.0
230
1.0
 70
     8
 71
     3
 72
     9
 73
     5
 74
     0
 42
0.00000001
 43
0.00000001
 40
0.0
 40
0.0
 40
0.0
 40
0.0
 40
0.500000676928452
 40
1.0
 40
1.0
 40
1.0
 40
1.0
 10
262.7552272107412
 20
192.8427142005656
 30
0.0
 10
262.7220920203426
 20
192.8609955056174
 30
0.0
 10
262.6558217292659
 20
192.8975580662205
 30
0.0
 10
262.5829350400211
 20
192.9377706359073
 30
0.0
 10
262.5464917447378
 20
192.9578768935297
 30
0.0
  0
LWPOLYLINE
  5
F3
330
1F
100
AcDbEntity
  8
0
  6
Continuous
 62
     7
370
    15
100
AcDbPolyline
 90
        9
 70
   128
 43
0.0
 10
277.1352798965
 20
219.4004018706
 10
277.3520470884
 20
219.7932821613
 10
277.56046963
 20
220.1710638505
 10
277.7525604989
 20
220.5192294818
 10
277.9209287193
 20
220.8244015377
 10
278.059107187
 20
221.0748453539
 10
278.1617761876
 20
221.2609459561
 10
278.2250018146
 20
221.3755433362
 10
278.2463551786
 20
221.4142379266
  0
ARC
  5
F4
330
1F
100
AcDbEntity
  8
0
  6
Continuous
 62
     7
370
    15
100
AcDbCircle
 10
278.0048154412
 20
220.9764482972
 30
0.0
 40
0.5000000000000182
100
AcDbArc
 50
331.1327124566
 51
61.113736818
  0
ARC
  5
F5
330
1F
100
AcDbEntity
  8
0
  6
Continuous
 62
     7
370
    15
100
AcDbCircle
 10
278.0048154412
 20
220.9764482972
 30
0.0
 40
0.5000000000000028
100
AcDbArc
 50
61.113736818
 51
152.9404644543
  0
SPLINE
  5
F6
330
1F
100
AcDbEntity
  8
0
  6
Continuous
 62
     7
370
    15
100
AcDbSpline
210
0.0
220
0.0
230
1.0
 70
     8
 71
     3
 72
    11
 73
     7
 74
     0
 42
0.00000001
 43
0.00000001
 40
0.0
 40
0.0
 40
0.0
 40
0.0
 40
0.2320679434829187
 40
0.4848142852755253
 40
0.7379228175112187
 40
1.0
 40
1.0
 40
1.0
 40
1.0
 10
113.5544748332311
 20
188.6429625477884
 30
0.0
 10
113.5588179155842
 20
188.6435769128512
 30
0.0
 10
113.5678910703477
 20
188.6448603859336
 30
0.0
 10
113.6673860073519
 20
188.6589397253765
 30
0.0
 10
113.8170443064096
 20
188.6801162154326
 30
0.0
 10
113.9422056148898
 20
188.6978268828018
 30
0.0
 10
114.0058757092764
 20
188.7068363752459
 30
0.0
  0
SPLINE
  5
F7
330
1F
100
AcDbEntity
  8
0
  6
Continuous
 62
     7
370
    15
100
AcDbSpline
210
0.0
220
0.0
230
1.0
 70
     8
 71
     3
 72
     9
 73
     5
 74
     0
 42
0.00000001
 43
0.00000001
 40
0.0
 40
0.0
 40
0.0
 40
0.0
 40
0.499992200517378
 40
1.0
 40
1.0
 40
1.0
 40
1.0
 10
114.8251639034559
 20
192.5316049631928
 30
0.0
 10
114.7941859822084
 20
192.5098691796334
 30
0.0
 10
114.7322291732513
 20
192.4663969343925
 30
0.0
 10
114.6640839760024
 20
192.4185877931188
 30
0.0
 10
114.6300108458807
 20
192.3946828495954
 30
0.0
  0
SPLINE
  5
F8
330
1F
100
AcDbEntity
  8
0
  6
Continuous
 62
     7
370
    15
100
AcDbSpline
210
0.0
220
0.0
230
1.0
 70
     8
 71
     3
 72
    16
 73
    12
 74
     0
 42
0.00000001
 43
0.00000001
 40
0.0
 40
0.0
 40
0.0
 40
0.0
 40
0.0643214261181669
 40
0.129744438680513
 40
0.2024186202668326
 40
0.3275069384995924
 40
0.4672880210520603
 40
0.6299336812507782
 40
0.7859797990274762
 40
0.8976390145640557
 40
1.0
 40
1.0
 40
1.0
 40
1.0
 10
114.8251639034559
 20
192.5316049631928
 30
0.0
 10
114.874662286263
 20
192.445639626879
 30
0.0
 10
114.9745067748026
 20
192.272236688245
 30
0.0
 10
115.0087909236128
 20
191.978073482943
 30
0.0
 10
114.9683897428272
 20
191.6275362322538
 30
0.0
 10
114.8274567335032
 20
191.2170996340026
 30
0.0
 10
114.5990775328927
 20
190.7293451859588
 30
0.0
 10
114.3366823793678
 20
190.2076105549912
 30
0.0
 10
114.1196939564031
 20
189.6853004188615
 30
0.0
 10
113.9832817877963
 20
189.1840024140321
 30
0.0
 10
113.9985657421642
 20
188.8612171919473
 30
0.0
 10
114.0058757092764
 20
188.7068363752459
 30
0.0
  0
LWPOLYLINE
  5
F9
330
1F
100
AcDbEntity
  8
0
  6
Continuous
 62
     7
370
    15
100
AcDbPolyline
 90
        9
 70
   128
 43
0.0
 10
97.2847015884
 20
217.116739313
 10
97.0269860055
 20
217.4840566617
 10
96.7791759696
 20
217.8372588855
 10
96.5507933225
 20
218.1627710264
 10
96.3506111231
 20
218.4480872851
 10
96.1863295462
 20
218.6822366815
 10
96.0642555084
 20
218.8562263649
 10
95.9890828755
 20
218.9633694392
 10
95.9636987474
 20
218.9995457333
  0
ARC
  5
FA
330
1F
100
AcDbEntity
  8
0
  6
Continuous
 62
     7
370
    15
100
AcDbCircle
 10
96.2508736506
 20
218.5902408685
 30
0.0
 40
0.4999999999999988
100
AcDbArc
 50
35.0729664504
 51
125.0539908118
  0
ARC
  5
FB
330
1F
100
AcDbEntity
  8
0
  6
Continuous
 62
     7
370
    15
100
AcDbCircle
 10
96.2508736506
 20
218.5902408685
 30
0.0
 40
0.5000000000000214
100
AcDbArc
 50
125.0539908118
 51
216.880718448
  0
SPLINE
  5
FC
330
1F
100
AcDbEntity
  8
0
  6
Continuous
 62
     7
370
    15
100
AcDbSpline
210
0.0
220
0.0
230
1.0
 70
     8
 71
     3
 72
    12
 73
     8
 74
     0
 42
0.00000001
 43
0.00000001
 40
0.0
 40
0.0
 40
0.0
 40
0.0
 40
0.2485563685779411
 40
0.4906266397349059
 40
0.7337078867076968
 40
0.9863131362313393
 40
1.0
 40
1.0
 40
1.0
 40
1.0
 10
114.0459598328878
 20
188.7125081297253
 30
0.0
 10
114.1095113974447
 20
188.7215011382936
 30
0.0
 10
114.2349561436279
 20
188.7392524821848
 30
0.0
 10
114.3969721961448
 20
188.7621764654368
 30
0.0
 10
114.5028540613702
 20
188.777160169938
 30
0.0
 10
114.5505576907074
 20
188.7839082601912
 30
0.0
 10
114.5396023391975
 20
188.7823596199525
 30
0.0
 10
114.5390392567922
 20
188.7822800230477
 30
0.0
  0
SPLINE
  5
FD
330
1F
100
AcDbEntity
  8
0
  6
Continuous
 62
     7
370
    15
100
AcDbSpline
210
0.0
220
0.0
230
1.0
 70
    24
 71
     1
 72
     4
 73
     2
 74
     0
 42
0.00000001
 43
0.00000001
 40
0.0
 40
0.0
 40
1.0
 40
1.0
 10
114.0058757092764
 20
188.7068363752459
 30
0.0
 10
114.0459598328878
 20
188.7125081297253
 30
0.0
  0
LINE
  5
FE
330
1F
100
AcDbEntity
  8
0
  6
Continuous
 62
     7
370
    15
100
AcDbLine
 10
259.0455533292
 20
223.8533978265
 30
0.0
 11
259.2455567148
 21
223.8533978265
 31
0.0
  0
LINE
  5
FF
330
1F
100
AcDbEntity
  8
0
  6
Continuous
 62
     7
370
    15
100
AcDbLine
 10
259.0455533292
 20
223.9949700337
 30
0.0
 11
259.0455533292
 21
223.8533978265
 31
0.0
  0
LINE
  5
100
330
1F
100
AcDbEntity
  8
0
  6
Continuous
 62
     7
370
    15
100
AcDbLine
 10
259.2455567148
 20
223.9949700337
 30
0.0
 11
259.0455533292
 21
223.9949700337
 31
0.0
  0
LINE
  5
101
330
1F
100
AcDbEntity
  8
0
  6
Continuous
 62
     7
370
    15
100
AcDbLine
 10
259.2455567148
 20
223.8533978265
 30
0.0
 11
259.2455567148
 21
223.9949700337
 31
0.0
  0
LINE
  5
102
330
1F
100
AcDbEntity
  8
0
  6
Continuous
 62
     7
370
    15
100
AcDbLine
 10
259.0455533292
 20
224.4930674237
 30
0.0
 11
259.2455567148
 21
224.4930674237
 31
0.0
  0
LINE
  5
103
330
1F
100
AcDbEntity
  8
0
  6
Continuous
 62
     7
370
    15
100
AcDbLine
 10
259.2455567148
 20
224.4930674237
 30
0.0
 11
259.2455567148
 21
223.9949700337
 31
0.0
  0
SPLINE
  5
104
330
1F
100
AcDbEntity
  8
0
  6
Continuous
 62
     7
370
    15
100
AcDbSpline
210
0.0
220
0.0
230
1.0
 70
     8
 71
     3
 72
    11
 73
     7
 74
     0
 42
0.00000001
 43
0.00000001
 40
0.0
 40
0.0
 40
0.0
 40
0.0
 40
0.2430053800410812
 40
0.490650878910363
 40
0.7429713999649755
 40
1.0
 40
1.0
 40
1.0
 40
1.0
 10
259.2455567147542
 20
223.9949700337146
 30
0.0
 10
259.5883466065658
 20
223.9962747749507
 30
0.0
 10
260.2804718659755
 20
223.9989091710868
 30
0.0
 10
261.3001284854489
 20
224.0201066732897
 30
0.0
 10
262.2918185158007
 20
224.0528597486318
 30
0.0
 10
262.8838338504864
 20
224.0856613116031
 30
0.0
 10
263.1825776126195
 20
224.1022136908267
 30
0.0
  0
LINE
  5
105
330
1F
100
AcDbEntity
  8
0
  6
Continuous
 62
     7
370
    15
100
AcDbLine
 10
265.7455475356
 20
223.8952328366
 30
0.0
 11
265.7455475356
 21
223.8533978265
 31
0.0
  0
LINE
  5
106
330
1F
100
AcDbEntity
  8
0
  6
Continuous
 62
     7
370
    15
100
AcDbLine
 10
265.7455475356
 20
223.8533978265
 30
0.0
 11
259.2455567148
 21
223.8533978265
 31
0.0
  0
SPLINE
  5
107
330
1F
100
AcDbEntity
  8
0
  6
Continuous
 62
     7
370
    15
100
AcDbSpline
210
0.0
220
0.0
230
1.0
 70
     8
 71
     3
 72
    11
 73
     7
 74
     0
 42
0.00000001
 43
0.00000001
 40
0.0
 40
0.0
 40
0.0
 40
0.0
 40
0.2498809541834663
 40
0.4998119996152458
 40
0.7498407925333361
 40
1.0
 40
1.0
 40
1.0
 40
1.0
 10
259.2455567147542
 20
224.493067423651
 30
0.0
 10
259.5735260271015
 20
224.4944168132768
 30
0.0
 10
260.2295303966716
 20
224.4971158630275
 30
0.0
 10
261.1853507983726
 20
224.5191050606833
 30
0.0
 10
262.0961665825845
 20
224.552673257113
 30
0.0
 10
262.6346557950922
 20
224.5855117699197
 30
0.0
 10
262.9039706017782
 20
224.6019353073333
 30
0.0
  0
SPLINE
  5
108
330
1F
100
AcDbEntity
  8
0
  6
Continuous
 62
     7
370
    15
100
AcDbSpline
210
0.0
220
0.0
230
1.0
 70
     8
 71
     3
 72
    11
 73
     7
 74
     0
 42
0.00000001
 43
0.00000001
 40
0.0
 40
0.0
 40
0.0
 40
0.0
 40
0.2503151053061053
 40
0.5001258788417788
 40
0.7659093998669745
 40
1.0
 40
1.0
 40
1.0
 40
1.0
 10
263.1825776126195
 20
224.1022136908267
 30
0.0
 10
263.1788259460885
 20
224.1649744752778
 30
0.0
 10
263.1713301718376
 20
224.2903695945295
 30
0.0
 10
263.1069519631541
 20
224.4544904632223
 30
0.0
 10
263.013945995534
 20
224.5702369518613
 30
0.0
 10
262.9390461376688
 20
224.5918254385066
 30
0.0
 10
262.9039706017782
 20
224.6019353073333
 30
0.0
  0
SPLINE
  5
109
330
1F
100
AcDbEntity
  8
0
  6
Continuous
 62
     7
370
    15
100
AcDbSpline
210
0.0
220
0.0
230
1.0
 70
    24
 71
     3
 72
    15
 73
    11
 74
     0
 42
0.00000001
 43
0.00000001
 40
0.0
 40
0.0
 40
0.0
 40
0.0
 40
0.1165161293931451
 40
0.2400116291514366
 40
0.3686414075851402
 40
0.5000005626079853
 40
0.6313597176308305
 40
0.75998913182865
 40
0.8834838706068548
 40
1.0
 40
1.0
 40
1.0
 40
1.0
 10
265.2455539729406
 20
223.3533968132232
 30
0.0
 10
265.2260893683758
 20
223.3533968132232
 30
0.0
 10
265.185994220376
 20
223.3533968132232
 30
0.0
 10
264.8521736606793
 20
223.3533968132232
 30
0.0
 10
264.2986232631005
 20
223.3533968132232
 30
0.0
 10
263.5182039821507
 20
223.3533968132232
 30
0.0
 10
262.5589223114878
 20
223.3533968132232
 30
0.0
 10
261.4835559247726
 20
223.3533968132232
 30
0.0
 10
260.3653275378189
 20
223.3533968132232
 30
0.0
 10
259.6115075768269
 20
223.3533968132232
 30
0.0
 10
259.2455567147543
 20
223.3533968132232
 30
0.0
  0
LINE
  5
10A
330
1F
100
AcDbEntity
  8
0
  6
Continuous
 62
     7
370
    15
100
AcDbLine
 10
259.2455567148
 20
223.8533978265
 30
0.0
 11
259.2455567148
 21
223.3533968132
 31
0.0
  0
ARC
  5
10B
330
1F
100
AcDbEntity
  8
0
  6
Continuous
 62
     7
370
    15
100
AcDbCircle
 10
265.2455504045
 20
223.8533981155
 30
0.0
 40
0.5000000000000568
100
AcDbArc
 50
269.9999999883
 51
359.9999999675
  0
LINE
  5
10C
330
1F
100
AcDbEntity
  8
0
  6
Continuous
 62
     7
370
    15
100
AcDbLine
 10
259.0455533292
 20
223.8533978265
 30
0.0
 11
259.0455533292
 21
223.3533968132
 31
0.0
  0
LINE
  5
10D
330
1F
100
AcDbEntity
  8
0
  6
Continuous
 62
     7
370
    15
100
AcDbLine
 10
259.2455567148
 20
223.3533968132
 30
0.0
 11
259.0455533292
 21
223.3533968132
 31
0.0
  0
SPLINE
  5
10E
330
1F
100
AcDbEntity
  8
0
  6
Continuous
 62
     7
370
    15
100
AcDbSpline
210
0.0
220
0.0
230
1.0
 70
    24
 71
     1
 72
     4
 73
     2
 74
     0
 42
0.00000001
 43
0.00000001
 40
0.0
 40
0.0
 40
1.0
 40
1.0
 10
262.89850187562
 20
224.6024829250072
 30
0.0
 10
262.9039706017782
 20
224.6019353073333
 30
0.0
  0
LINE
  5
10F
330
1F
100
AcDbEntity
  8
0
  6
Continuous
 62
     7
370
    15
100
AcDbLine
 10
260.0305200841
 20
224.8533998531
 30
0.0
 11
259.0455533292
 21
224.8533998531
 31
0.0
  0
LINE
  5
110
330
1F
100
AcDbEntity
  8
0
  6
Continuous
 62
     7
370
    15
100
AcDbLine
 10
262.8985018756
 20
224.602482925
 30
0.0
 11
260.0305200841
 21
224.8533998531
 31
0.0
  0
ARC
  5
111
330
1F
100
AcDbEntity
  8
0
  6
Continuous
 62
     7
370
    15
100
AcDbCircle
 10
265.2455504045
 20
223.8952325285
 30
0.0
 40
0.5000000000000674
100
AcDbArc
 50
0.0000000235
 51
31.8269427026
  0
ARC
  5
112
330
1F
100
AcDbEntity
  8
0
  6
Continuous
 62
     7
370
    15
100
AcDbCircle
 10
265.2455504045
 20
223.8952325285
 30
0.0
 40
0.5000000000000376
100
AcDbArc
 50
47.6381527725
 51
85.0000000123
  0
SPLINE
  5
113
330
1F
100
AcDbEntity
  8
0
  6
Continuous
 62
     7
370
    15
100
AcDbSpline
210
0.0
220
0.0
230
1.0
 70
     8
 71
     3
 72
    11
 73
     7
 74
     0
 42
0.00000001
 43
0.00000001
 40
0.0
 40
0.0
 40
0.0
 40
0.0
 40
0.2497846758640487
 40
0.4996684834196475
 40
0.7497260363809296
 40
1.0
 40
1.0
 40
1.0
 40
1.0
 10
265.2891249682714
 20
224.3933302264903
 30
0.0
 10
265.258269861826
 20
224.3960303075859
 30
0.0
 10
265.1965474035129
 20
224.4014315413545
 30
0.0
 10
264.7000684354847
 20
224.4448673222478
 30
0.0
 10
263.9517727993373
 20
224.5103345062445
 30
0.0
 10
263.2496934080525
 20
224.5717579295025
 30
0.0
 10
262.89850187562
 20
224.6024829250072
 30
0.0
  0
LINE
  5
114
330
1F
100
AcDbEntity
  8
0
  6
Continuous
 62
     7
370
    15
100
AcDbLine
 10
261.0455573823
 20
187.3533983629
 30
0.0
 11
259.0455533292
 21
187.3533983629
 31
0.0
  0
LINE
  5
115
330
1F
100
AcDbEntity
  8
0
  6
Continuous
 62
     7
370
    15
100
AcDbLine
 10
261.0455573823
 20
187.3533983629
 30
0.0
 11
261.0455573823
 21
223.3533968132
 31
0.0
  0
LINE
  5
116
330
1F
100
AcDbEntity
  8
0
  6
Continuous
 62
     7
370
    15
100
AcDbLine
 10
259.0455533292
 20
223.3533968132
 30
0.0
 11
259.0455533292
 21
187.3533983629
 31
0.0
  0
LINE
  5
117
330
1F
100
AcDbEntity
  8
0
  6
Continuous
 62
     7
370
    15
100
AcDbLine
 10
112.3455510762
 20
223.8533978265
 30
0.0
 11
112.3455510762
 21
223.8952328366
 31
0.0
  0
SPLINE
  5
118
330
1F
100
AcDbEntity
  8
0
  6
Continuous
 62
     7
370
    15
100
AcDbSpline
210
0.0
220
0.0
230
1.0
 70
     8
 71
     3
 72
    11
 73
     7
 74
     0
 42
0.00000001
 43
0.00000001
 40
0.0
 40
0.0
 40
0.0
 40
0.0
 40
0.2475721031190745
 40
0.499721778661233
 40
0.7418403550684987
 40
1.0
 40
1.0
 40
1.0
 40
1.0
 10
112.3455510761549
 20
223.8952328365539
 30
0.0
 10
112.3780230791763
 20
223.8978938028268
 30
0.0
 10
112.4435674878642
 20
223.9032649362545
 30
0.0
 10
112.9687490567859
 20
223.9454891298836
 30
0.0
 10
113.7680847963759
 20
224.0102845598736
 30
0.0
 10
114.5203403835807
 20
224.070922542453
 30
0.0
 10
114.9085284497549
 20
224.1022136908267
 30
0.0
  0
SPLINE
  5
119
330
1F
100
AcDbEntity
  8
0
  6
Continuous
 62
     7
370
    15
100
AcDbSpline
210
0.0
220
0.0
230
1.0
 70
     8
 71
     3
 72
    11
 73
     7
 74
     0
 42
0.00000001
 43
0.00000001
 40
0.0
 40
0.0
 40
0.0
 40
0.0
 40
0.2570285652373437
 40
0.5093474301326881
 40
0.7569928954746152
 40
1.0
 40
1.0
 40
1.0
 40
1.0
 10
114.9085284497549
 20
224.1022136908267
 30
0.0
 10
115.2072723242225
 20
224.0856613334421
 30
0.0
 10
115.7992859962726
 20
224.0528599182035
 30
0.0
 10
116.7909719095757
 20
224.0201065440393
 30
0.0
 10
117.8106292701313
 20
223.9989091390005
 30
0.0
 10
118.5027569873151
 20
223.9962747675079
 30
0.0
 10
118.8455493476202
 20
223.9949700337146
 30
0.0
  0
LINE
  5
11A
330
1F
100
AcDbEntity
  8
0
  6
Continuous
 62
     7
370
    15
100
AcDbLine
 10
118.8455493476
 20
223.9949700337
 30
0.0
 11
118.8455493476
 21
223.8533978265
 31
0.0
  0
LINE
  5
11B
330
1F
100
AcDbEntity
  8
0
  6
Continuous
 62
     7
370
    15
100
AcDbLine
 10
118.8455493476
 20
223.8533978265
 30
0.0
 11
112.3455510762
 21
223.8533978265
 31
0.0
  0
LINE
  5
11C
330
1F
100
AcDbEntity
  8
0
  6
Continuous
 62
     7
370
    15
100
AcDbLine
 10
119.0455527332
 20
223.8533978265
 30
0.0
 11
119.0455527332
 21
223.9949700337
 31
0.0
  0
LINE
  5
11D
330
1F
100
AcDbEntity
  8
0
  6
Continuous
 62
     7
370
    15
100
AcDbLine
 10
119.0455527332
 20
223.8533978265
 30
0.0
 11
118.8455493476
 21
223.8533978265
 31
0.0
  0
LINE
  5
11E
330
1F
100
AcDbEntity
  8
0
  6
Continuous
 62
     7
370
    15
100
AcDbLine
 10
119.0455527332
 20
223.9949700337
 30
0.0
 11
118.8455493476
 21
223.9949700337
 31
0.0
  0
LINE
  5
11F
330
1F
100
AcDbEntity
  8
0
  6
Continuous
 62
     7
370
    15
100
AcDbLine
 10
118.8455493476
 20
223.9949700337
 30
0.0
 11
118.8455493476
 21
224.4930674237
 31
0.0
  0
LINE
  5
120
330
1F
100
AcDbEntity
  8
0
  6
Continuous
 62
     7
370
    15
100
AcDbLine
 10
119.0455527332
 20
224.4930674237
 30
0.0
 11
118.8455493476
 21
224.4930674237
 31
0.0
  0
SPLINE
  5
121
330
1F
100
AcDbEntity
  8
0
  6
Continuous
 62
     7
370
    15
100
AcDbSpline
210
0.0
220
0.0
230
1.0
 70
     8
 71
     3
 72
    12
 73
     8
 74
     0
 42
0.00000001
 43
0.00000001
 40
0.0
 40
0.0
 40
0.0
 40
0.0
 40
0.2338426302861636
 40
0.4993732513121357
 40
0.7489333712676901
 40
0.9111548997289657
 40
1.0
 40
1.0
 40
1.0
 40
1.0
 10
115.1871354605963
 20
224.6019353073333
 30
0.0
 10
115.1521044515642
 20
224.5918255851881
 30
0.0
 10
115.0772953850749
 20
224.5702361734912
 30
0.0
 10
114.9835142238894
 20
224.4545267348618
 30
0.0
 10
114.9290423487723
 20
224.3091087671306
 30
0.0
 10
114.9099749870671
 20
224.1869708359739
 30
0.0
 10
114.9089065413051
 20
224.1243672572287
 30
0.0
 10
114.9085284497549
 20
224.1022136908267
 30
0.0
  0
SPLINE
  5
122
330
1F
100
AcDbEntity
  8
0
  6
Continuous
 62
     7
370
    15
100
AcDbSpline
210
0.0
220
0.0
230
1.0
 70
     8
 71
     3
 72
    11
 73
     7
 74
     0
 42
0.00000001
 43
0.00000001
 40
0.0
 40
0.0
 40
0.0
 40
0.0
 40
0.2498827428774004
 40
0.4998155259772196
 40
0.7498424821131708
 40
1.0
 40
1.0
 40
1.0
 40
1.0
 10
118.8455493476202
 20
224.493067423651
 30
0.0
 10
118.517577612384
 20
224.4944168247761
 30
0.0
 10
117.8615684639925
 20
224.4971158972502
 30
0.0
 10
116.905744385154
 20
224.5191048126522
 30
0.0
 10
115.9949318141202
 20
224.5526732934642
 30
0.0
 10
115.4564477647648
 20
224.5855117787977
 30
0.0
 10
115.1871354605963
 20
224.6019353073333
 30
0.0
  0
SPLINE
  5
123
330
1F
100
AcDbEntity
  8
0
  6
Continuous
 62
     7
370
    15
100
AcDbSpline
210
0.0
220
0.0
230
1.0
 70
    24
 71
     3
 72
    15
 73
    11
 74
     0
 42
0.00000001
 43
0.00000001
 40
0.0
 40
0.0
 40
0.0
 40
0.0
 40
0.1165160674346175
 40
0.2400115015230367
 40
0.3686408473209777
 40
0.4999999324923792
 40
0.6313595169108698
 40
0.7599884984769633
 40
0.8834839325653824
 40
1.0
 40
1.0
 40
1.0
 40
1.0
 10
118.8455493476202
 20
223.3533968132232
 30
0.0
 10
118.4795985389573
 20
223.3533968132232
 30
0.0
 10
117.7257762979171
 20
223.3533968132232
 30
0.0
 10
116.6075448528631
 20
223.3533968132232
 30
0.0
 10
115.5321755716351
 20
223.3533968132232
 30
0.0
 10
114.57289634868
 20
223.3533968132232
 30
0.0
 10
113.7924640016727
 20
223.3533968132232
 30
0.0
 10
113.2389360971308
 20
223.3533968132232
 30
0.0
 10
112.9051108421329
 20
223.3533968132232
 30
0.0
 10
112.8650163672346
 20
223.3533968132232
 30
0.0
 10
112.8455520894339
 20
223.3533968132232
 30
0.0
  0
ARC
  5
124
330
1F
100
AcDbEntity
  8
0
  6
Continuous
 62
     7
370
    15
100
AcDbCircle
 10
112.8455504045
 20
223.8533981155
 30
0.0
 40
0.5
100
AcDbArc
 50
180.0
 51
270.0000000118
  0
LINE
  5
125
330
1F
100
AcDbEntity
  8
0
  6
Continuous
 62
     7
370
    15
100
AcDbLine
 10
118.8455493476
 20
223.3533968132
 30
0.0
 11
118.8455493476
 21
223.8533978265
 31
0.0
  0
LINE
  5
126
330
1F
100
AcDbEntity
  8
0
  6
Continuous
 62
     7
370
    15
100
AcDbLine
 10
119.0455527332
 20
223.3533968132
 30
0.0
 11
119.0455527332
 21
223.8533978265
 31
0.0
  0
LINE
  5
127
330
1F
100
AcDbEntity
  8
0
  6
Continuous
 62
     7
370
    15
100
AcDbLine
 10
119.0455527332
 20
223.3533968132
 30
0.0
 11
118.8455493476
 21
223.3533968132
 31
0.0
  0
SPLINE
  5
128
330
1F
100
AcDbEntity
  8
0
  6
Continuous
 62
     7
370
    15
100
AcDbSpline
210
0.0
220
0.0
230
1.0
 70
    24
 71
     1
 72
     4
 73
     2
 74
     0
 42
0.00000001
 43
0.00000001
 40
0.0
 40
0.0
 40
1.0
 40
1.0
 10
115.1871354605963
 20
224.6019353073333
 30
0.0
 10
115.1925967361738
 20
224.6024829250072
 30
0.0
  0
LINE
  5
129
330
1F
100
AcDbEntity
  8
0
  6
Continuous
 62
     7
370
    15
100
AcDbLine
 10
115.1925967362
 20
224.602482925
 30
0.0
 11
118.0605785277
 21
224.8533998531
 31
0.0
  0
LINE
  5
12A
330
1F
100
AcDbEntity
  8
0
  6
Continuous
 62
     7
370
    15
100
AcDbLine
 10
118.0605785277
 20
224.8533998531
 30
0.0
 11
119.0455527332
 21
224.8533998531
 31
0.0
  0
ARC
  5
12B
330
1F
100
AcDbEntity
  8
0
  6
Continuous
 62
     7
370
    15
100
AcDbCircle
 10
112.8455504045
 20
223.8952325285
 30
0.0
 40
0.5000000000000069
100
AcDbArc
 50
94.9999999877
 51
116.8833641337
  0
ARC
  5
12C
330
1F
100
AcDbEntity
  8
0
  6
Continuous
 62
     7
370
    15
100
AcDbCircle
 10
112.8455504045
 20
223.8952325285
 30
0.0
 40
0.5
100
AcDbArc
 50
135.6203139458
 51
179.9999999765
  0
SPLINE
  5
12D
330
1F
100
AcDbEntity
  8
0
  6
Continuous
 62
     7
370
    15
100
AcDbSpline
210
0.0
220
0.0
230
1.0
 70
     8
 71
     3
 72
    11
 73
     7
 74
     0
 42
0.00000001
 43
0.00000001
 40
0.0
 40
0.0
 40
0.0
 40
0.0
 40
0.2502731213179744
 40
0.5003308028652101
 40
0.750215195690318
 40
1.0
 40
1.0
 40
1.0
 40
1.0
 10
115.1925967361738
 20
224.6024829250072
 30
0.0
 10
114.8414079002057
 20
224.5717579093531
 30
0.0
 10
114.1393325381697
 20
224.5103343267115
 30
0.0
 10
113.3910393567703
 20
224.4448672870761
 30
0.0
 10
112.8945491532074
 20
224.4014315709911
 30
0.0
 10
112.8328280462289
 20
224.3960303158179
 30
0.0
 10
112.8019736435224
 20
224.3933302264903
 30
0.0
  0
LINE
  5
12E
330
1F
100
AcDbEntity
  8
0
  6
Continuous
 62
     7
370
    15
100
AcDbLine
 10
119.0455527332
 20
187.3533983629
 30
0.0
 11
117.04554868
 21
187.3533983629
 31
0.0
  0
LINE
  5
12F
330
1F
100
AcDbEntity
  8
0
  6
Continuous
 62
     7
370
    15
100
AcDbLine
 10
117.04554868
 20
187.3533983629
 30
0.0
 11
117.04554868
 21
223.3533968132
 31
0.0
  0
LINE
  5
130
330
1F
100
AcDbEntity
  8
0
  6
Continuous
 62
     7
370
    15
100
AcDbLine
 10
119.0455527332
 20
187.3533983629
 30
0.0
 11
119.0455527332
 21
223.3533968132
 31
0.0
  0
LINE
  5
131
330
1F
100
AcDbEntity
  8
0
  6
Continuous
 62
     7
370
    15
100
AcDbLine
 10
119.0455527332
 20
223.9533995193
 30
0.0
 11
259.0455533292
 21
223.9533995193
 31
0.0
  0
LINE
  5
132
330
1F
100
AcDbEntity
  8
0
  6
Continuous
 62
     7
370
    15
100
AcDbLine
 10
119.0455527332
 20
223.995230804
 30
0.0
 11
119.0455527332
 21
223.9533995193
 31
0.0
  0
LINE
  5
133
330
1F
100
AcDbEntity
  8
0
  6
Continuous
 62
     7
370
    15
100
AcDbLine
 10
259.0455533292
 20
223.995230804
 30
0.0
 11
119.0455527332
 21
223.995230804
 31
0.0
  0
LINE
  5
134
330
1F
100
AcDbEntity
  8
0
  6
Continuous
 62
     7
370
    15
100
AcDbLine
 10
259.0455533292
 20
223.9533995193
 30
0.0
 11
259.0455533292
 21
223.995230804
 31
0.0
  0
LINE
  5
135
330
1F
100
AcDbEntity
  8
0
  6
Continuous
 62
     7
370
    15
100
AcDbLine
 10
119.0455527332
 20
224.493328194
 30
0.0
 11
119.0455527332
 21
223.995230804
 31
0.0
  0
LINE
  5
136
330
1F
100
AcDbEntity
  8
0
  6
Continuous
 62
     7
370
    15
100
AcDbLine
 10
119.0455527332
 20
224.493328194
 30
0.0
 11
259.0455533292
 21
224.493328194
 31
0.0
  0
LINE
  5
137
330
1F
100
AcDbEntity
  8
0
  6
Continuous
 62
     7
370
    15
100
AcDbLine
 10
259.0455533292
 20
224.493328194
 30
0.0
 11
259.0455533292
 21
223.995230804
 31
0.0
  0
LINE
  5
138
330
1F
100
AcDbEntity
  8
0
  6
Continuous
 62
     7
370
    15
100
AcDbLine
 10
259.0455533292
 20
223.453398506
 30
0.0
 11
119.0455527332
 21
223.453398506
 31
0.0
  0
LINE
  5
139
330
1F
100
AcDbEntity
  8
0
  6
Continuous
 62
     7
370
    15
100
AcDbLine
 10
119.0455527332
 20
224.8533998531
 30
0.0
 11
259.0455533292
 21
224.8533998531
 31
0.0
  0
LINE
  5
13A
330
1F
100
AcDbEntity
  8
0
  6
Continuous
 62
     7
370
    15
100
AcDbLine
 10
259.0455533292
 20
224.493328194
 30
0.0
 11
259.0455533292
 21
224.8533998531
 31
0.0
  0
LINE
  5
13B
330
1F
100
AcDbEntity
  8
0
  6
Continuous
 62
     7
370
    15
100
AcDbLine
 10
119.0455527332
 20
224.8533998531
 30
0.0
 11
119.0455527332
 21
224.493328194
 31
0.0
  0
LINE
  5
13C
330
1F
100
AcDbEntity
  8
0
  6
Continuous
 62
     7
370
    15
100
AcDbLine
 10
119.0455527332
 20
187.3533983629
 30
0.0
 11
259.0455533292
 21
187.3533983629
 31
0.0
  0
LINE
  5
13D
330
1F
100
AcDbEntity
  8
0
  6
Continuous
 62
     7
370
    15
100
AcDbLine
 10
259.0455533292
 20
187.3533983629
 30
0.0
 11
259.0455533292
 21
223.3533968132
 31
0.0
  0
LINE
  5
13E
330
1F
100
AcDbEntity
  8
0
  6
Continuous
 62
     7
370
    15
100
AcDbLine
 10
119.0455527332
 20
223.3533968132
 30
0.0
 11
119.0455527332
 21
187.3533983629
 31
0.0
  0
SPLINE
  5
13F
330
1F
100
AcDbEntity
  8
0
  6
Continuous
 62
     7
370
    15
100
AcDbSpline
210
0.0
220
0.0
230
1.0
 70
     8
 71
     3
 72
    12
 73
     8
 74
     0
 42
0.00000001
 43
0.00000001
 40
0.0
 40
0.0
 40
0.0
 40
0.0
 40
0.2097646053645366
 40
0.4195251760630686
 40
0.6293055104860251
 40
0.8390742741361665
 40
1.0
 40
1.0
 40
1.0
 40
1.0
 10
262.5464917447378
 20
192.9578768935297
 30
0.0
 10
262.4982759243682
 20
192.9844781036062
 30
0.0
 10
262.4018452110243
 20
193.0376800121046
 30
0.0
 10
262.272495126846
 20
193.109055674386
 30
0.0
 10
262.1742900915332
 20
193.1632217778691
 30
0.0
 10
262.115713776593
 20
193.1955455078196
 30
0.0
 10
262.1138021406605
 20
193.1966022620947
 30
0.0
 10
262.1129722621252
 20
193.1970610197876
 30
0.0
  0
SPLINE
  5
140
330
1F
100
AcDbEntity
  8
0
  6
Continuous
 62
     7
370
    15
100
AcDbSpline
210
0.0
220
0.0
230
1.0
 70
     8
 71
     3
 72
    13
 73
     9
 74
     0
 42
0.00000001
 43
0.00000001
 40
0.0
 40
0.0
 40
0.0
 40
0.0
 40
0.1361849563114212
 40
0.2747076464745168
 40
0.4285828439737584
 40
0.6934316027576582
 40
0.989389268910297
 40
1.0
 40
1.0
 40
1.0
 40
1.0
 10
262.7552272107412
 20
192.8427142005656
 30
0.0
 10
262.6997499477133
 20
192.7604844488475
 30
0.0
 10
262.5878431059299
 20
192.5946133998233
 30
0.0
 10
262.3386218328794
 20
192.4345855240852
 30
0.0
 10
262.0060794557609
 20
192.3169125040726
 30
0.0
 10
261.5747272760255
 20
192.2629738830957
 30
0.0
 10
261.2369894954434
 20
192.2579420544811
 30
0.0
 10
261.0519614439205
 20
192.2567667165911
 30
0.0
 10
261.0455573823263
 20
192.2567260366176
 30
0.0
  0
SPLINE
  5
141
330
1F
100
AcDbEntity
  8
0
  6
Continuous
 62
     7
370
    15
100
AcDbSpline
210
0.0
220
0.0
230
1.0
 70
     8
 71
     3
 72
    11
 73
     7
 74
     0
 42
0.00000001
 43
0.00000001
 40
0.0
 40
0.0
 40
0.0
 40
0.0
 40
0.0761894509464891
 40
0.3841315468527258
 40
0.6920718078869794
 40
1.0
 40
1.0
 40
1.0
 40
1.0
 10
262.9798473145772
 20
192.7187877621744
 30
0.0
 10
262.9811837476558
 20
192.7180509786883
 30
0.0
 10
262.9879217684627
 20
192.7143362678367
 30
0.0
 10
262.9522502489464
 20
192.7340174616511
 30
0.0
 10
262.8763834205186
 20
192.7758687110687
 30
0.0
 10
262.7956120863861
 20
192.8204326618338
 30
0.0
 10
262.7552272107412
 20
192.8427142005656
 30
0.0
  0
LWPOLYLINE
  5
142
330
1F
100
AcDbEntity
  8
0
  6
Continuous
 62
     7
370
    15
100
AcDbPolyline
 90
        5
 70
   128
 43
0.0
 10
277.1352798965
 20
219.4004018706
 10
277.3028136518
 20
219.3079699677
 10
277.4448515203
 20
219.2296122115
 10
277.5397570159
 20
219.1772532564
 10
277.5730760124
 20
219.1588689488
  0
LWPOLYLINE
  5
143
330
1F
100
AcDbEntity
  8
0
  6
Continuous
 62
     7
370
    15
100
AcDbPolyline
 90
        5
 70
   128
 43
0.0
 10
276.6974986818
 20
219.6419385176
 10
276.7308176782
 20
219.62355421
 10
276.8257231738
 20
219.5711952549
 10
276.9677461412
 20
219.4928337734
 10
277.1352798965
 20
219.4004018706
  0
SPLINE
  5
144
330
1F
100
AcDbEntity
  8
0
  6
Continuous
 62
     7
370
    15
100
AcDbSpline
210
0.0
220
0.0
230
1.0
 70
     8
 71
     3
 72
    18
 73
    14
 74
     0
 42
0.00000001
 43
0.00000001
 40
0.0
 40
0.0
 40
0.0
 40
0.0
 40
0.0510905276459569
 40
0.1473212651953094
 40
0.2425409357798494
 40
0.3388379934977859
 40
0.4340156867355495
 40
0.5303382063743521
 40
0.6255125701467323
 40
0.7218175473156911
 40
0.8170278317071844
 40
0.9132717018284944
 40
1.0
 40
1.0
 40
1.0
 40
1.0
 10
258.6581529404928
 20
187.3533983629439
 30
0.0
 10
258.7785999035328
 20
187.2326997080386
 30
0.0
 10
259.1259127969707
 20
186.8846610525906
 30
0.0
 10
259.90369285139
 20
186.5875627752474
 30
0.0
 10
260.8644389488031
 20
186.5012801147859
 30
0.0
 10
261.8049802320236
 20
186.7425757262543
 30
0.0
 10
262.6185764324712
 20
187.2732161535741
 30
0.0
 10
263.2152187878388
 20
188.0361570149721
 30
0.0
 10
263.5344205373893
 20
188.9539879984339
 30
0.0
 10
263.540868545096
 20
189.9236433047357
 30
0.0
 10
263.2295458500665
 20
190.8401761179163
 30
0.0
 10
262.6693515724384
 20
191.6061326141708
 30
0.0
 10
262.1393688008578
 20
191.9126611286807
 30
0.0
 10
261.8881584431936
 20
192.05795479084
 30
0.0
  0
SPLINE
  5
145
330
1F
100
AcDbEntity
  8
0
  6
Continuous
 62
     7
370
    15
100
AcDbSpline
210
0.0
220
0.0
230
1.0
 70
     8
 71
     3
 72
    18
 73
    14
 74
     0
 42
0.00000001
 43
0.00000001
 40
0.0
 40
0.0
 40
0.0
 40
0.0
 40
0.0413458540361864
 40
0.1375802246364602
 40
0.2330341563446499
 40
0.3293865258492715
 40
0.4247525682262059
 40
0.5211791364389012
 40
0.6164963311453031
 40
0.7129549695382931
 40
0.8082626735292211
 40
0.9047099791454736
 40
1.0
 40
1.0
 40
1.0
 40
1.0
 10
258.6575717952062
 20
187.3533983629439
 30
0.0
 10
258.7520310860307
 20
187.2532482520367
 30
0.0
 10
259.066348706348
 20
186.9199941670217
 30
0.0
 10
259.8068984646832
 20
186.6151187215543
 30
0.0
 10
260.7621896611092
 20
186.4940111518015
 30
0.0
 10
261.7111282802362
 20
186.7033706469552
 30
0.0
 10
262.5422099643675
 20
187.2054464982531
 30
0.0
 10
263.1648360919898
 20
187.9474982464881
 30
0.0
 10
263.5154822326948
 20
188.8538185566715
 30
0.0
 10
263.5550751072228
 20
189.8223988502595
 30
0.0
 10
263.2762051149174
 20
190.7501158376758
 30
0.0
 10
262.7236789040146
 20
191.5555433990383
 30
0.0
 10
262.1792093598004
 20
191.8937930529699
 30
0.0
 10
261.9086177375127
 20
192.0618970792983
 30
0.0
  0
SPLINE
  5
146
330
1F
100
AcDbEntity
  8
0
  6
Continuous
 62
     7
370
    15
100
AcDbSpline
210
0.0
220
0.0
230
1.0
 70
     8
 71
     3
 72
    19
 73
    15
 74
     0
 42
0.00000001
 43
0.00000001
 40
0.0
 40
0.0
 40
0.0
 40
0.0
 40
0.0318013141684433
 40
0.1275612070957623
 40
0.2228831971984117
 40
0.3188090857767888
 40
0.4139980500999292
 40
0.5100477454698638
 40
0.6051433065723283
 40
0.7012747387950796
 40
0.796315061489916
 40
0.8924857906079335
 40
0.9875099481545668
 40
1.0
 40
1.0
 40
1.0
 40
1.0
 10
258.6524159934331
 20
187.3533983629439
 30
0.0
 10
258.7230722914533
 20
187.2742529374124
 30
0.0
 10
259.0064883357279
 20
186.956785364738
 30
0.0
 10
259.7115710984324
 20
186.646057932484
 30
0.0
 10
260.6597320551753
 20
186.4902361768931
 30
0.0
 10
261.6161751419779
 20
186.6674911074043
 30
0.0
 10
262.4635432946958
 20
187.1403665045805
 30
0.0
 10
263.1114284707942
 20
187.8606171307733
 30
0.0
 10
263.4933127985042
 20
188.754821472769
 30
0.0
 10
263.5649395978265
 20
189.7188046212885
 30
0.0
 10
263.3229067110121
 20
190.6658710037283
 30
0.0
 10
262.7807588699783
 20
191.4511113349452
 30
0.0
 10
262.2595870588714
 20
191.9334187540741
 30
0.0
 10
261.9191537173627
 20
192.0435170347655
 30
0.0
 10
261.8796051766683
 20
192.0563072812055
 30
0.0
  0
SPLINE
  5
147
330
1F
100
AcDbEntity
  8
0
  6
Continuous
 62
     7
370
    15
100
AcDbSpline
210
0.0
220
0.0
230
1.0
 70
     8
 71
     3
 72
    19
 73
    15
 74
     0
 42
0.00000001
 43
0.00000001
 40
0.0
 40
0.0
 40
0.0
 40
0.0
 40
0.0226362716128567
 40
0.1179367230036757
 40
0.2132354084891852
 40
0.3087397529831766
 40
0.4038624883311051
 40
0.4995389409565795
 40
0.5945244349747317
 40
0.6903311588983353
 40
0.7852163225780271
 40
0.8811115149513087
 40
0.975934971798264
 40
1.0
 40
1.0
 40
1.0
 40
1.0
 10
258.643102767687
 20
187.3533983629439
 30
0.0
 10
258.6919601559706
 20
187.2956880257418
 30
0.0
 10
258.94651092154
 20
186.99501271271
 30
0.0
 10
259.6178950383333
 20
186.6803320977561
 30
0.0
 10
260.5572183708681
 20
186.4899443170239
 30
0.0
 10
261.5203226137974
 20
186.634993853625
 30
0.0
 10
262.382677366296
 20
187.0780124945251
 30
0.0
 10
263.0552815099753
 20
187.7759692901955
 30
0.0
 10
263.4674386566306
 20
188.6559840033464
 30
0.0
 10
263.5723503808392
 20
189.6175353519019
 30
0.0
 10
263.3625619214148
 20
190.5709746604931
 30
0.0
 10
262.8497448950707
 20
191.3787043054474
 30
0.0
 10
262.3110338175794
 20
191.8955642644912
 30
0.0
 10
261.9359486042131
 20
192.0261083193238
 30
0.0
 10
261.8600250508596
 20
192.0525326308106
 30
0.0
  0
SPLINE
  5
148
330
1F
100
AcDbEntity
  8
0
  6
Continuous
 62
     7
370
    15
100
AcDbSpline
210
0.0
220
0.0
230
1.0
 70
     8
 71
     3
 72
    19
 73
    15
 74
     0
 42
0.00000001
 43
0.00000001
 40
0.0
 40
0.0
 40
0.0
 40
0.0
 40
0.01371813920379
 40
0.1086404237511927
 40
0.2040005609256949
 40
0.2990934546572027
 40
0.3942511597633515
 40
0.4895460860791284
 40
0.5845215851957147
 40
0.6799960163802453
 40
0.7748268000366005
 40
0.8704381696542454
 40
0.9651634935397531
 40
1.0
 40
1.0
 40
1.0
 40
1.0
 10
258.6299003388692
 20
187.3533983629439
 30
0.0
 10
258.6586456237841
 20
187.3176719541031
 30
0.0
 10
258.8862931120923
 20
187.0347376480777
 30
0.0
 10
259.5257693918932
 20
186.7179717891694
 30
0.0
 10
260.4547564081424
 20
186.4931202733852
 30
0.0
 10
261.4236935920714
 20
186.6058811346687
 30
0.0
 10
262.2997967510436
 20
187.0185230298116
 30
0.0
 10
262.9964170564282
 20
187.6935166109741
 30
0.0
 10
263.4381875959281
 20
188.5581558914273
 30
0.0
 10
263.5762398554066
 20
189.5162290983214
 30
0.0
 10
263.3990010373527
 20
190.4749822931958
 30
0.0
 10
262.9157812458218
 20
191.3032679708458
 30
0.0
 10
262.3641199557165
 20
191.8562042140377
 30
0.0
 10
261.9578369804929
 20
192.0091941985586
 30
0.0
 10
261.8485958602239
 20
192.0503300529216
 30
0.0
  0
SPLINE
  5
149
330
1F
100
AcDbEntity
  8
0
  6
Continuous
 62
     7
370
    15
100
AcDbSpline
210
0.0
220
0.0
230
1.0
 70
     8
 71
     3
 72
    19
 73
    15
 74
     0
 42
0.00000001
 43
0.00000001
 40
0.0
 40
0.0
 40
0.0
 40
0.0
 40
0.0049823798424358
 40
0.0996196894218505
 40
0.1950318786642156
 40
0.2897934972930905
 40
0.3850479495640535
 40
0.4799731764493766
 40
0.5750281449599046
 40
0.6701531746346783
 40
0.7650202526797251
 40
0.8603306315674569
 40
0.9550466050164221
 40
1.0
 40
1.0
 40
1.0
 40
1.0
 10
258.6130620267202
 20
187.3533983629439
 30
0.0
 10
258.6231986803094
 20
187.3401800073452
 30
0.0
 10
258.825874974421
 20
187.0758869343447
 30
0.0
 10
259.4351851224766
 20
186.7591365746869
 30
0.0
 10
260.3522412156044
 20
186.4997536759948
 30
0.0
 10
261.326112646093
 20
186.5800573241247
 30
0.0
 10
262.2149541165849
 20
186.9619592098804
 30
0.0
 10
262.9349275027507
 20
187.6132912950644
 30
0.0
 10
263.4056094793496
 20
188.4615040495636
 30
0.0
 10
263.5766371522238
 20
189.4150861657108
 30
0.0
 10
263.4321594957485
 20
190.3779915772564
 30
0.0
 10
262.9788254837211
 20
191.2252187724864
 30
0.0
 10
262.4182888524379
 20
191.8152333973983
 30
0.0
 10
261.9838822028248
 20
191.9924281190932
 30
0.0
 10
261.844065907221
 20
192.0494592663143
 30
0.0
  0
SPLINE
  5
14A
330
1F
100
AcDbEntity
  8
0
  6
Continuous
 62
     7
370
    15
100
AcDbSpline
210
0.0
220
0.0
230
1.0
 70
     8
 71
     3
 72
    12
 73
     8
 74
     0
 42
0.00000001
 43
0.00000001
 40
0.0
 40
0.0
 40
0.0
 40
0.0
 40
0.2097639812895696
 40
0.4195356747666759
 40
0.6293057284348703
 40
0.8390737602153854
 40
1.0
 40
1.0
 40
1.0
 40
1.0
 10
114.6300108458807
 20
192.3946828495954
 30
0.0
 10
114.5849331794746
 20
192.3630547655834
 30
0.0
 10
114.494776189336
 20
192.2997974347206
 30
0.0
 10
114.3738309831482
 20
192.2149429134019
 30
0.0
 10
114.2820277982224
 20
192.150536779553
 30
0.0
 10
114.2272664286972
 20
192.1121075799228
 30
0.0
 10
114.2254711704718
 20
192.1108502613843
 30
0.0
 10
114.2246918108274
 20
192.1103044327591
 30
0.0
  0
SPLINE
  5
14B
330
1F
100
AcDbEntity
  8
0
  6
Continuous
 62
     7
370
    15
100
AcDbSpline
210
0.0
220
0.0
230
1.0
 70
     8
 71
     3
 72
    11
 73
     7
 74
     0
 42
0.00000001
 43
0.00000001
 40
0.0
 40
0.0
 40
0.0
 40
0.0
 40
0.0761887688210524
 40
0.3841327437203559
 40
0.6920695518261705
 40
1.0
 40
1.0
 40
1.0
 40
1.0
 10
115.0351734187414
 20
192.678946713755
 30
0.0
 10
115.0364198554595
 20
192.6798228482489
 30
0.0
 10
115.0427042089646
 20
192.6842401915428
 30
0.0
 10
115.0093664104409
 20
192.6608390558666
 30
0.0
 10
114.9384377393853
 20
192.6110797727104
 30
0.0
 10
114.8629215888192
 20
192.5580963839825
 30
0.0
 10
114.8251639034559
 20
192.5316049631928
 30
0.0
  0
LWPOLYLINE
  5
14C
330
1F
100
AcDbEntity
  8
0
  6
Continuous
 62
     7
370
    15
100
AcDbPolyline
 90
        5
 70
   128
 43
0.0
 10
97.2847015884
 20
217.116739313
 10
97.4413351443
 20
217.2266391021
 10
97.574123117
 20
217.3198048871
 10
97.662848356
 20
217.382054488
 10
97.694006684
 20
217.4039144915
  0
LWPOLYLINE
  5
14D
330
1F
100
AcDbEntity
  8
0
  6
Continuous
 62
     7
370
    15
100
AcDbPolyline
 90
        5
 70
   128
 43
0.0
 10
96.8753927674
 20
216.8295678597
 10
96.9065510955
 20
216.8514278632
 10
96.9952763345
 20
216.9136774641
 10
97.1280643072
 20
217.0068432492
 10
97.2847015884
 20
217.116739313
  0
SPLINE
  5
14E
330
1F
100
AcDbEntity
  8
0
  6
Continuous
 62
     7
370
    15
100
AcDbSpline
210
0.0
220
0.0
230
1.0
 70
     8
 71
     3
 72
    15
 73
    11
 74
     0
 42
0.00000001
 43
0.00000001
 40
0.0
 40
0.0
 40
0.0
 40
0.0
 40
0.1403305414635713
 40
0.2803741544430128
 40
0.4209894291090379
 40
0.5608018003419387
 40
0.7016390897223259
 40
0.8412762814355129
 40
0.9822747621779246
 40
1.0
 40
1.0
 40
1.0
 40
1.0
 10
114.0459598328878
 20
188.7125081297253
 30
0.0
 10
114.120955911238
 20
188.4008073779041
 30
0.0
 10
114.2707947263289
 20
187.7780431968523
 30
0.0
 10
114.863205803247
 20
186.9985796163914
 30
0.0
 10
115.6543441573862
 20
186.4439460957134
 30
0.0
 10
116.5877104562865
 20
186.1773489223432
 30
0.0
 10
117.5604417792937
 20
186.2218243171387
 30
0.0
 10
118.4430890793452
 20
186.5942291265071
 30
0.0
 10
119.0199538710058
 20
187.0057014181011
 30
0.0
 10
119.198262842839
 20
187.3184703522401
 30
0.0
 10
119.2181752350141
 20
187.3533983629439
 30
0.0
  0
SPLINE
  5
14F
330
1F
100
AcDbEntity
  8
0
  6
Continuous
 62
     7
370
    15
100
AcDbSpline
210
0.0
220
0.0
230
1.0
 70
     8
 71
     3
 72
    10
 73
     6
 74
     0
 42
0.00000001
 43
0.00000001
 40
0.0
 40
0.0
 40
0.0
 40
0.0
 40
0.104478739757375
 40
0.5755285891613194
 40
1.0
 40
1.0
 40
1.0
 40
1.0
 10
117.0455486800482
 20
192.0009997587894
 30
0.0
 10
116.9754769811779
 20
192.012081173954
 30
0.0
 10
116.5894820305824
 20
192.0731239396922
 30
0.0
 10
115.8966446913186
 20
191.8982312859185
 30
0.0
 10
115.3895798726407
 20
191.5655972008484
 30
0.0
 10
115.1492343570997
 20
191.4079307493065
 30
0.0
  0
SPLINE
  5
150
330
1F
100
AcDbEntity
  8
0
  6
Continuous
 62
     7
370
    15
100
AcDbSpline
210
0.0
220
0.0
230
1.0
 70
     8
 71
     3
 72
    10
 73
     6
 74
     0
 42
0.00000001
 43
0.00000001
 40
0.0
 40
0.0
 40
0.0
 40
0.0
 40
0.055396374334768
 40
0.5305499101275962
 40
1.0
 40
1.0
 40
1.0
 40
1.0
 10
117.0455486800482
 20
192.0118831943963
 30
0.0
 10
117.0088658438543
 20
192.0185935653661
 30
0.0
 10
116.6575418505502
 20
192.0828610694708
 30
0.0
 10
115.9650323152689
 20
191.9205106621959
 30
0.0
 10
115.4237084350898
 20
191.5915353096617
 30
0.0
 10
115.1546807315161
 20
191.4280407976602
 30
0.0
  0
SPLINE
  5
151
330
1F
100
AcDbEntity
  8
0
  6
Continuous
 62
     7
370
    15
100
AcDbSpline
210
0.0
220
0.0
230
1.0
 70
     8
 71
     3
 72
    11
 73
     7
 74
     0
 42
0.00000001
 43
0.00000001
 40
0.0
 40
0.0
 40
0.0
 40
0.0
 40
0.00503708756046
 40
0.4748137616622597
 40
0.9389891885619325
 40
1.0
 40
1.0
 40
1.0
 40
1.0
 10
117.0455486800482
 20
192.0263289388512
 30
0.0
 10
117.0421912549388
 20
192.0270176520495
 30
0.0
 10
116.7257084409011
 20
192.0919382039491
 30
0.0
 10
116.0838493881719
 20
191.9175578260397
 30
0.0
 10
115.4243395887866
 20
191.6875170626215
 30
0.0
 10
115.1758244483472
 20
191.4295002690153
 30
0.0
 10
115.146954479437
 20
191.3995264943932
 30
0.0
  0
SPLINE
  5
152
330
1F
100
AcDbEntity
  8
0
  6
Continuous
 62
     7
370
    15
100
AcDbSpline
210
0.0
220
0.0
230
1.0
 70
    24
 71
     1
 72
     4
 73
     2
 74
     0
 42
0.00000001
 43
0.00000001
 40
0.0
 40
0.0
 40
1.0
 40
1.0
 10
119.1431180860807
 20
187.2881890189145
 30
0.0
 10
119.1914202000906
 20
187.3533983629439
 30
0.0
  0
SPLINE
  5
153
330
1F
100
AcDbEntity
  8
0
  6
Continuous
 62
     7
370
    15
100
AcDbSpline
210
0.0
220
0.0
230
1.0
 70
     8
 71
     3
 72
    10
 73
     6
 74
     0
 42
0.00000001
 43
0.00000001
 40
0.0
 40
0.0
 40
0.0
 40
0.0
 40
0.4222279392735464
 40
0.8830503801750261
 40
1.0
 40
1.0
 40
1.0
 40
1.0
 10
117.0455486800482
 20
192.0145169746373
 30
0.0
 10
116.7566770520906
 20
192.0034535670498
 30
0.0
 10
116.1525289672229
 20
191.9803154812731
 30
0.0
 10
115.4808822592892
 20
191.7155275207947
 30
0.0
 10
115.1988305210204
 20
191.4367115967456
 30
0.0
 10
115.1417390730192
 20
191.3802751254533
 30
0.0
  0
SPLINE
  5
154
330
1F
100
AcDbEntity
  8
0
  6
Continuous
 62
     7
370
    15
100
AcDbSpline
210
0.0
220
0.0
230
1.0
 70
    24
 71
     1
 72
     4
 73
     2
 74
     0
 42
0.00000001
 43
0.00000001
 40
0.0
 40
0.0
 40
1.0
 40
1.0
 10
119.1393629934599
 20
187.2894956644867
 30
0.0
 10
119.1901759531309
 20
187.3533983629439
 30
0.0
  0
SPLINE
  5
155
330
1F
100
AcDbEntity
  8
0
  6
Continuous
 62
     7
370
    15
100
AcDbSpline
210
0.0
220
0.0
230
1.0
 70
     8
 71
     3
 72
    10
 73
     6
 74
     0
 42
0.00000001
 43
0.00000001
 40
0.0
 40
0.0
 40
0.0
 40
0.0
 40
0.3719136439780008
 40
0.8311182730876175
 40
1.0
 40
1.0
 40
1.0
 40
1.0
 10
117.0455486800482
 20
192.0029126953576
 30
0.0
 10
116.7894575352994
 20
192.001540502564
 30
0.0
 10
116.2171686896951
 20
191.9984740528022
 30
0.0
 10
115.5395113927432
 20
191.7451639370857
 30
0.0
 10
115.2236334394304
 20
191.4487401619644
 30
0.0
 10
115.1386992361357
 20
191.3690368559454
 30
0.0
  0
SPLINE
  5
156
330
1F
100
AcDbEntity
  8
0
  6
Continuous
 62
     7
370
    15
100
AcDbSpline
210
0.0
220
0.0
230
1.0
 70
    24
 71
     1
 72
     4
 73
     2
 74
     0
 42
0.00000001
 43
0.00000001
 40
0.0
 40
0.0
 40
1.0
 40
1.0
 10
119.1385434295942
 20
187.2891352426503
 30
0.0
 10
119.1933424498846
 20
187.3533983629439
 30
0.0
  0
SPLINE
  5
157
330
1F
100
AcDbEntity
  8
0
  6
Continuous
 62
     7
370
    15
100
AcDbSpline
210
0.0
220
0.0
230
1.0
 70
     8
 71
     3
 72
    10
 73
     6
 74
     0
 42
0.00000001
 43
0.00000001
 40
0.0
 40
0.0
 40
0.0
 40
0.0
 40
0.3230726194518485
 40
0.7821310885396437
 40
1.0
 40
1.0
 40
1.0
 40
1.0
 10
117.0455486800482
 20
191.9948036697004
 30
0.0
 10
116.8225847149886
 20
192.0006922579479
 30
0.0
 10
116.2828080883187
 20
192.0149480247899
 30
0.0
 10
115.6000503256449
 20
191.7747753389476
 30
0.0
 10
115.2501235421366
 20
191.4644670832722
 30
0.0
 10
115.1374996926595
 20
191.3645944472645
 30
0.0
  0
SPLINE
  5
158
330
1F
100
AcDbEntity
  8
0
  6
Continuous
 62
     7
370
    15
100
AcDbSpline
210
0.0
220
0.0
230
1.0
 70
    24
 71
     1
 72
     4
 73
     2
 74
     0
 42
0.00000001
 43
0.00000001
 40
0.0
 40
0.0
 40
1.0
 40
1.0
 10
119.1407562520315
 20
187.2870937835668
 30
0.0
 10
119.2013592746069
 20
187.3533983629439
 30
0.0
  0
SPLINE
  5
159
330
1F
100
AcDbEntity
  8
0
  6
Continuous
 62
     7
370
    15
100
AcDbSpline
210
0.0
220
0.0
230
1.0
 70
     8
 71
     3
 72
    11
 73
     7
 74
     0
 42
0.00000001
 43
0.00000001
 40
0.0
 40
0.0
 40
0.0
 40
0.0
 40
0.2947239443997965
 40
0.5711439808606732
 40
0.8590089903389295
 40
0.9999999999999999
 40
0.9999999999999999
 40
0.9999999999999999
 40
0.9999999999999999
 10
263.1825776126195
 20
224.1022136908267
 30
0.0
 10
263.571372569205
 20
224.0708754181313
 30
0.0
 10
264.3248162695294
 20
224.0101451443932
 30
0.0
 10
265.1155584116237
 20
223.9460314768136
 30
0.0
 10
265.5805978336634
 20
223.9086535622015
 30
0.0
 10
265.6413075864509
 20
223.9037007572259
 30
0.0
 10
265.6612665679265
 20
223.9020724695418
 30
0.0
  0
DIMENSION
  5
15A
330
1F
100
AcDbEntity
  8
FORMAT
100
AcDbDimension
  2
*D5
 10
112.3455504044
 20
241.4153233356
 30
0.0
 11
194.355980618
 21
241.4153233356
 31
0.0
 70
   160
 71
     2
 42
-1.0
  3
SLDDIMSTYLE0
100
AcDbAlignedDimension
 13
265.7455504045
 23
223.8952325285
 33
0.0
 14
112.3455504044
 24
223.8533981153
 34
0.0
100
AcDbRotatedDimension
  0
DIMENSION
  5
16C
330
1F
100
AcDbEntity
  8
FORMAT
100
AcDbDimension
  2
*D6
 10
261.0455504045
 20
164.370041773
 30
0.0
 11
194.355980618
 21
164.370041773
 31
0.0
 70
   160
 71
     2
 42
-1.0
  3
SLDDIMSTYLE1
100
AcDbAlignedDimension
 13
117.0455504045
 23
187.3533981155
 33
0.0
 14
261.0455504045
 24
187.3533981155
 34
0.0
 50
0.0
100
AcDbRotatedDimension
  0
SPLINE
  5
177
330
1F
100
AcDbEntity
  8
0
  6
Continuous
 62
     7
370
    15
100
AcDbSpline
210
0.0
220
0.0
230
1.0
 70
    24
 71
     1
 72
     4
 73
     2
 74
     0
 42
0.00000001
 43
0.00000001
 40
0.0
 40
0.0
 40
1.0
 40
1.0
 10
415.8821278373179
 20
221.4764465492461
 30
0.0
 10
403.5499119321284
 20
221.4764465492461
 30
0.0
  0
SPLINE
  5
178
330
1F
100
AcDbEntity
  8
0
  6
Continuous
 62
     7
370
    15
100
AcDbSpline
210
0.0
220
0.0
230
1.0
 70
    24
 71
     1
 72
     4
 73
     2
 74
     0
 42
0.00000001
 43
0.00000001
 40
0.0
 40
0.0
 40
1.0
 40
1.0
 10
403.5499119321284
 20
220.4764482479785
 30
0.0
 10
415.8821278373179
 20
220.4764482479785
 30
0.0
  0
SPLINE
  5
179
330
1F
100
AcDbEntity
  8
0
  6
Continuous
 62
     7
370
    15
100
AcDbSpline
210
0.0
220
0.0
230
1.0
 70
    24
 71
     1
 72
     4
 73
     2
 74
     0
 42
0.00000001
 43
0.00000001
 40
0.0
 40
0.0
 40
1.0
 40
1.0
 10
401.2819253961024
 20
219.6786177259181
 30
0.0
 10
401.2585752765116
 20
219.3556350570415
 30
0.0
  0
SPLINE
  5
17A
330
1F
100
AcDbEntity
  8
0
  6
Continuous
 62
     7
370
    15
100
AcDbSpline
210
0.0
220
0.0
230
1.0
 70
    24
 71
     1
 72
     4
 73
     2
 74
     0
 42
0.00000001
 43
0.00000001
 40
0.0
 40
0.0
 40
1.0
 40
1.0
 10
401.2883030930934
 20
219.7668475013469
 30
0.0
 10
401.2819253961024
 20
219.6786177259181
 30
0.0
  0
SPLINE
  5
17B
330
1F
100
AcDbEntity
  8
0
  6
Continuous
 62
     7
370
    15
100
AcDbSpline
210
0.0
220
0.0
230
1.0
 70
     8
 71
     3
 72
    13
 73
     9
 74
     0
 42
0.00000001
 43
0.00000001
 40
0.0
 40
0.0
 40
0.0
 40
0.0
 40
0.2364939702814773
 40
0.3643948272580724
 40
0.4955265686276524
 40
0.6272601210858625
 40
0.7569247219992518
 40
1.0
 40
1.0
 40
1.0
 40
1.0
 10
402.2412398020205
 20
219.3556350570415
 30
0.0
 10
402.2562753824806
 20
219.4945808770647
 30
0.0
 10
402.2794425175155
 20
219.7086714859091
 30
0.0
 10
402.4379973848189
 20
219.9690284404609
 30
0.0
 10
402.604587543278
 20
220.1494975329201
 30
0.0
 10
402.8138083385214
 20
220.2958148241538
 30
0.0
 10
403.1217120510542
 20
220.4383516059621
 30
0.0
 10
403.3808923749394
 20
220.4614783421263
 30
0.0
 10
403.5499119321284
 20
220.4765600066875
 30
0.0
  0
SPLINE
  5
17C
330
1F
100
AcDbEntity
  8
0
  6
Continuous
 62
     7
370
    15
100
AcDbSpline
210
0.0
220
0.0
230
1.0
 70
    24
 71
     1
 72
     4
 73
     2
 74
     0
 42
0.00000001
 43
0.00000001
 40
0.0
 40
0.0
 40
1.0
 40
1.0
 10
418.14881797232
 20
219.6966257792209
 30
0.0
 10
418.1437366763529
 20
219.7668475013469
 30
0.0
  0
SPLINE
  5
17D
330
1F
100
AcDbEntity
  8
0
  6
Continuous
 62
     7
370
    15
100
AcDbSpline
210
0.0
220
0.0
230
1.0
 70
    24
 71
     1
 72
     4
 73
     2
 74
     0
 42
0.00000001
 43
0.00000001
 40
0.0
 40
0.0
 40
1.0
 40
1.0
 10
418.1734644929347
 20
219.3556350570415
 30
0.0
 10
418.14881797232
 20
219.6966257792209
 30
0.0
  0
SPLINE
  5
17E
330
1F
100
AcDbEntity
  8
0
  6
Continuous
 62
     7
370
    15
100
AcDbSpline
210
0.0
220
0.0
230
1.0
 70
     8
 71
     3
 72
    13
 73
     9
 74
     0
 42
0.00000001
 43
0.00000001
 40
0.0
 40
0.0
 40
0.0
 40
0.0
 40
0.2430756335337156
 40
0.3727373026504101
 40
0.5044764763948636
 40
0.6356062198291498
 40
0.7635056838116755
 40
1.0
 40
1.0
 40
1.0
 40
1.0
 10
415.8821278373179
 20
220.4765600066875
 30
0.0
 10
416.0511484550259
 20
220.4614796419534
 30
0.0
 10
416.3103282346726
 20
220.4383550926424
 30
0.0
 10
416.6182257902872
 20
220.2958088782552
 30
0.0
 10
416.827459644992
 20
220.1495040178948
 30
0.0
 10
416.9940424061834
 20
219.9690273282124
 30
0.0
 10
417.1525870765285
 20
219.7086697205824
 30
0.0
 10
417.1757558244275
 20
219.4945805476424
 30
0.0
 10
417.1907925168452
 20
219.3556350570415
 30
0.0
  0
SPLINE
  5
17F
330
1F
100
AcDbEntity
  8
0
  6
Continuous
 62
     7
370
    15
100
AcDbSpline
210
0.0
220
0.0
230
1.0
 70
     8
 71
     3
 72
     9
 73
     5
 74
     0
 42
0.00000001
 43
0.00000001
 40
0.0
 40
0.0
 40
0.0
 40
0.0
 40
0.0182637128311926
 40
1.0
 40
1.0
 40
1.0
 40
1.0
 10
401.5755974809107
 20
220.4512801867221
 30
0.0
 10
401.5723551334629
 20
220.4478999042731
 30
0.0
 10
401.3948256531305
 20
220.2628180164726
 30
0.0
 10
401.3410735163165
 20
220.0125473228707
 30
0.0
 10
401.2883030930934
 20
219.7668475013469
 30
0.0
  0
SPLINE
  5
180
330
1F
100
AcDbEntity
  8
0
  6
Continuous
 62
     7
370
    15
100
AcDbSpline
210
0.0
220
0.0
230
1.0
 70
     8
 71
     3
 72
    10
 73
     6
 74
     0
 42
0.00000001
 43
0.00000001
 40
0.0
 40
0.0
 40
0.0
 40
0.0
 40
0.313700943006415
 40
0.6558217323210854
 40
0.9999999999999999
 40
0.9999999999999999
 40
0.9999999999999999
 40
0.9999999999999999
 10
403.5499119321284
 20
221.4763347905372
 30
0.0
 10
403.3035201296062
 20
221.4537311853862
 30
0.0
 10
402.7884145733042
 20
221.4064761935945
 30
0.0
 10
402.0649183997851
 20
221.0472251287715
 30
0.0
 10
401.7390301175782
 20
220.6503251272323
 30
0.0
 10
401.5755974809107
 20
220.4512801867221
 30
0.0
  0
SPLINE
  5
181
330
1F
100
AcDbEntity
  8
0
  6
Continuous
 62
     7
370
    15
100
AcDbSpline
210
0.0
220
0.0
230
1.0
 70
     8
 71
     3
 72
    10
 73
     6
 74
     0
 42
0.00000001
 43
0.00000001
 40
0.0
 40
0.0
 40
0.0
 40
0.0
 40
0.3271157713712455
 40
0.6781391832590832
 40
1.0
 40
1.0
 40
1.0
 40
1.0
 10
417.8171479264674
 20
220.492493073294
 30
0.0
 10
417.6652855698151
 20
220.676456277884
 30
0.0
 10
417.3504618177341
 20
221.0578278540309
 30
0.0
 10
416.6432258271799
 20
221.4061278672819
 30
0.0
 10
416.1283895520932
 20
221.4536185601171
 30
0.0
 10
415.8821278373179
 20
221.4763347905372
 30
0.0
  0
SPLINE
  5
182
330
1F
100
AcDbEntity
  8
0
  6
Continuous
 62
     7
370
    15
100
AcDbSpline
210
0.0
220
0.0
230
1.0
 70
     8
 71
     3
 72
     9
 73
     5
 74
     0
 42
0.00000001
 43
0.00000001
 40
0.0
 40
0.0
 40
0.0
 40
0.0
 40
0.9140286238984042
 40
0.9999999999999999
 40
0.9999999999999999
 40
0.9999999999999999
 40
0.9999999999999999
 10
418.143736676353
 20
219.7668475013469
 30
0.0
 10
418.0882395128702
 20
220.0111122188671
 30
0.0
 10
418.0275224171121
 20
220.2783518994783
 30
0.0
 10
417.8338023106026
 20
220.4755404981175
 30
0.0
 10
417.8171479264674
 20
220.492493073294
 30
0.0
  0
SPLINE
  5
183
330
1F
100
AcDbEntity
  8
0
  6
Continuous
 62
     7
370
    15
100
AcDbSpline
210
0.0
220
0.0
230
1.0
 70
    24
 71
     1
 72
     4
 73
     2
 74
     0
 42
0.00000001
 43
0.00000001
 40
0.0
 40
0.0
 40
1.0
 40
1.0
 10
418.1821369687496
 20
192.956750924537
 30
0.0
 10
418.1821369687495
 20
219.4004018705581
 30
0.0
  0
SPLINE
  5
184
330
1F
100
AcDbEntity
  8
0
  6
Continuous
 62
     7
370
    15
100
AcDbSpline
210
0.0
220
0.0
230
1.0
 70
    24
 71
     1
 72
     4
 73
     2
 74
     0
 42
0.00000001
 43
0.00000001
 40
0.0
 40
0.0
 40
1.0
 40
1.0
 10
417.1821349421916
 20
219.4004018705581
 30
0.0
 10
417.1821349421917
 20
192.956750924537
 30
0.0
  0
SPLINE
  5
185
330
1F
100
AcDbEntity
  8
0
  6
Continuous
 62
     7
370
    15
100
AcDbSpline
210
0.0
220
0.0
230
1.0
 70
    24
 71
     1
 72
     4
 73
     2
 74
     0
 42
0.00000001
 43
0.00000001
 40
0.0
 40
0.0
 40
1.0
 40
1.0
 10
402.2499048272548
 20
192.9567732762788
 30
0.0
 10
402.2499048272547
 20
219.4004018705581
 30
0.0
  0
SPLINE
  5
186
330
1F
100
AcDbEntity
  8
0
  6
Continuous
 62
     7
370
    15
100
AcDbSpline
210
0.0
220
0.0
230
1.0
 70
    24
 71
     1
 72
     4
 73
     2
 74
     0
 42
0.00000001
 43
0.00000001
 40
0.0
 40
0.0
 40
1.0
 40
1.0
 10
401.2499102512774
 20
219.4004018705581
 30
0.0
 10
401.2499102512775
 20
192.9567732762788
 30
0.0
  0
SPLINE
  5
187
330
1F
100
AcDbEntity
  8
0
  6
Continuous
 62
     7
370
    15
100
AcDbSpline
210
0.0
220
0.0
230
1.0
 70
     8
 71
     3
 72
    20
 73
    16
 74
     0
 42
0.00000001
 43
0.00000001
 40
0.0
 40
0.0
 40
0.0
 40
0.0
 40
0.0152385284904884
 40
0.1672869222860152
 40
0.2314181790212871
 40
0.2603565444538953
 40
0.2887686345428152
 40
0.3184356845777829
 40
0.3498408325056844
 40
0.4163111443631889
 40
0.5692852090208588
 40
0.6607418670210212
 40
0.7645498046417533
 40
0.8771938378963239
 40
0.9999999999999999
 40
0.9999999999999999
 40
0.9999999999999999
 40
0.9999999999999999
 10
404.0137999812542
 20
186.9462287899349
 30
0.0
 10
404.0180342919435
 20
186.9219540437999
 30
0.0
 10
404.0645180980191
 20
186.6554684987721
 30
0.0
 10
404.1450208571232
 20
186.4148280311803
 30
0.0
 10
404.2955752358287
 20
186.1980228261027
 30
0.0
 10
404.4496097779286
 20
186.0922816134019
 30
0.0
 10
404.6132712389299
 20
186.0406631823056
 30
0.0
 10
404.7851758157757
 20
186.0463981112067
 30
0.0
 10
404.9840248495395
 20
186.1180746726978
 30
0.0
 10
405.2290105096218
 20
186.3704192405793
 30
0.0
 10
405.3055538120796
 20
186.6849718141003
 30
0.0
 10
405.4108821611759
 20
187.2208697470072
 30
0.0
 10
405.5061657859911
 20
187.8225905679282
 30
0.0
 10
405.6045022531568
 20
188.5919081528938
 30
0.0
 10
405.6705650991112
 20
189.1609111932536
 30
0.0
 10
405.7050221721111
 20
189.4576919179652
 30
0.0
  0
SPLINE
  5
188
330
1F
100
AcDbEntity
  8
0
  6
Continuous
 62
     7
370
    15
100
AcDbSpline
210
0.0
220
0.0
230
1.0
 70
     8
 71
     3
 72
    21
 73
    17
 74
     0
 42
0.00000001
 43
0.00000001
 40
0.0
 40
0.0
 40
0.0
 40
0.0
 40
0.0071617610689196
 40
0.1518153994253669
 40
0.2148525150767575
 40
0.2442957458371833
 40
0.2737809123267061
 40
0.3044665551526828
 40
0.335870598190313
 40
0.3673426694893271
 40
0.3995141172443276
 40
0.5501521410835876
 40
0.643326872634389
 40
0.7509495168332613
 40
0.8697031730254693
 40
1.0
 40
1.0
 40
1.0
 40
1.0
 10
406.0805016318737
 20
186.9953560557459
 30
0.0
 10
406.0825194659941
 20
186.9833867006164
 30
0.0
 10
406.1252936230792
 20
186.7296596616441
 30
0.0
 10
406.202472019183
 20
186.4819205709682
 30
0.0
 10
406.3145626772417
 20
186.2713076879727
 30
0.0
 10
406.431590575334
 20
186.1547135915671
 30
0.0
 10
406.5580172754684
 20
186.0769372383126
 30
0.0
 10
406.7392607648395
 20
186.0348587740878
 30
0.0
 10
406.9155966383905
 20
186.0590160632658
 30
0.0
 10
407.057469474435
 20
186.1272907141734
 30
0.0
 10
407.2841411726116
 20
186.3293187980675
 30
0.0
 10
407.3588733895834
 20
186.5960421233057
 30
0.0
 10
407.4671298428617
 20
187.1031341656229
 30
0.0
 10
407.5682768970591
 20
187.7148183987972
 30
0.0
 10
407.6744778765107
 20
188.5227668872047
 30
0.0
 10
407.7449452079031
 20
189.1319350531763
 30
0.0
 10
407.7818119088588
 20
189.4506362181399
 30
0.0
  0
SPLINE
  5
189
330
1F
100
AcDbEntity
  8
0
  6
Continuous
 62
     7
370
    15
100
AcDbSpline
210
0.0
220
0.0
230
1.0
 70
     8
 71
     3
 72
    11
 73
     7
 74
     0
 42
0.00000001
 43
0.00000001
 40
0.0
 40
0.0
 40
0.0
 40
0.0
 40
0.2445549910370699
 40
0.533983265892949
 40
0.786478825720521
 40
1.0
 40
1.0
 40
1.0
 40
1.0
 10
407.8135066787182
 20
189.528566497216
 30
0.0
 10
407.8406355212435
 20
189.2979885597099
 30
0.0
 10
407.8998710652417
 20
188.7945240440595
 30
0.0
 10
407.991327140115
 20
188.0726698820164
 30
0.0
 10
408.0802999976847
 20
187.4563879802184
 30
0.0
 10
408.1304016925763
 20
187.1590541917707
 30
0.0
 10
408.1533574620663
 20
187.0228207584713
 30
0.0
  0
SPLINE
  5
18A
330
1F
100
AcDbEntity
  8
0
  6
Continuous
 62
     7
370
    15
100
AcDbSpline
210
0.0
220
0.0
230
1.0
 70
     8
 71
     3
 72
    20
 73
    16
 74
     0
 42
0.00000001
 43
0.00000001
 40
0.0
 40
0.0
 40
0.0
 40
0.0
 40
0.0612658417963591
 40
0.136239081856768
 40
0.1703991826819343
 40
0.203630540328987
 40
0.2373298677546533
 40
0.2701803073190849
 40
0.3008582241167897
 40
0.3320850428920427
 40
0.4913492455469328
 40
0.5949922226430251
 40
0.7158939167659775
 40
0.8509537144639072
 40
1.0
 40
1.0
 40
1.0
 40
1.0
 10
408.2544320384441
 20
186.6513832386826
 30
0.0
 10
408.2730807963069
 20
186.5736095251891
 30
0.0
 10
408.3145507177915
 20
186.4006612883208
 30
0.0
 10
408.3881236834831
 20
186.2792621866624
 30
0.0
 10
408.5064528786837
 20
186.1565265107467
 30
0.0
 10
408.6332230131803
 20
186.0779816520463
 30
0.0
 10
408.8123433125268
 20
186.035423830989
 30
0.0
 10
408.9838185871744
 20
186.0568941762771
 30
0.0
 10
409.1232179779676
 20
186.1200263253506
 30
0.0
 10
409.3516814423763
 20
186.3093414915238
 30
0.0
 10
409.4214912827662
 20
186.5507446579926
 30
0.0
 10
409.5346402582724
 20
187.0393628024702
 30
0.0
 10
409.6377556697938
 20
187.6529069934707
 30
0.0
 10
409.7479902592938
 20
188.4821159921082
 30
0.0
 10
409.8209315853168
 20
189.1160723442869
 30
0.0
 10
409.8591976920543
 20
189.4486552950237
 30
0.0
  0
SPLINE
  5
18B
330
1F
100
AcDbEntity
  8
0
  6
Continuous
 62
     7
370
    15
100
AcDbSpline
210
0.0
220
0.0
230
1.0
 70
    24
 71
     1
 72
     4
 73
     2
 74
     0
 42
0.00000001
 43
0.00000001
 40
0.0
 40
0.0
 40
1.0
 40
1.0
 10
407.8039252320705
 20
189.608997377405
 30
0.0
 10
407.8135066787182
 20
189.528566497216
 30
0.0
  0
SPLINE
  5
18C
330
1F
100
AcDbEntity
  8
0
  6
Continuous
 62
     7
370
    15
100
AcDbSpline
210
0.0
220
0.0
230
1.0
 70
     8
 71
     3
 72
     9
 73
     5
 74
     0
 42
0.00000001
 43
0.00000001
 40
0.0
 40
0.0
 40
0.0
 40
0.0
 40
0.2256122925408329
 40
1.0
 40
1.0
 40
1.0
 40
1.0
 10
411.7781394282756
 20
188.1510947745536
 30
0.0
 10
411.790703187084
 20
188.2406477683418
 30
0.0
 10
411.8463905730275
 20
188.6375808998644
 30
0.0
 10
411.897271397331
 20
189.0940447077171
 30
0.0
 10
411.936672882217
 20
189.4475246694182
 30
0.0
  0
SPLINE
  5
18D
330
1F
100
AcDbEntity
  8
0
  6
Continuous
 62
     7
370
    15
100
AcDbSpline
210
0.0
220
0.0
230
1.0
 70
    24
 71
     1
 72
     4
 73
     2
 74
     0
 42
0.00000001
 43
0.00000001
 40
0.0
 40
0.0
 40
1.0
 40
1.0
 10
409.8801189223705
 20
189.6207385611032
 30
0.0
 10
409.9241816560207
 20
189.2505220052097
 30
0.0
  0
SPLINE
  5
18E
330
1F
100
AcDbEntity
  8
0
  6
Continuous
 62
     7
370
    15
100
AcDbSpline
210
0.0
220
0.0
230
1.0
 70
     8
 71
     3
 72
    19
 73
    15
 74
     0
 42
0.00000001
 43
0.00000001
 40
0.0
 40
0.0
 40
0.0
 40
0.0
 40
0.066872965119645
 40
0.1677716044014723
 40
0.2127877667555239
 40
0.2553969999832208
 40
0.2974763392204439
 40
0.336270828911907
 40
0.3694328398436494
 40
0.4030607110761702
 40
0.5946165277293984
 40
0.726451189279858
 40
0.881422908268614
 40
1.0
 40
1.0
 40
1.0
 40
1.0
 10
410.3313558856426
 20
186.654296415696
 30
0.0
 10
410.3476771541872
 20
186.583886706684
 30
0.0
 10
410.3886241258772
 20
186.4072420816814
 30
0.0
 10
410.4604347160763
 20
186.28711953131
 30
0.0
 10
410.5808717904549
 20
186.1589547176894
 30
0.0
 10
410.7080334160488
 20
186.0790879145419
 30
0.0
 10
410.8849487252904
 20
186.0361603038013
 30
0.0
 10
411.0496625597406
 20
186.0545650037319
 30
0.0
 10
411.1837609687024
 20
186.1107620744939
 30
0.0
 10
411.4119874949859
 20
186.282106028444
 30
0.0
 10
411.4771563437385
 20
186.4955022236112
 30
0.0
 10
411.5978372490676
 20
186.9704334637816
 30
0.0
 10
411.6922909804259
 20
187.5034331664291
 30
0.0
 10
411.7521792475989
 20
187.9552448461573
 30
0.0
 10
411.7781394282756
 20
188.1510947745536
 30
0.0
  0
SPLINE
  5
18F
330
1F
100
AcDbEntity
  8
0
  6
Continuous
 62
     7
370
    15
100
AcDbSpline
210
0.0
220
0.0
230
1.0
 70
    24
 71
     1
 72
     4
 73
     2
 74
     0
 42
0.00000001
 43
0.00000001
 40
0.0
 40
0.0
 40
1.0
 40
1.0
 10
411.9417094747005
 20
189.7553677585219
 30
0.0
 10
411.9980954686581
 20
189.2844761636351
 30
0.0
  0
SPLINE
  5
190
330
1F
100
AcDbEntity
  8
0
  6
Continuous
 62
     7
370
    15
100
AcDbSpline
210
0.0
220
0.0
230
1.0
 70
     8
 71
     3
 72
    20
 73
    16
 74
     0
 42
0.00000001
 43
0.00000001
 40
0.0
 40
0.0
 40
0.0
 40
0.0
 40
0.0573086239428328
 40
0.1424579440175677
 40
0.1798234866909777
 40
0.214371665946861
 40
0.2476824661712514
 40
0.2764359625845338
 40
0.2981275840974786
 40
0.3200776399376315
 40
0.4657387146696457
 40
0.5720020702553078
 40
0.6974265940852997
 40
0.8406337592561661
 40
1.0
 40
1.0
 40
1.0
 40
1.0
 10
412.3986237803875
 20
186.6996089842413
 30
0.0
 10
412.4161977508849
 20
186.620324110432
 30
0.0
 10
412.4598831778422
 20
186.4232375406021
 30
0.0
 10
412.5339596987152
 20
186.2937760819408
 30
0.0
 10
412.6557981275682
 20
186.1612676045358
 30
0.0
 10
412.7827841449973
 20
186.0802457715261
 30
0.0
 10
412.957098359659
 20
186.0370967443661
 30
0.0
 10
413.1124462283601
 20
186.052044109784
 30
0.0
 10
413.2375855186393
 20
186.0993527002917
 30
0.0
 10
413.4625622767534
 20
186.2461405845223
 30
0.0
 10
413.5295590309461
 20
186.4402284261557
 30
0.0
 10
413.6630918123844
 20
186.9028186999031
 30
0.0
 10
413.7736369954725
 20
187.5255571192203
 30
0.0
 10
413.8950829852094
 20
188.4026822094942
 30
0.0
 10
413.973491069689
 20
189.0898765271383
 30
0.0
 10
414.0147888223109
 20
189.4518236544226
 30
0.0
  0
SPLINE
  5
191
330
1F
100
AcDbEntity
  8
0
  6
Continuous
 62
     7
370
    15
100
AcDbSpline
210
0.0
220
0.0
230
1.0
 70
    24
 71
     1
 72
     4
 73
     2
 74
     0
 42
0.00000001
 43
0.00000001
 40
0.0
 40
0.0
 40
1.0
 40
1.0
 10
414.0195273915706
 20
189.753572168598
 30
0.0
 10
414.0795343676983
 20
189.2536503177379
 30
0.0
  0
SPLINE
  5
192
330
1F
100
AcDbEntity
  8
0
  6
Continuous
 62
     7
370
    15
100
AcDbSpline
210
0.0
220
0.0
230
1.0
 70
     8
 71
     3
 72
    20
 73
    16
 74
     0
 42
0.00000001
 43
0.00000001
 40
0.0
 40
0.0
 40
0.0
 40
0.0
 40
0.0521899276618608
 40
0.1419710744372152
 40
0.2121100264101542
 40
0.2415429712368906
 40
0.2667150417820209
 40
0.3000047297714877
 40
0.3435641939794902
 40
0.4193253831190045
 40
0.5256930961599973
 40
0.658119750412447
 40
0.8173379126802589
 40
0.9050952819992075
 40
1.0
 40
1.0
 40
1.0
 40
1.0
 10
414.4730293313442
 20
186.7122535508369
 30
0.0
 10
414.48897635453
 20
186.6373466701029
 30
0.0
 10
414.5323566793779
 20
186.4335791843641
 30
0.0
 10
414.6217877544969
 20
186.2804798704704
 30
0.0
 10
414.7693147469139
 20
186.1155772660173
 30
0.0
 10
414.9871735710542
 20
186.0450916225288
 30
0.0
 10
415.1517379654003
 20
186.0413892198502
 30
0.0
 10
415.3471823755648
 20
186.1082573844061
 30
0.0
 10
415.4592756381874
 20
186.2052819268838
 30
0.0
 10
415.572050058472
 20
186.3672734876573
 30
0.0
 10
415.6889715481712
 20
186.7027947315201
 30
0.0
 10
415.8174531233367
 20
187.3148481534273
 30
0.0
 10
415.9301149689144
 20
188.0731343526624
 30
0.0
 10
416.0197027642974
 20
188.8276694901169
 30
0.0
 10
416.0680326782081
 20
189.2426861559945
 30
0.0
 10
416.093143180984
 20
189.4583140414451
 30
0.0
  0
SPLINE
  5
193
330
1F
100
AcDbEntity
  8
0
  6
Continuous
 62
     7
370
    15
100
AcDbSpline
210
0.0
220
0.0
230
1.0
 70
     8
 71
     3
 72
    20
 73
    16
 74
     0
 42
0.00000001
 43
0.00000001
 40
0.0
 40
0.0
 40
0.0
 40
0.0
 40
0.0460520596605261
 40
0.1419036469331591
 40
0.2154448156399351
 40
0.2453508646729366
 40
0.2707644391994726
 40
0.3043422847966642
 40
0.3468611665367092
 40
0.4194994202827025
 40
0.5219992193128788
 40
0.6529265102521957
 40
0.8135234622084874
 40
0.9028730409557049
 40
0.9999999999999999
 40
0.9999999999999999
 40
0.9999999999999999
 40
0.9999999999999999
 10
416.5510260621487
 20
186.7146312173699
 30
0.0
 10
416.5649979509764
 20
186.64723115987
 30
0.0
 10
416.6080505743292
 20
186.4395463346254
 30
0.0
 10
416.6968479730133
 20
186.286809737484
 30
0.0
 10
416.8422302290271
 20
186.1176352259822
 30
0.0
 10
417.0637690315356
 20
186.0451741103896
 30
0.0
 10
417.2291456060659
 20
186.0413741142052
 30
0.0
 10
417.4217743844667
 20
186.106932570151
 30
0.0
 10
417.5362846264432
 20
186.2039032341729
 30
0.0
 10
417.6471651259652
 20
186.3601539371406
 30
0.0
 10
417.7630014646684
 20
186.6791396762229
 30
0.0
 10
417.8884802337822
 20
187.2668528281231
 30
0.0
 10
418.000702655469
 20
188.0124102737756
 30
0.0
 10
418.0906893841617
 20
188.7690383540891
 30
0.0
 10
418.1396391082659
 20
189.1902272336322
 30
0.0
 10
418.1651347438274
 20
189.4096049394701
 30
0.0
  0
SPLINE
  5
194
330
1F
100
AcDbEntity
  8
0
  6
Continuous
 62
     7
370
    15
100
AcDbSpline
210
0.0
220
0.0
230
1.0
 70
     8
 71
     3
 72
     9
 73
     5
 74
     0
 42
0.00000001
 43
0.00000001
 40
0.0
 40
0.0
 40
0.0
 40
0.0
 40
0.5041798520450759
 40
1.0
 40
1.0
 40
1.0
 40
1.0
 10
417.2839098731456
 20
190.3027181428168
 30
0.0
 10
417.2573867637544
 20
190.1149196179228
 30
0.0
 10
417.2047803192809
 20
189.7424364174691
 30
0.0
 10
417.1611901232617
 20
189.3723947293748
 30
0.0
 10
417.139577225822
 20
189.1889206048344
 30
0.0
  0
SPLINE
  5
195
330
1F
100
AcDbEntity
  8
0
  6
Continuous
 62
     7
370
    15
100
AcDbSpline
210
0.0
220
0.0
230
1.0
 70
    24
 71
     1
 72
     4
 73
     2
 74
     0
 42
0.00000001
 43
0.00000001
 40
0.0
 40
0.0
 40
1.0
 40
1.0
 10
415.0925600091396
 20
189.4516886126493
 30
0.0
 10
415.055769042152
 20
189.1354720022772
 30
0.0
  0
SPLINE
  5
196
330
1F
100
AcDbEntity
  8
0
  6
Continuous
 62
     7
370
    15
100
AcDbSpline
210
0.0
220
0.0
230
1.0
 70
     8
 71
     3
 72
    21
 73
    17
 74
     0
 42
0.00000001
 43
0.00000001
 40
0.0
 40
0.0
 40
0.0
 40
0.0
 40
0.0550561456554432
 40
0.1417655570263001
 40
0.1799957720623125
 40
0.2151710335557186
 40
0.2487474654459459
 40
0.2770556355460073
 40
0.2971848423481925
 40
0.3171001109341026
 40
0.4596339696921238
 40
0.5705421683403745
 40
0.7055843537980243
 40
0.8649665149463281
 40
0.9525512325578563
 40
1.0
 40
1.0
 40
1.0
 40
1.0
 10
416.7083823243557
 20
192.2112216156219
 30
0.0
 10
416.6914393551153
 20
192.2884287666852
 30
0.0
 10
416.6478124458313
 20
192.4872315460406
 30
0.0
 10
416.5718569692668
 20
192.6191306935418
 30
0.0
 10
416.4478696625515
 20
192.7527471589151
 30
0.0
 10
416.3199069222753
 20
192.8327213970663
 30
0.0
 10
416.1464699278224
 20
192.8741285848521
 30
0.0
 10
415.9935497599196
 20
192.8585387523922
 30
0.0
 10
415.8733679894136
 20
192.8130160057531
 30
0.0
 10
415.6537442566981
 20
192.6739786274916
 30
0.0
 10
415.5870829909166
 20
192.4857216208035
 30
0.0
 10
415.4435057630604
 20
192.0098569312738
 30
0.0
 10
415.3265325369986
 20
191.3278798912283
 30
0.0
 10
415.216380684168
 20
190.5251636916587
 30
0.0
 10
415.1405229964034
 20
189.8629606054301
 30
0.0
 10
415.1050312746867
 20
189.5586269525373
 30
0.0
 10
415.0925600091396
 20
189.4516886126493
 30
0.0
  0
SPLINE
  5
197
330
1F
100
AcDbEntity
  8
0
  6
Continuous
 62
     7
370
    15
100
AcDbSpline
210
0.0
220
0.0
230
1.0
 70
    24
 71
     1
 72
     4
 73
     2
 74
     0
 42
0.00000001
 43
0.00000001
 40
0.0
 40
0.0
 40
1.0
 40
1.0
 10
413.0326383868633
 20
189.5965949546788
 30
0.0
 10
412.9783087531505
 20
189.136836389849
 30
0.0
  0
SPLINE
  5
198
330
1F
100
AcDbEntity
  8
0
  6
Continuous
 62
     7
370
    15
100
AcDbSpline
210
0.0
220
0.0
230
1.0
 70
     8
 71
     3
 72
    10
 73
     6
 74
     0
 42
0.00000001
 43
0.00000001
 40
0.0
 40
0.0
 40
0.0
 40
0.0
 40
0.0645490223135299
 40
0.5730634018054496
 40
0.9999999999999999
 40
0.9999999999999999
 40
0.9999999999999999
 40
0.9999999999999999
 10
414.9475419084011
 20
190.3533979233597
 30
0.0
 10
414.9430101437775
 20
190.3918398591916
 30
0.0
 10
414.9027773353118
 20
190.7331256870822
 30
0.0
 10
414.827169842643
 20
191.2840775860908
 30
0.0
 10
414.7564907848362
 20
191.6846190682447
 30
0.0
 10
414.7242331067501
 20
191.8674248185251
 30
0.0
  0
SPLINE
  5
199
330
1F
100
AcDbEntity
  8
0
  6
Continuous
 62
     7
370
    15
100
AcDbSpline
210
0.0
220
0.0
230
1.0
 70
     8
 71
     3
 72
    20
 73
    16
 74
     0
 42
0.00000001
 43
0.00000001
 40
0.0
 40
0.0
 40
0.0
 40
0.0
 40
0.0368976729452117
 40
0.120928609534999
 40
0.1944701282953765
 40
0.2592889679579131
 40
0.287546195701851
 40
0.3141086770616063
 40
0.37174822297591
 40
0.4767363712288593
 40
0.5968507551065525
 40
0.6875755080478463
 40
0.7976011470674225
 40
0.9240201791973783
 40
1.0
 40
1.0
 40
1.0
 40
1.0
 10
414.6702014962612
 20
192.1189890157674
 30
0.0
 10
414.6602210508877
 20
192.1676691762127
 30
0.0
 10
414.6275110915537
 20
192.3272137665542
 30
0.0
 10
414.5549166012005
 20
192.5165423862669
 30
0.0
 10
414.4146922771797
 20
192.7325093691135
 30
0.0
 10
414.2017218368274
 20
192.8575701795904
 30
0.0
 10
413.9892964239917
 20
192.8715691472268
 30
0.0
 10
413.7825661586088
 20
192.8204451730134
 30
0.0
 10
413.5893449594776
 20
192.6615745254809
 30
0.0
 10
413.4690404046429
 20
192.4157236027334
 30
0.0
 10
413.3674931865743
 20
192.0315755711506
 30
0.0
 10
413.2887413356826
 20
191.5433302610885
 30
0.0
 10
413.1927845526741
 20
190.915379347685
 30
0.0
 10
413.1067998308469
 20
190.229409319155
 30
0.0
 10
413.0528797837661
 20
189.7693133650696
 30
0.0
 10
413.0326383868633
 20
189.5965949546788
 30
0.0
  0
SPLINE
  5
19A
330
1F
100
AcDbEntity
  8
0
  6
Continuous
 62
     7
370
    15
100
AcDbSpline
210
0.0
220
0.0
230
1.0
 70
    24
 71
     1
 72
     4
 73
     2
 74
     0
 42
0.00000001
 43
0.00000001
 40
0.0
 40
0.0
 40
1.0
 40
1.0
 10
410.9662049571452
 20
189.6935018625353
 30
0.0
 10
410.9012656966624
 20
189.141679267237
 30
0.0
  0
SPLINE
  5
19B
330
1F
100
AcDbEntity
  8
0
  6
Continuous
 62
     7
370
    15
100
AcDbSpline
210
0.0
220
0.0
230
1.0
 70
     8
 71
     3
 72
    21
 73
    17
 74
     0
 42
0.00000001
 43
0.00000001
 40
0.0
 40
0.0
 40
0.0
 40
0.0
 40
0.0588573118198729
 40
0.1523884606138147
 40
0.2351578063737887
 40
0.3050205921511162
 40
0.4245899318157135
 40
0.4731233379137893
 40
0.5029842045178443
 40
0.5414181614172494
 40
0.5930530063486592
 40
0.7081657393944895
 40
0.7739563165629795
 40
0.8551773106701467
 40
0.9500334443342121
 40
1.0
 40
1.0
 40
1.0
 40
1.0
 10
412.9271530667721
 20
189.8692685093973
 30
0.0
 10
412.9054792188384
 20
190.0546534899056
 30
0.0
 10
412.849363092905
 20
190.5346368756069
 30
0.0
 10
412.7577613120085
 20
191.2172107117997
 30
0.0
 10
412.656624973993
 20
191.8211029513278
 30
0.0
 10
412.5620231276316
 20
192.3079335133295
 30
0.0
 10
412.4329591497593
 20
192.6537616075432
 30
0.0
 10
412.1408006101767
 20
192.8612412816074
 30
0.0
 10
411.8273342550449
 20
192.8704923770464
 30
0.0
 10
411.6277635516696
 20
192.7664526523332
 30
0.0
 10
411.415961225671
 20
192.5161223965273
 30
0.0
 10
411.312445281915
 20
192.1464011797599
 30
0.0
 10
411.2206429568208
 20
191.6153531459144
 30
0.0
 10
411.1236070876683
 20
190.986189100858
 30
0.0
 10
411.0376678901101
 20
190.3063080131446
 30
0.0
 10
410.9845363420126
 20
189.8506964378182
 30
0.0
 10
410.9662049571453
 20
189.6935018625353
 30
0.0
  0
SPLINE
  5
19C
330
1F
100
AcDbEntity
  8
0
  6
Continuous
 62
     7
370
    15
100
AcDbSpline
210
0.0
220
0.0
230
1.0
 70
    24
 71
     1
 72
     4
 73
     2
 74
     0
 42
0.00000001
 43
0.00000001
 40
0.0
 40
0.0
 40
1.0
 40
1.0
 10
412.9775487939297
 20
189.4457132470105
 30
0.0
 10
412.9271530667721
 20
189.8692685093973
 30
0.0
  0
SPLINE
  5
19D
330
1F
100
AcDbEntity
  8
0
  6
Continuous
 62
     7
370
    15
100
AcDbSpline
210
0.0
220
0.0
230
1.0
 70
    24
 71
     1
 72
     4
 73
     2
 74
     0
 42
0.00000001
 43
0.00000001
 40
0.0
 40
0.0
 40
1.0
 40
1.0
 10
408.8915609876094
 20
189.7199709814284
 30
0.0
 10
408.8245355645595
 20
189.1493142497037
 30
0.0
  0
SPLINE
  5
19E
330
1F
100
AcDbEntity
  8
0
  6
Continuous
 62
     7
370
    15
100
AcDbSpline
210
0.0
220
0.0
230
1.0
 70
     8
 71
     3
 72
    25
 73
    21
 74
     0
 42
0.00000001
 43
0.00000001
 40
0.0
 40
0.0
 40
0.0
 40
0.0
 40
0.0670704643477631
 40
0.1611595886468458
 40
0.2447201847600123
 40
0.3160152710430603
 40
0.3800594974896297
 40
0.4385304280784926
 40
0.4631265338173215
 40
0.4820467630645278
 40
0.5069098726041005
 40
0.5240438696546494
 40
0.5468289192587554
 40
0.6027919774136332
 40
0.6613288522584179
 40
0.7237507822761909
 40
0.7940506274402217
 40
0.8748163632676229
 40
0.9631875768713188
 40
1.0
 40
1.0
 40
1.0
 40
1.0
 10
410.8585440675197
 20
189.7933815520499
 30
0.0
 10
410.8337182391561
 20
190.0059680619197
 30
0.0
 10
410.7740657479171
 20
190.516779412574
 30
0.0
 10
410.6780096972913
 20
191.231760434337
 30
0.0
 10
410.5775999435782
 20
191.8369073665988
 30
0.0
 10
410.5004377023756
 20
192.2292489828312
 30
0.0
 10
410.3989496327898
 20
192.5242842697662
 30
0.0
 10
410.2534064958181
 20
192.7276362212187
 30
0.0
 10
410.0931377941569
 20
192.8236089271064
 30
0.0
 10
409.9716918490317
 20
192.8650383647962
 30
0.0
 10
409.806689934497
 20
192.8680342247542
 30
0.0
 10
409.683467175251
 20
192.8314598561575
 30
0.0
 10
409.5290117871149
 20
192.7483502807083
 30
0.0
 10
409.3788254703691
 20
192.5617551008073
 30
0.0
 10
409.2770613957705
 20
192.2954510410512
 30
0.0
 10
409.2050333785101
 20
191.9771737542641
 30
0.0
 10
409.1256226079417
 20
191.5088027074391
 30
0.0
 10
409.028722030678
 20
190.8621047768858
 30
0.0
 10
408.9513195883587
 20
190.2312671495608
 30
0.0
 10
408.9051406937963
 20
189.8361593066353
 30
0.0
 10
408.8915609876094
 20
189.7199709814284
 30
0.0
  0
SPLINE
  5
19F
330
1F
100
AcDbEntity
  8
0
  6
Continuous
 62
     7
370
    15
100
AcDbSpline
210
0.0
220
0.0
230
1.0
 70
    24
 71
     1
 72
     4
 73
     2
 74
     0
 42
0.00000001
 43
0.00000001
 40
0.0
 40
0.0
 40
1.0
 40
1.0
 10
410.9002822200237
 20
189.4427786495779
 30
0.0
 10
410.8585440675197
 20
189.7933815520499
 30
0.0
  0
SPLINE
  5
1A0
330
1F
100
AcDbEntity
  8
0
  6
Continuous
 62
     7
370
    15
100
AcDbSpline
210
0.0
220
0.0
230
1.0
 70
     8
 71
     3
 72
    23
 73
    19
 74
     0
 42
0.00000001
 43
0.00000001
 40
0.0
 40
0.0
 40
0.0
 40
0.0
 40
0.0685859212071039
 40
0.1505660678916213
 40
0.2235597830300455
 40
0.2860026384797971
 40
0.3965691479079712
 40
0.4439071026662998
 40
0.4617668407665283
 40
0.4757724972905809
 40
0.4912442593844792
 40
0.5124457105258331
 40
0.565109298599896
 40
0.6778116003090646
 40
0.7439094819303105
 40
0.8208019322778652
 40
0.9058354891375168
 40
1.0
 40
1.0
 40
1.0
 40
1.0
 10
408.7950759688793
 20
189.6735659715031
 30
0.0
 10
408.7676919229128
 20
189.9069057243481
 30
0.0
 10
408.7075759683326
 20
190.4191544256901
 30
0.0
 10
408.6131058867273
 20
191.1304970553867
 30
0.0
 10
408.5185905142831
 20
191.7201272137773
 30
0.0
 10
408.424919882171
 20
192.2306163138265
 30
0.0
 10
408.3091189465064
 20
192.5959186834218
 30
0.0
 10
408.0724979461776
 20
192.8038141616022
 30
0.0
 10
407.916169799981
 20
192.8577702207836
 30
0.0
 10
407.7858050402673
 20
192.870342300943
 30
0.0
 10
407.655210032795
 20
192.8506695171158
 30
0.0
 10
407.4835814495611
 20
192.7777480791669
 30
0.0
 10
407.2451403698185
 20
192.5122516264558
 30
0.0
 10
407.1611422926158
 20
192.1523826166584
 30
0.0
 10
407.0560385987869
 20
191.571634673634
 30
0.0
 10
406.9579767215502
 20
190.9210105422889
 30
0.0
 10
406.8550235726664
 20
190.0816411101484
 30
0.0
 10
406.7843967051356
 20
189.4725071764668
 30
0.0
 10
406.7472838918148
 20
189.1524211418126
 30
0.0
  0
SPLINE
  5
1A1
330
1F
100
AcDbEntity
  8
0
  6
Continuous
 62
     7
370
    15
100
AcDbSpline
210
0.0
220
0.0
230
1.0
 70
    24
 71
     1
 72
     4
 73
     2
 74
     0
 42
0.00000001
 43
0.00000001
 40
0.0
 40
0.0
 40
1.0
 40
1.0
 10
408.8224643031536
 20
189.4445388492439
 30
0.0
 10
408.7950759688793
 20
189.6735659715031
 30
0.0
  0
SPLINE
  5
1A2
330
1F
100
AcDbEntity
  8
0
  6
Continuous
 62
     7
370
    15
100
AcDbSpline
210
0.0
220
0.0
230
1.0
 70
    24
 71
     1
 72
     4
 73
     2
 74
     0
 42
0.00000001
 43
0.00000001
 40
0.0
 40
0.0
 40
1.0
 40
1.0
 10
406.7441397468029
 20
189.4506986167524
 30
0.0
 10
406.6821360150753
 20
189.969710717747
 30
0.0
  0
SPLINE
  5
1A3
330
1F
100
AcDbEntity
  8
0
  6
Continuous
 62
     7
370
    15
100
AcDbSpline
210
0.0
220
0.0
230
1.0
 70
     8
 71
     3
 72
    22
 73
    18
 74
     0
 42
0.00000001
 43
0.00000001
 40
0.0
 40
0.0
 40
0.0
 40
0.0
 40
0.0798844486502765
 40
0.1561429970741763
 40
0.2228288777523077
 40
0.3386771660581713
 40
0.3880626541125131
 40
0.4096984022361062
 40
0.43017867681349
 40
0.4515404413436885
 40
0.4750114594859292
 40
0.5265007091825897
 40
0.6440641697070638
 40
0.7159195716319972
 40
0.8004576688899021
 40
0.8949290897608354
 40
1.0
 40
1.0
 40
1.0
 40
1.0
 10
406.6358679095684
 20
190.3533979233597
 30
0.0
 10
406.604985288929
 20
190.5958396740672
 30
0.0
 10
406.5446217885778
 20
191.0697189110273
 30
0.0
 10
406.4543747232683
 20
191.6429281995355
 30
0.0
 10
406.3631153303484
 20
192.1683719525435
 30
0.0
 10
406.2575991833277
 20
192.5206998829839
 30
0.0
 10
406.0914472777575
 20
192.7338597401735
 30
0.0
 10
405.9345821961667
 20
192.8294587259588
 30
0.0
 10
405.7759249260908
 20
192.8718157368158
 30
0.0
 10
405.6098593922358
 20
192.8613928843683
 30
0.0
 10
405.4170358148749
 20
192.7872752464294
 30
0.0
 10
405.1777784499482
 20
192.5329505395709
 30
0.0
 10
405.0979607771666
 20
192.2075187725784
 30
0.0
 10
404.9908285270685
 20
191.6455672959331
 30
0.0
 10
404.8897699898938
 20
190.9895242643714
 30
0.0
 10
404.7821284095544
 20
190.1250148382984
 30
0.0
 10
404.7088344605298
 20
189.4911230582032
 30
0.0
 10
404.6702408353267
 20
189.1573413189743
 30
0.0
  0
SPLINE
  5
1A4
330
1F
100
AcDbEntity
  8
0
  6
Continuous
 62
     7
370
    15
100
AcDbSpline
210
0.0
220
0.0
230
1.0
 70
     8
 71
     3
 72
    10
 73
     6
 74
     0
 42
0.00000001
 43
0.00000001
 40
0.0
 40
0.0
 40
0.0
 40
0.0
 40
0.2623443649537559
 40
0.6298738810446951
 40
1.0
 40
1.0
 40
1.0
 40
1.0
 10
404.560255364555
 20
190.3533979233597
 30
0.0
 10
404.5399878673883
 20
190.5234477836825
 30
0.0
 10
404.4913267608246
 20
190.931727814822
 30
0.0
 10
404.4071690493821
 20
191.5109421553196
 30
0.0
 10
404.3441162374771
 20
191.8418950218162
 30
0.0
 10
404.3124788562237
 20
192.007953944454
 30
0.0
  0
SPLINE
  5
1A5
330
1F
100
AcDbEntity
  8
0
  6
Continuous
 62
     7
370
    15
100
AcDbSpline
210
0.0
220
0.0
230
1.0
 70
     8
 71
     3
 72
    10
 73
     6
 74
     0
 42
0.00000001
 43
0.00000001
 40
0.0
 40
0.0
 40
0.0
 40
0.0
 40
0.3669682835350944
 40
0.7434759024751671
 40
0.9999999999999999
 40
0.9999999999999999
 40
0.9999999999999999
 40
0.9999999999999999
 10
403.374450759071
 20
191.7210292916988
 30
0.0
 10
403.3956850691009
 20
191.5945309004235
 30
0.0
 10
403.4387056747531
 20
191.3382457939586
 30
0.0
 10
403.5043827003256
 20
190.8561148196916
 30
0.0
 10
403.5454354367856
 20
190.4983680265437
 30
0.0
 10
403.5620712796627
 20
190.3533979233597
 30
0.0
  0
SPLINE
  5
1A6
330
1F
100
AcDbEntity
  8
0
  6
Continuous
 62
     7
370
    15
100
AcDbSpline
210
0.0
220
0.0
230
1.0
 70
    24
 71
     1
 72
     4
 73
     2
 74
     0
 42
0.00000001
 43
0.00000001
 40
0.0
 40
0.0
 40
1.0
 40
1.0
 10
405.7050221721111
 20
189.4576919179652
 30
0.0
 10
405.7226800481258
 20
189.6150034766887
 30
0.0
  0
SPLINE
  5
1A7
330
1F
100
AcDbEntity
  8
0
  6
Continuous
 62
     7
370
    15
100
AcDbSpline
210
0.0
220
0.0
230
1.0
 70
    24
 71
     1
 72
     4
 73
     2
 74
     0
 42
0.00000001
 43
0.00000001
 40
0.0
 40
0.0
 40
1.0
 40
1.0
 10
407.8017645636974
 20
189.6282478150223
 30
0.0
 10
407.8224622765957
 20
189.4445388492439
 30
0.0
  0
SPLINE
  5
1A8
330
1F
100
AcDbEntity
  8
0
  6
Continuous
 62
     7
370
    15
100
AcDbSpline
210
0.0
220
0.0
230
1.0
 70
    24
 71
     1
 72
     4
 73
     2
 74
     0
 42
0.00000001
 43
0.00000001
 40
0.0
 40
0.0
 40
1.0
 40
1.0
 10
407.7818119088588
 20
189.4506352868174
 30
0.0
 10
407.7971601048885
 20
189.5873329516743
 30
0.0
  0
SPLINE
  5
1A9
330
1F
100
AcDbEntity
  8
0
  6
Continuous
 62
     7
370
    15
100
AcDbSpline
210
0.0
220
0.0
230
1.0
 70
    24
 71
     1
 72
     4
 73
     2
 74
     0
 42
0.00000001
 43
0.00000001
 40
0.0
 40
0.0
 40
1.0
 40
1.0
 10
409.8795675794063
 20
189.6256904032324
 30
0.0
 10
409.9002801934658
 20
189.4427786495779
 30
0.0
  0
SPLINE
  5
1AA
330
1F
100
AcDbEntity
  8
0
  6
Continuous
 62
     7
370
    15
100
AcDbSpline
210
0.0
220
0.0
230
1.0
 70
    24
 71
     1
 72
     4
 73
     2
 74
     0
 42
0.00000001
 43
0.00000001
 40
0.0
 40
0.0
 40
1.0
 40
1.0
 10
411.9620048562466
 20
189.5830591123794
 30
0.0
 10
411.9775467673717
 20
189.4457141783331
 30
0.0
  0
SPLINE
  5
1AB
330
1F
100
AcDbEntity
  8
0
  6
Continuous
 62
     7
370
    15
100
AcDbSpline
210
0.0
220
0.0
230
1.0
 70
    24
 71
     1
 72
     4
 73
     2
 74
     0
 42
0.00000001
 43
0.00000001
 40
0.0
 40
0.0
 40
1.0
 40
1.0
 10
414.0361719886242
 20
189.6128167312835
 30
0.0
 10
414.0545004168926
 20
189.4514576446508
 30
0.0
  0
SPLINE
  5
1AC
330
1F
100
AcDbEntity
  8
0
  6
Continuous
 62
     7
370
    15
100
AcDbSpline
210
0.0
220
0.0
230
1.0
 70
     8
 71
     3
 72
     9
 73
     5
 74
     0
 42
0.00000001
 43
0.00000001
 40
0.0
 40
0.0
 40
0.0
 40
0.0
 40
0.4172320282011911
 40
1.0
 40
1.0
 40
1.0
 40
1.0
 10
418.1791269341884
 20
189.5410834726189
 30
0.0
 10
418.19013821238
 20
189.6397836504601
 30
0.0
 10
418.2165294705947
 20
189.8763430974103
 30
0.0
 10
418.2322326662016
 20
190.0951434403284
 30
0.0
 10
418.2413839856563
 20
190.2226532723997
 30
0.0
  0
SPLINE
  5
1AD
330
1F
100
AcDbEntity
  8
0
  6
Continuous
 62
     7
370
    15
100
AcDbSpline
210
0.0
220
0.0
230
1.0
 70
    24
 71
     1
 72
     4
 73
     2
 74
     0
 42
0.00000001
 43
0.00000001
 40
0.0
 40
0.0
 40
1.0
 40
1.0
 10
418.1651347438274
 20
189.4096040081475
 30
0.0
 10
418.1791269341884
 20
189.5410834726189
 30
0.0
  0
SPLINE
  5
1AE
330
1F
100
AcDbEntity
  8
0
  6
Continuous
 62
     7
370
    15
100
AcDbSpline
210
0.0
220
0.0
230
1.0
 70
    24
 71
     1
 72
     4
 73
     2
 74
     0
 42
0.00000001
 43
0.00000001
 40
0.0
 40
0.0
 40
1.0
 40
1.0
 10
417.1651327172694
 20
189.4096040081475
 30
0.0
 10
417.1509468118129
 20
189.2835979264472
 30
0.0
  0
SPLINE
  5
1AF
330
1F
100
AcDbEntity
  8
0
  6
Continuous
 62
     7
370
    15
100
AcDbSpline
210
0.0
220
0.0
230
1.0
 70
    24
 71
     1
 72
     4
 73
     2
 74
     0
 42
0.00000001
 43
0.00000001
 40
0.0
 40
0.0
 40
1.0
 40
1.0
 10
410.9366857568202
 20
189.4475246694182
 30
0.0
 10
410.9159731427608
 20
189.2613756384943
 30
0.0
  0
SPLINE
  5
1B0
330
1F
100
AcDbEntity
  8
0
  6
Continuous
 62
     7
370
    15
100
AcDbSpline
210
0.0
220
0.0
230
1.0
 70
    24
 71
     1
 72
     4
 73
     2
 74
     0
 42
0.00000001
 43
0.00000001
 40
0.0
 40
0.0
 40
1.0
 40
1.0
 10
408.8591956654964
 20
189.4486552950237
 30
0.0
 10
408.836873726028
 20
189.2466700550411
 30
0.0
  0
SPLINE
  5
1B1
330
1F
100
AcDbEntity
  8
0
  6
Continuous
 62
     7
370
    15
100
AcDbSpline
210
0.0
220
0.0
230
1.0
 70
    24
 71
     1
 72
     4
 73
     2
 74
     0
 42
0.00000001
 43
0.00000001
 40
0.0
 40
0.0
 40
1.0
 40
1.0
 10
406.7628407041012
 20
189.2852938648556
 30
0.0
 10
406.7441397468029
 20
189.4506986167524
 30
0.0
  0
SPLINE
  5
1B2
330
1F
100
AcDbEntity
  8
0
  6
Continuous
 62
     7
370
    15
100
AcDbSpline
210
0.0
220
0.0
230
1.0
 70
    24
 71
     1
 72
     4
 73
     2
 74
     0
 42
0.00000001
 43
0.00000001
 40
0.0
 40
0.0
 40
1.0
 40
1.0
 10
406.7818098823009
 20
189.4506352868174
 30
0.0
 10
406.7678176919399
 20
189.3210082229469
 30
0.0
  0
SPLINE
  5
1B3
330
1F
100
AcDbEntity
  8
0
  6
Continuous
 62
     7
370
    15
100
AcDbSpline
210
0.0
220
0.0
230
1.0
 70
     8
 71
     3
 72
     9
 73
     5
 74
     0
 42
0.00000001
 43
0.00000001
 40
0.0
 40
0.0
 40
0.0
 40
0.0
 40
0.4148081215674997
 40
1.0
 40
1.0
 40
1.0
 40
1.0
 10
417.2742986241756
 20
191.459255005071
 30
0.0
 10
417.2847820913853
 20
191.3032953103894
 30
0.0
 10
417.3100551433449
 20
190.9273149797917
 30
0.0
 10
417.2821028264693
 20
190.517296678003
 30
0.0
 10
417.2657453576503
 20
190.2773572977875
 30
0.0
  0
SPLINE
  5
1B4
330
1F
100
AcDbEntity
  8
0
  6
Continuous
 62
     7
370
    15
100
AcDbSpline
210
0.0
220
0.0
230
1.0
 70
     8
 71
     3
 72
    12
 73
     8
 74
     0
 42
0.00000001
 43
0.00000001
 40
0.0
 40
0.0
 40
0.0
 40
0.0
 40
0.0929349083792237
 40
0.1843262860212597
 40
0.3764866522229849
 40
0.830263581948131
 40
0.9999999999999999
 40
0.9999999999999999
 40
0.9999999999999999
 40
0.9999999999999999
 10
417.1820604363857
 20
192.9570303213094
 30
0.0
 10
417.1824685423559
 20
192.9121368504883
 30
0.0
 10
417.1832779761748
 20
192.8230955323509
 30
0.0
 10
417.1918560594688
 20
192.6221840872332
 30
0.0
 10
417.2186174563575
 20
192.2242276972049
 30
0.0
 10
417.259049920144
 20
191.8284071000994
 30
0.0
 10
417.2710357673633
 20
191.5382446966229
 30
0.0
 10
417.2742986241756
 20
191.459255005071
 30
0.0
  0
SPLINE
  5
1B5
330
1F
100
AcDbEntity
  8
0
  6
Continuous
 62
     7
370
    15
100
AcDbSpline
210
0.0
220
0.0
230
1.0
 70
     8
 71
     3
 72
    12
 73
     8
 74
     0
 42
0.00000001
 43
0.00000001
 40
0.0
 40
0.0
 40
0.0
 40
0.0
 40
0.2591112005426032
 40
0.534564248465217
 40
0.7852834693350361
 40
0.8950912380836542
 40
1.0
 40
1.0
 40
1.0
 40
1.0
 10
418.2607256928859
 20
190.2490292590354
 30
0.0
 10
418.2750643644267
 20
190.480692435052
 30
0.0
 10
418.3046460311404
 20
190.9586295189182
 30
0.0
 10
418.2611975082402
 20
191.6255591991612
 30
0.0
 10
418.2164918041479
 20
192.2051817154747
 30
0.0
 10
418.1870447793967
 20
192.665713608606
 30
0.0
 10
418.1837978822605
 20
192.862549908694
 30
0.0
 10
418.1822114745556
 20
192.9587225344275
 30
0.0
  0
SPLINE
  5
1B6
330
1F
100
AcDbEntity
  8
0
  6
Continuous
 62
     7
370
    15
100
AcDbSpline
210
0.0
220
0.0
230
1.0
 70
     8
 71
     3
 72
     9
 73
     5
 74
     0
 42
0.00000001
 43
0.00000001
 40
0.0
 40
0.0
 40
0.0
 40
0.0
 40
0.5066766504037791
 40
1.0
 40
1.0
 40
1.0
 40
1.0
 10
402.3292758623538
 20
192.6813150670622
 30
0.0
 10
402.3060926392542
 20
192.714066271579
 30
0.0
 10
402.260337179473
 20
192.7787055331095
 30
0.0
 10
402.2532913114846
 20
192.9023212102583
 30
0.0
 10
402.2498154202876
 20
192.963303710172
 30
0.0
  0
SPLINE
  5
1B7
330
1F
100
AcDbEntity
  8
0
  6
Continuous
 62
     7
370
    15
100
AcDbSpline
210
0.0
220
0.0
230
1.0
 70
     8
 71
     3
 72
    13
 73
     9
 74
     0
 42
0.00000001
 43
0.00000001
 40
0.0
 40
0.0
 40
0.0
 40
0.0
 40
0.1187745151846162
 40
0.2864485019122109
 40
0.4255618190796298
 40
0.5932147505353463
 40
0.8153415113018008
 40
1.0
 40
1.0
 40
1.0
 40
1.0
 10
401.4397510448871
 20
192.4620677631591
 30
0.0
 10
401.4947940164327
 20
192.4119502792801
 30
0.0
 10
401.6275411525968
 20
192.2910819418727
 30
0.0
 10
401.8475970844925
 20
192.18385105734
 30
0.0
 10
402.0857774555323
 20
192.0985475963456
 30
0.0
 10
402.3198637169774
 20
192.0394252700143
 30
0.0
 10
402.5588700960545
 20
191.9982290173461
 30
0.0
 10
402.6855930146203
 20
191.9788832163983
 30
0.0
 10
402.74311836161
 20
191.9701012697313
 30
0.0
  0
SPLINE
  5
1B8
330
1F
100
AcDbEntity
  8
0
  6
Continuous
 62
     7
370
    15
100
AcDbSpline
210
0.0
220
0.0
230
1.0
 70
     8
 71
     3
 72
     9
 73
     5
 74
     0
 42
0.00000001
 43
0.00000001
 40
0.0
 40
0.0
 40
0.0
 40
0.0
 40
0.4078151954325084
 40
0.9999999999999999
 40
0.9999999999999999
 40
0.9999999999999999
 40
0.9999999999999999
 10
403.1821363727032
 20
191.8943400409315
 30
0.0
 10
403.2259164570242
 20
191.8840883311542
 30
0.0
 10
403.3332692109465
 20
191.85895020513
 30
0.0
 10
403.3477909804617
 20
191.8032934969675
 30
0.0
 10
403.356390551704
 20
191.7703344401215
 30
0.0
  0
SPLINE
  5
1B9
330
1F
100
AcDbEntity
  8
0
  6
Continuous
 62
     7
370
    15
100
AcDbSpline
210
0.0
220
0.0
230
1.0
 70
     8
 71
     3
 72
    12
 73
     8
 74
     0
 42
0.00000001
 43
0.00000001
 40
0.0
 40
0.0
 40
0.0
 40
0.0
 40
0.0997524326337796
 40
0.1865919413277343
 40
0.3281313539062518
 40
0.5039371029576087
 40
1.0
 40
1.0
 40
1.0
 40
1.0
 10
404.3308966914593
 20
191.9568047773336
 30
0.0
 10
404.3139122736762
 20
192.0133839271476
 30
0.0
 10
404.2821420661455
 20
192.1192180719771
 30
0.0
 10
404.1807415317457
 20
192.2757793510498
 30
0.0
 10
404.0161416801429
 20
192.4251852226184
 30
0.0
 10
403.6471374613253
 20
192.5886602103403
 30
0.0
 10
403.3796392045304
 20
192.5922055199379
 30
0.0
 10
403.1821363727032
 20
192.5948231395577
 30
0.0
  0
SPLINE
  5
1BA
330
1F
100
AcDbEntity
  8
0
  6
Continuous
 62
     7
370
    15
100
AcDbSpline
210
0.0
220
0.0
230
1.0
 70
     8
 71
     3
 72
     9
 73
     5
 74
     0
 42
0.00000001
 43
0.00000001
 40
0.0
 40
0.0
 40
0.0
 40
0.0
 40
0.1671286994088176
 40
1.0
 40
1.0
 40
1.0
 40
1.0
 10
402.5496267835079
 20
192.6111007955168
 30
0.0
 10
402.5324004184995
 20
192.6111460978425
 30
0.0
 10
402.4293279655374
 20
192.6114171603583
 30
0.0
 10
402.3823377769627
 20
192.6414320933755
 30
0.0
 10
402.3432009974895
 20
192.6664306696747
 30
0.0
  0
SPLINE
  5
1BB
330
1F
100
AcDbEntity
  8
0
  6
Continuous
 62
     7
370
    15
100
AcDbSpline
210
0.0
220
0.0
230
1.0
 70
     8
 71
     3
 72
    11
 73
     7
 74
     0
 42
0.00000001
 43
0.00000001
 40
0.0
 40
0.0
 40
0.0
 40
0.0
 40
0.2609899340089594
 40
0.5064121727453077
 40
0.7492005613663886
 40
1.0
 40
1.0
 40
1.0
 40
1.0
 10
401.2499996582447
 20
192.9524491455649
 30
0.0
 10
401.2527262384641
 20
192.902990214275
 30
0.0
 10
401.258016762094
 20
192.8070225098066
 30
0.0
 10
401.2982605218799
 20
192.6745193797423
 30
0.0
 10
401.3584215402617
 20
192.5576033203781
 30
0.0
 10
401.412349455635
 20
192.4942556648308
 30
0.0
 10
401.4397510448871
 20
192.4620677631591
 30
0.0
  0
SPLINE
  5
1BC
330
1F
100
AcDbEntity
  8
0
  6
Continuous
 62
     7
370
    15
100
AcDbSpline
210
0.0
220
0.0
230
1.0
 70
     8
 71
     3
 72
    17
 73
    13
 74
     0
 42
0.00000001
 43
0.00000001
 40
0.0
 40
0.0
 40
0.0
 40
0.0
 40
0.2001802257269273
 40
0.3640632812892173
 40
0.4924060114503322
 40
0.54778044896782
 40
0.5992019894086993
 40
0.6791786233086001
 40
0.7319270441078418
 40
0.8150431157949197
 40
0.9428974065247192
 40
1.0
 40
1.0
 40
1.0
 40
1.0
 10
403.6919348994675
 20
186.4376009356473
 30
0.0
 10
403.7225651049827
 20
186.3256317310522
 30
0.0
 10
403.7782715719222
 20
186.1219958530318
 30
0.0
 10
403.8671702110287
 20
185.9414368381862
 30
0.0
 10
403.9851873827266
 20
185.8126213781703
 30
0.0
 10
404.1313239666118
 20
185.7374767801541
 30
0.0
 10
404.2902682397328
 20
185.7010949714218
 30
0.0
 10
404.4516560185204
 20
185.7176612677873
 30
0.0
 10
404.616832176516
 20
185.7947131073008
 30
0.0
 10
404.698671791848
 20
185.8697724402379
 30
0.0
 10
404.7697540842744
 20
185.9539281589594
 30
0.0
 10
404.803385605118
 20
186.0395245156138
 30
0.0
 10
404.8137688199464
 20
186.0659510743116
 30
0.0
  0
SPLINE
  5
1BD
330
1F
100
AcDbEntity
  8
0
  6
Continuous
 62
     7
370
    15
100
AcDbSpline
210
0.0
220
0.0
230
1.0
 70
     8
 71
     3
 72
    16
 73
    12
 74
     0
 42
0.00000001
 43
0.00000001
 40
0.0
 40
0.0
 40
0.0
 40
0.0
 40
0.0638529339161795
 40
0.4197733063273426
 40
0.5602711739545019
 40
0.6099571756966082
 40
0.6449580707515288
 40
0.6809791861291782
 40
0.7338862538668943
 40
0.8879998327290856
 40
1.0
 40
1.0
 40
1.0
 40
1.0
 10
405.7462685862961
 20
186.507812413225
 30
0.0
 10
405.7542382041024
 20
186.467976020697
 30
0.0
 10
405.8066309856321
 20
186.2060890066156
 30
0.0
 10
405.8898860793616
 20
185.9565251848044
 30
0.0
 10
406.1571627380195
 20
185.7544056454336
 30
0.0
 10
406.2962975203863
 20
185.7161357230476
 30
0.0
 10
406.3944048459953
 20
185.7075615015774
 30
0.0
 10
406.4928774436078
 20
185.7164171230382
 30
0.0
 10
406.6354475427486
 20
185.7584477170778
 30
0.0
 10
406.7988073636529
 20
185.8624453412079
 30
0.0
 10
406.8438223047899
 20
186.0020412294442
 30
0.0
 10
406.8627678910676
 20
186.0607934098933
 30
0.0
  0
SPLINE
  5
1BE
330
1F
100
AcDbEntity
  8
0
  6
Continuous
 62
     7
370
    15
100
AcDbSpline
210
0.0
220
0.0
230
1.0
 70
     8
 71
     3
 72
    16
 73
    12
 74
     0
 42
0.00000001
 43
0.00000001
 40
0.0
 40
0.0
 40
0.0
 40
0.0
 40
0.0510893688045791
 40
0.4166729433180207
 40
0.5669255345353492
 40
0.6189548624225272
 40
0.6543955185969071
 40
0.6888926338029185
 40
0.737737989388824
 40
0.8764185405135573
 40
1.0
 40
1.0
 40
1.0
 40
1.0
 10
407.8126573125306
 20
186.5516525607799
 30
0.0
 10
407.8190563517634
 20
186.5179183135364
 30
0.0
 10
407.8712454191545
 20
186.2427896826989
 30
0.0
 10
407.9593853833139
 20
185.9716686492394
 30
0.0
 10
408.2275775548412
 20
185.757438434609
 30
0.0
 10
408.3711785298221
 20
185.7165595773296
 30
0.0
 10
408.4695665837782
 20
185.7075521371002
 30
0.0
 10
408.5678980285429
 20
185.716044072954
 30
0.0
 10
408.7066891307459
 20
185.7553643342228
 30
0.0
 10
408.8764740277845
 20
185.8626349051798
 30
0.0
 10
408.9205579273703
 20
185.9970190133151
 30
0.0
 10
408.9413308659974
 20
186.0603426497672
 30
0.0
  0
SPLINE
  5
1BF
330
1F
100
AcDbEntity
  8
0
  6
Continuous
 62
     7
370
    15
100
AcDbSpline
210
0.0
220
0.0
230
1.0
 70
     8
 71
     3
 72
    15
 73
    11
 74
     0
 42
0.00000001
 43
0.00000001
 40
0.0
 40
0.0
 40
0.0
 40
0.0
 40
0.0105200400053104
 40
0.3454119091765402
 40
0.4908843077711244
 40
0.6095750460535615
 40
0.6596503008668384
 40
0.7144762571294709
 40
0.8550004547996506
 40
1.0
 40
1.0
 40
1.0
 40
1.0
 10
409.8812961141053
 20
186.5910698574279
 30
0.0
 10
409.8826193066064
 20
186.5835319433546
 30
0.0
 10
409.9260646212444
 20
186.3360342827031
 30
0.0
 10
410.0016457774952
 20
186.0974812433916
 30
0.0
 10
410.1748327404705
 20
185.8473026787224
 30
0.0
 10
410.335848985415
 20
185.7386073767485
 30
0.0
 10
410.5321228008035
 20
185.7040147868882
 30
0.0
 10
410.7325113228018
 20
185.7255869162134
 30
0.0
 10
410.9377829742907
 20
185.8393096817185
 30
0.0
 10
410.9885825187312
 20
185.9850733003431
 30
0.0
 10
411.0143804112855
 20
186.059097471485
 30
0.0
  0
SPLINE
  5
1C0
330
1F
100
AcDbEntity
  8
0
  6
Continuous
 62
     7
370
    15
100
AcDbSpline
210
0.0
220
0.0
230
1.0
 70
     8
 71
     3
 72
    16
 73
    12
 74
     0
 42
0.00000001
 43
0.00000001
 40
0.0
 40
0.0
 40
0.0
 40
0.0
 40
0.0231430937081838
 40
0.337801408102776
 40
0.4687120519152932
 40
0.5313911663842318
 40
0.5958919024015104
 40
0.6642434149035853
 40
0.7367256963301811
 40
0.8905251234656957
 40
1.0
 40
1.0
 40
1.0
 40
1.0
 10
411.9512015143815
 20
186.6276782851909
 30
0.0
 10
411.9541382175918
 20
186.6107463338538
 30
0.0
 10
411.9970029483021
 20
186.363604051334
 30
0.0
 10
412.0730577626401
 20
186.1309839058966
 30
0.0
 10
412.1844461975529
 20
185.9274325648922
 30
0.0
 10
412.3000792244595
 20
185.8151887063543
 30
0.0
 10
412.4257879307642
 20
185.7399223623759
 30
0.0
 10
412.608331383762
 20
185.6990187939641
 30
0.0
 10
412.8501720520453
 20
185.7362528197775
 30
0.0
 10
413.0435366458853
 20
185.8699578203796
 30
0.0
 10
413.0848424072726
 20
186.0035236078662
 30
0.0
 10
413.1020181933823
 20
186.0590630125497
 30
0.0
  0
SPLINE
  5
1C1
330
1F
100
AcDbEntity
  8
0
  6
Continuous
 62
     7
370
    15
100
AcDbSpline
210
0.0
220
0.0
230
1.0
 70
     8
 71
     3
 72
    16
 73
    12
 74
     0
 42
0.00000001
 43
0.00000001
 40
0.0
 40
0.0
 40
0.0
 40
0.0
 40
0.1729386220314427
 40
0.345755965899718
 40
0.4264589969406006
 40
0.5073549771970713
 40
0.5910828383975323
 40
0.6756135579377474
 40
0.7587647429177339
 40
0.843509143723362
 40
0.9999999999999999
 40
0.9999999999999999
 40
0.9999999999999999
 40
0.9999999999999999
 10
414.1177707473222
 20
186.3200484689568
 30
0.0
 10
414.1393424900713
 20
186.2334329786478
 30
0.0
 10
414.1824708477668
 20
186.0602627396239
 30
0.0
 10
414.2585161019636
 20
185.9344227553467
 30
0.0
 10
414.3755686903258
 20
185.8165834200964
 30
0.0
 10
414.502073787381
 20
185.7404740574472
 30
0.0
 10
414.682093911231
 20
185.69964215563
 30
0.0
 10
414.8579746411385
 20
185.7238770202795
 30
0.0
 10
414.9976690081862
 20
185.7922091955363
 30
0.0
 10
415.1337799871748
 20
185.9028157704873
 30
0.0
 10
415.1624377371795
 20
185.9996556559005
 30
0.0
 10
415.1810282031479
 20
186.0624763097857
 30
0.0
  0
SPLINE
  5
1C2
330
1F
100
AcDbEntity
  8
0
  6
Continuous
 62
     7
370
    15
100
AcDbSpline
210
0.0
220
0.0
230
1.0
 70
     8
 71
     3
 72
    16
 73
    12
 74
     0
 42
0.00000001
 43
0.00000001
 40
0.0
 40
0.0
 40
0.0
 40
0.0
 40
0.1607359438664823
 40
0.3450666089641543
 40
0.4292623972337616
 40
0.5115072040470333
 40
0.5944536192077494
 40
0.6737760754548076
 40
0.7458259777835833
 40
0.8189136703836108
 40
0.9999999999999999
 40
0.9999999999999999
 40
0.9999999999999999
 40
0.9999999999999999
 10
416.1907606879655
 20
186.3383545454834
 30
0.0
 10
416.2110580467149
 20
186.2534559042776
 30
0.0
 10
416.2546322503815
 20
186.0711961960764
 30
0.0
 10
416.3305041874249
 20
185.9423097612748
 30
0.0
 10
416.4503023441237
 20
185.8186612304017
 30
0.0
 10
416.5778563415812
 20
185.7411061950311
 30
0.0
 10
416.7559973481274
 20
185.7001930278383
 30
0.0
 10
416.9258400649807
 20
185.7218624538068
 30
0.0
 10
417.0622163103683
 20
185.7841266006099
 30
0.0
 10
417.2080854515665
 20
185.8960578118553
 30
0.0
 10
417.2374404252287
 20
185.993209411632
 30
0.0
 10
417.2583543816987
 20
186.0624250870441
 30
0.0
  0
SPLINE
  5
1C3
330
1F
100
AcDbEntity
  8
0
  6
Continuous
 62
     7
370
    15
100
AcDbSpline
210
0.0
220
0.0
230
1.0
 70
     8
 71
     3
 72
     9
 73
     5
 74
     0
 42
0.00000001
 43
0.00000001
 40
0.0
 40
0.0
 40
0.0
 40
0.0
 40
0.3967005359592276
 40
1.0
 40
1.0
 40
1.0
 40
1.0
 10
417.2370457211915
 20
191.9772780414913
 30
0.0
 10
417.216086545643
 20
191.9054681152396
 30
0.0
 10
417.1632527991553
 20
191.7244501438921
 30
0.0
 10
417.1126574165993
 20
191.409022466442
 30
0.0
 10
417.0821332494202
 20
191.2187251176928
 30
0.0
  0
SPLINE
  5
1C4
330
1F
100
AcDbEntity
  8
0
  6
Continuous
 62
     7
370
    15
100
AcDbSpline
210
0.0
220
0.0
230
1.0
 70
     8
 71
     3
 72
    13
 73
     9
 74
     0
 42
0.00000001
 43
0.00000001
 40
0.0
 40
0.0
 40
0.0
 40
0.0
 40
0.0080781362580437
 40
0.1459257988872284
 40
0.4880942782935923
 40
0.6888077513115565
 40
0.9182308526686577
 40
1.0
 40
1.0
 40
1.0
 40
1.0
 10
415.63326354422
 20
192.5155918028448
 30
0.0
 10
415.6265036964839
 20
192.5152128000424
 30
0.0
 10
415.5043918442277
 20
192.5083663833751
 30
0.0
 10
415.2738343744373
 20
192.2982788042137
 30
0.0
 10
415.1342083036586
 20
191.9651781366166
 30
0.0
 10
415.0380801479113
 20
191.4643551438043
 30
0.0
 10
414.9667298989331
 20
191.0336960702816
 30
0.0
 10
414.923449531853
 20
190.712598449958
 30
0.0
 10
414.9120771447602
 20
190.6282265585158
 30
0.0
  0
SPLINE
  5
1C5
330
1F
100
AcDbEntity
  8
0
  6
Continuous
 62
     7
370
    15
100
AcDbSpline
210
0.0
220
0.0
230
1.0
 70
     8
 71
     3
 72
    12
 73
     8
 74
     0
 42
0.00000001
 43
0.00000001
 40
0.0
 40
0.0
 40
0.0
 40
0.0
 40
0.1236928424232979
 40
0.452591960369222
 40
0.6563090561894578
 40
0.893481669331235
 40
1.0
 40
1.0
 40
1.0
 40
1.0
 10
413.5371768037263
 20
192.5084709104393
 30
0.0
 10
413.4557472035035
 20
192.472773907779
 30
0.0
 10
413.1577963950747
 20
192.3421586183507
 30
0.0
 10
413.0763479087532
 20
191.9925002204421
 30
0.0
 10
412.9678407776709
 20
191.5301553255363
 30
0.0
 10
412.8951879319953
 20
191.0832273527326
 30
0.0
 10
412.8481287709796
 20
190.7352848867816
 30
0.0
 10
412.8335439721528
 20
190.627448904166
 30
0.0
  0
SPLINE
  5
1C6
330
1F
100
AcDbEntity
  8
0
  6
Continuous
 62
     7
370
    15
100
AcDbSpline
210
0.0
220
0.0
230
1.0
 70
     8
 71
     3
 72
    13
 73
     9
 74
     0
 42
0.00000001
 43
0.00000001
 40
0.0
 40
0.0
 40
0.0
 40
0.0
 40
0.0102946150804734
 40
0.1585186492829675
 40
0.49636213308823
 40
0.7026774757849572
 40
0.933131041776965
 40
1.0
 40
1.0
 40
1.0
 40
1.0
 10
411.4644103805009
 20
192.5121822308992
 30
0.0
 10
411.4558474772713
 20
192.5112802098436
 30
0.0
 10
411.3239940914675
 20
192.4973906998196
 30
0.0
 10
411.076412544821
 20
192.2510376893906
 30
0.0
 10
410.9837139410357
 20
191.9579196685443
 30
0.0
 10
410.8750942760364
 20
191.4324978496731
 30
0.0
 10
410.8057183273348
 20
191.0046839321046
 30
0.0
 10
410.7648686079214
 20
190.698314019531
 30
0.0
 10
410.7556813517991
 20
190.6294102695082
 30
0.0
  0
SPLINE
  5
1C7
330
1F
100
AcDbEntity
  8
0
  6
Continuous
 62
     7
370
    15
100
AcDbSpline
210
0.0
220
0.0
230
1.0
 70
     8
 71
     3
 72
    14
 73
    10
 74
     0
 42
0.00000001
 43
0.00000001
 40
0.0
 40
0.0
 40
0.0
 40
0.0
 40
0.0041006522321124
 40
0.0706149221230088
 40
0.137936839339927
 40
0.4636051256516112
 40
0.6736679771391386
 40
0.9108466487107987
 40
1.0
 40
1.0
 40
1.0
 40
1.0
 10
409.3749099532548
 20
192.5113710489367
 30
0.0
 10
409.3714480787519
 20
192.5110071096575
 30
0.0
 10
409.3118331724931
 20
192.5047399252188
 30
0.0
 10
409.2209967511973
 20
192.4484391815893
 30
0.0
 10
408.9892877912562
 20
192.259418508508
 30
0.0
 10
408.9222011533799
 20
191.9968590852853
 30
0.0
 10
408.806771705025
 20
191.4980548542687
 30
0.0
 10
408.7340647226168
 20
191.0516461752121
 30
0.0
 10
408.6894898665194
 20
190.7181702519443
 30
0.0
 10
408.6773120919648
 20
190.6270651992653
 30
0.0
  0
SPLINE
  5
1C8
330
1F
100
AcDbEntity
  8
0
  6
Continuous
 62
     7
370
    15
100
AcDbSpline
210
0.0
220
0.0
230
1.0
 70
     8
 71
     3
 72
    14
 73
    10
 74
     0
 42
0.00000001
 43
0.00000001
 40
0.0
 40
0.0
 40
0.0
 40
0.0
 40
0.0067302970992036
 40
0.0647423067233571
 40
0.1230941260973481
 40
0.4335783777714425
 40
0.6458515584392907
 40
0.8882977888798224
 40
1.0
 40
1.0
 40
1.0
 40
1.0
 10
407.3087447444383
 20
192.51334731544
 30
0.0
 10
407.3029009729606
 20
192.5127927396202
 30
0.0
 10
407.2466866276127
 20
192.5074579799067
 30
0.0
 10
407.1568647717742
 20
192.4570747376416
 30
0.0
 10
406.9269533314094
 20
192.2834471849213
 30
0.0
 10
406.8642715058791
 20
192.0489728471811
 30
0.0
 10
406.7431498027021
 20
191.5685548717701
 30
0.0
 10
406.6646440160837
 20
191.102767748665
 30
0.0
 10
406.6155576773074
 20
190.7394241160386
 30
0.0
 10
406.6000753203812
 20
190.6248216431831
 30
0.0
  0
SPLINE
  5
1C9
330
1F
100
AcDbEntity
  8
0
  6
Continuous
 62
     7
370
    15
100
AcDbSpline
210
0.0
220
0.0
230
1.0
 70
     8
 71
     3
 72
     9
 73
     5
 74
     0
 42
0.00000001
 43
0.00000001
 40
0.0
 40
0.0
 40
0.0
 40
0.0
 40
0.9200427957693127
 40
1.0
 40
1.0
 40
1.0
 40
1.0
 10
403.4777605096284
 20
190.3533979233597
 30
0.0
 10
403.3881290052631
 20
190.470454146732
 30
0.0
 10
403.2907079887871
 20
190.5976832538025
 30
0.0
 10
403.1901747309338
 20
190.7283302427875
 30
0.0
 10
403.1821363727036
 20
190.7387764107679
 30
0.0
  0
SPLINE
  5
1CA
330
1F
100
AcDbEntity
  8
0
  6
Continuous
 62
     7
370
    15
100
AcDbSpline
210
0.0
220
0.0
230
1.0
 70
    24
 71
     1
 72
     4
 73
     2
 74
     0
 42
0.00000001
 43
0.00000001
 40
0.0
 40
0.0
 40
1.0
 40
1.0
 10
417.1821349421921
 20
192.952083135793
 30
0.0
 10
417.1821349421921
 20
192.3936304550861
 30
0.0
  0
SPLINE
  5
1CB
330
1F
100
AcDbEntity
  8
0
  6
Continuous
 62
     7
370
    15
100
AcDbSpline
210
0.0
220
0.0
230
1.0
 70
     8
 71
     3
 72
    11
 73
     7
 74
     0
 42
0.00000001
 43
0.00000001
 40
0.0
 40
0.0
 40
0.0
 40
0.0
 40
0.2499593494878794
 40
0.5038962422691573
 40
0.7556526742068442
 40
1.0
 40
1.0
 40
1.0
 40
1.0
 10
389.9669298092304
 20
224.446285228083
 30
0.0
 10
389.9257074536104
 20
224.4221321474243
 30
0.0
 10
389.8426067808933
 20
224.3734416439161
 30
0.0
 10
389.7549621918017
 20
224.2590737029107
 30
0.0
 10
389.7035866068397
 20
224.1287661838535
 30
0.0
 10
389.7040175395231
 20
224.0403180475835
 30
0.0
 10
389.7042297879635
 20
223.9967544477676
 30
0.0
  0
SPLINE
  5
1CC
330
1F
100
AcDbEntity
  8
0
  6
Continuous
 62
     7
370
    15
100
AcDbSpline
210
0.0
220
0.0
230
1.0
 70
     8
 71
     3
 72
    11
 73
     7
 74
     0
 42
0.00000001
 43
0.00000001
 40
0.0
 40
0.0
 40
0.0
 40
0.0
 40
0.2443475019108655
 40
0.4961069657193607
 40
0.7500400641700123
 40
1.0
 40
1.0
 40
1.0
 40
1.0
 10
431.6600286523281
 20
223.9967544477676
 30
0.0
 10
431.6602449332687
 20
224.0403182499525
 30
0.0
 10
431.6606840557495
 20
224.1287673052863
 30
0.0
 10
431.6092916663567
 20
224.2590714464886
 30
0.0
 10
431.5216611952554
 20
224.3734428897922
 30
0.0
 10
431.4385593687455
 20
224.422132419874
 30
0.0
 10
431.3973360816418
 20
224.446285228083
 30
0.0
  0
ARC
  5
1CD
330
1F
100
AcDbEntity
  8
0
  6
Continuous
 62
     7
370
    15
100
AcDbCircle
 10
399.182132061
 20
204.5533981155
 30
0.0
 40
2.349999999999973
100
AcDbArc
 50
28.3691719314
 51
331.6308280686
  0
LINE
  5
1CE
330
1F
100
AcDbEntity
  8
0
  6
Continuous
 62
     7
370
    15
100
AcDbLine
 10
399.5821350376
 20
203.2117579978
 30
0.0
 11
399.5821350376
 21
204.1533977639
 31
0.0
  0
LINE
  5
1CF
330
1F
100
AcDbEntity
  8
0
  6
Continuous
 62
     7
370
    15
100
AcDbLine
 10
399.5821350376
 20
204.1533977639
 30
0.0
 11
400.5237692157
 21
204.1533977639
 31
0.0
  0
ARC
  5
1D0
330
1F
100
AcDbEntity
  8
0
  6
Continuous
 62
     7
370
    15
100
AcDbCircle
 10
399.182132061
 20
204.5533981155
 30
0.0
 40
1.399999999999981
100
AcDbArc
 50
343.398450401
 51
16.601549599
  0
LINE
  5
1D1
330
1F
100
AcDbEntity
  8
0
  6
Continuous
 62
     7
370
    15
100
AcDbLine
 10
400.5237692157
 20
204.9533982676
 30
0.0
 11
399.5821350376
 21
204.9533982676
 31
0.0
  0
LINE
  5
1D2
330
1F
100
AcDbEntity
  8
0
  6
Continuous
 62
     7
370
    15
100
AcDbLine
 10
399.5821350376
 20
204.9533982676
 30
0.0
 11
399.5821350376
 21
205.8950380337
 31
0.0
  0
ARC
  5
1D3
330
1F
100
AcDbEntity
  8
0
  6
Continuous
 62
     7
370
    15
100
AcDbCircle
 10
399.182132061
 20
204.5533981155
 30
0.0
 40
1.399999999999989
100
AcDbArc
 50
73.398450401
 51
106.601549599
  0
LINE
  5
1D4
330
1F
100
AcDbEntity
  8
0
  6
Continuous
 62
     7
370
    15
100
AcDbLine
 10
398.782128946
 20
205.8950380337
 30
0.0
 11
398.782128946
 21
204.9533982676
 31
0.0
  0
LINE
  5
1D5
330
1F
100
AcDbEntity
  8
0
  6
Continuous
 62
     7
370
    15
100
AcDbLine
 10
398.782128946
 20
204.9533982676
 30
0.0
 11
397.8404947678
 21
204.9533982676
 31
0.0
  0
ARC
  5
1D6
330
1F
100
AcDbEntity
  8
0
  6
Continuous
 62
     7
370
    15
100
AcDbCircle
 10
399.182132061
 20
204.5533981155
 30
0.0
 40
1.400000000000035
100
AcDbArc
 50
163.398450401
 51
196.601549599
  0
LINE
  5
1D7
330
1F
100
AcDbEntity
  8
0
  6
Continuous
 62
     7
370
    15
100
AcDbLine
 10
397.8404947678
 20
204.1533977639
 30
0.0
 11
398.782128946
 21
204.1533977639
 31
0.0
  0
LINE
  5
1D8
330
1F
100
AcDbEntity
  8
0
  6
Continuous
 62
     7
370
    15
100
AcDbLine
 10
398.782128946
 20
204.1533977639
 30
0.0
 11
398.782128946
 21
203.2117579978
 31
0.0
  0
ARC
  5
1D9
330
1F
100
AcDbEntity
  8
0
  6
Continuous
 62
     7
370
    15
100
AcDbCircle
 10
399.182132061
 20
204.5533981155
 30
0.0
 40
1.400000000000016
100
AcDbArc
 50
253.398450401
 51
286.601549599
  0
SPLINE
  5
1DA
330
1F
100
AcDbEntity
  8
0
  6
Continuous
 62
     7
370
    15
100
AcDbSpline
210
0.0
220
0.0
230
1.0
 70
     8
 71
     3
 72
     9
 73
     5
 74
     0
 42
0.00000001
 43
0.00000001
 40
0.0
 40
0.0
 40
0.0
 40
0.0
 40
0.0177342336357026
 40
1.0
 40
1.0
 40
1.0
 40
1.0
 10
399.1821357170521
 20
203.5533987831567
 30
0.0
 10
399.1798014734204
 20
203.5510695692347
 30
0.0
 10
399.0481778758246
 20
203.419729587489
 30
0.0
 10
398.9139633147024
 20
203.3148134893564
 30
0.0
 10
398.7821289459644
 20
203.2117579978202
 30
0.0
  0
SPLINE
  5
1DB
330
1F
100
AcDbEntity
  8
0
  6
Continuous
 62
     7
370
    15
100
AcDbSpline
210
0.0
220
0.0
230
1.0
 70
     8
 71
     3
 72
     9
 73
     5
 74
     0
 42
0.00000001
 43
0.00000001
 40
0.0
 40
0.0
 40
0.0
 40
0.0
 40
0.0177342661416715
 40
0.9999999999999999
 40
0.9999999999999999
 40
0.9999999999999999
 40
0.9999999999999999
 10
399.1821357170521
 20
203.5533987831567
 30
0.0
 10
399.1844699610417
 20
203.551069569263
 30
0.0
 10
399.3160933375619
 20
203.4197298298491
 30
0.0
 10
399.4503042536127
 20
203.3148136077319
 30
0.0
 10
399.5821350375591
 20
203.2117579978202
 30
0.0
  0
SPLINE
  5
1DC
330
1F
100
AcDbEntity
  8
0
  6
Continuous
 62
     7
370
    15
100
AcDbSpline
210
0.0
220
0.0
230
1.0
 70
     8
 71
     3
 72
     9
 73
     5
 74
     0
 42
0.00000001
 43
0.00000001
 40
0.0
 40
0.0
 40
0.0
 40
0.0
 40
0.0177342661416715
 40
0.9999999999999999
 40
0.9999999999999999
 40
0.9999999999999999
 40
0.9999999999999999
 10
399.1821357170521
 20
205.5533972483371
 30
0.0
 10
399.1844699610417
 20
205.5557264622308
 30
0.0
 10
399.3160933375619
 20
205.6870662016444
 30
0.0
 10
399.4503042536127
 20
205.7919824237618
 30
0.0
 10
399.5821350375591
 20
205.8950380336736
 30
0.0
  0
SPLINE
  5
1DD
330
1F
100
AcDbEntity
  8
0
  6
Continuous
 62
     7
370
    15
100
AcDbSpline
210
0.0
220
0.0
230
1.0
 70
     8
 71
     3
 72
     9
 73
     5
 74
     0
 42
0.00000001
 43
0.00000001
 40
0.0
 40
0.0
 40
0.0
 40
0.0
 40
0.0177342336357026
 40
1.0
 40
1.0
 40
1.0
 40
1.0
 10
399.1821357170521
 20
205.5533972483371
 30
0.0
 10
399.1798014734204
 20
205.5557264622591
 30
0.0
 10
399.0481778758246
 20
205.6870664440049
 30
0.0
 10
398.9139633147024
 20
205.7919825421374
 30
0.0
 10
398.7821289459644
 20
205.8950380336736
 30
0.0
  0
SPLINE
  5
1DE
330
1F
100
AcDbEntity
  8
0
  6
Continuous
 62
     7
370
    15
100
AcDbSpline
210
0.0
220
0.0
230
1.0
 70
     8
 71
     3
 72
     9
 73
     5
 74
     0
 42
0.00000001
 43
0.00000001
 40
0.0
 40
0.0
 40
0.0
 40
0.0
 40
0.017734722784688
 40
1.0
 40
1.0
 40
1.0
 40
1.0
 10
398.1821336904941
 20
204.5533989470695
 30
0.0
 10
398.1798038504111
 20
204.5557331905024
 30
0.0
 10
398.0484321841438
 20
204.6873531465218
 30
0.0
 10
397.9435332996549
 20
204.8215658193223
 30
0.0
 10
397.8404947678028
 20
204.9533982675765
 30
0.0
  0
SPLINE
  5
1DF
330
1F
100
AcDbEntity
  8
0
  6
Continuous
 62
     7
370
    15
100
AcDbSpline
210
0.0
220
0.0
230
1.0
 70
     8
 71
     3
 72
     9
 73
     5
 74
     0
 42
0.00000001
 43
0.00000001
 40
0.0
 40
0.0
 40
0.0
 40
0.0
 40
0.0177347146580183
 40
1.0
 40
1.0
 40
1.0
 40
1.0
 10
398.1821336904941
 20
204.5533989470695
 30
0.0
 10
398.1798038504041
 20
204.551064703726
 30
0.0
 10
398.0484321235403
 20
204.4194446924401
 30
0.0
 10
397.9435332700543
 20
204.2852311083703
 30
0.0
 10
397.8404947678028
 20
204.1533977639173
 30
0.0
  0
LINE
  5
1E0
330
1F
100
AcDbEntity
  8
0
  6
Continuous
 62
     7
370
    15
100
AcDbLine
 10
399.1821357171
 20
205.5533972483
 30
0.0
 11
399.1821357171
 21
204.5533989471
 31
0.0
  0
LINE
  5
1E1
330
1F
100
AcDbEntity
  8
0
  6
Continuous
 62
     7
370
    15
100
AcDbLine
 10
399.1821357171
 20
204.5533989471
 30
0.0
 11
398.782128946
 21
204.9533982676
 31
0.0
  0
SPLINE
  5
1E2
330
1F
100
AcDbEntity
  8
0
  6
Continuous
 62
     7
370
    15
100
AcDbSpline
210
0.0
220
0.0
230
1.0
 70
     8
 71
     3
 72
     9
 73
     5
 74
     0
 42
0.00000001
 43
0.00000001
 40
0.0
 40
0.0
 40
0.0
 40
0.0
 40
0.0177347146580183
 40
1.0
 40
1.0
 40
1.0
 40
1.0
 10
400.1821302930294
 20
204.5533989470695
 30
0.0
 10
400.1844601331194
 20
204.551064703726
 30
0.0
 10
400.3158318599843
 20
204.4194446924401
 30
0.0
 10
400.4207307134698
 20
204.2852311083703
 30
0.0
 10
400.5237692157207
 20
204.1533977639173
 30
0.0
  0
LINE
  5
1E3
330
1F
100
AcDbEntity
  8
0
  6
Continuous
 62
     7
370
    15
100
AcDbLine
 10
399.1821357171
 20
204.5533989471
 30
0.0
 11
399.5821350376
 21
204.1533977639
 31
0.0
  0
LINE
  5
1E4
330
1F
100
AcDbEntity
  8
0
  6
Continuous
 62
     7
370
    15
100
AcDbLine
 10
400.182130293
 20
204.5533989471
 30
0.0
 11
399.1821357171
 21
204.5533989471
 31
0.0
  0
LINE
  5
1E5
330
1F
100
AcDbEntity
  8
0
  6
Continuous
 62
     7
370
    15
100
AcDbLine
 10
398.1821336905
 20
204.5533989471
 30
0.0
 11
399.1821357171
 21
204.5533989471
 31
0.0
  0
LINE
  5
1E6
330
1F
100
AcDbEntity
  8
0
  6
Continuous
 62
     7
370
    15
100
AcDbLine
 10
399.1821357171
 20
204.5533989471
 30
0.0
 11
398.782128946
 21
204.1533977639
 31
0.0
  0
LINE
  5
1E7
330
1F
100
AcDbEntity
  8
0
  6
Continuous
 62
     7
370
    15
100
AcDbLine
 10
399.1821357171
 20
203.5533987832
 30
0.0
 11
399.1821357171
 21
204.5533989471
 31
0.0
  0
LINE
  5
1E8
330
1F
100
AcDbEntity
  8
0
  6
Continuous
 62
     7
370
    15
100
AcDbLine
 10
399.1821357171
 20
204.5533989471
 30
0.0
 11
399.5821350376
 21
204.9533982676
 31
0.0
  0
SPLINE
  5
1E9
330
1F
100
AcDbEntity
  8
0
  6
Continuous
 62
     7
370
    15
100
AcDbSpline
210
0.0
220
0.0
230
1.0
 70
     8
 71
     3
 72
     9
 73
     5
 74
     0
 42
0.00000001
 43
0.00000001
 40
0.0
 40
0.0
 40
0.0
 40
0.0
 40
0.017734722784688
 40
1.0
 40
1.0
 40
1.0
 40
1.0
 10
400.1821302930294
 20
204.5533989470695
 30
0.0
 10
400.1844601331124
 20
204.5557331905024
 30
0.0
 10
400.3158317993793
 20
204.6873531465218
 30
0.0
 10
400.4207306838684
 20
204.8215658193223
 30
0.0
 10
400.5237692157207
 20
204.9533982675765
 30
0.0
  0
SPLINE
  5
1EA
330
1F
100
AcDbEntity
  8
0
  6
Continuous
 62
     7
370
    15
100
AcDbSpline
210
0.0
220
0.0
230
1.0
 70
     8
 71
     3
 72
     9
 73
     5
 74
     0
 42
0.00000001
 43
0.00000001
 40
0.0
 40
0.0
 40
0.0
 40
0.0
 40
0.0177329245342609
 40
1.0
 40
1.0
 40
1.0
 40
1.0
 10
421.1821281472622
 20
204.5533989470695
 30
0.0
 10
421.1798008115616
 20
204.5557331926947
 30
0.0
 10
421.0485570510636
 20
204.6873666195862
 30
0.0
 10
420.9435924733495
 20
204.8215723738375
 30
0.0
 10
420.8404892245708
 20
204.9533982675765
 30
0.0
  0
SPLINE
  5
1EB
330
1F
100
AcDbEntity
  8
0
  6
Continuous
 62
     7
370
    15
100
AcDbSpline
210
0.0
220
0.0
230
1.0
 70
     8
 71
     3
 72
     9
 73
     5
 74
     0
 42
0.00000001
 43
0.00000001
 40
0.0
 40
0.0
 40
0.0
 40
0.0
 40
0.0177329164084262
 40
1.0
 40
1.0
 40
1.0
 40
1.0
 10
421.1821281472622
 20
204.5533989470695
 30
0.0
 10
421.1798008115546
 20
204.5510647015337
 30
0.0
 10
421.0485569905171
 20
204.4194312193689
 30
0.0
 10
420.9435924437774
 20
204.2852245538526
 30
0.0
 10
420.8404892245708
 20
204.1533977639173
 30
0.0
  0
ARC
  5
1EC
330
1F
100
AcDbEntity
  8
0
  6
Continuous
 62
     7
370
    15
100
AcDbCircle
 10
422.182132061
 20
204.5533981155
 30
0.0
 40
1.400000000000035
100
AcDbArc
 50
163.398450401
 51
196.601549599
  0
SPLINE
  5
1ED
330
1F
100
AcDbEntity
  8
0
  6
Continuous
 62
     7
370
    15
100
AcDbSpline
210
0.0
220
0.0
230
1.0
 70
     8
 71
     3
 72
     9
 73
     5
 74
     0
 42
0.00000001
 43
0.00000001
 40
0.0
 40
0.0
 40
0.0
 40
0.0
 40
0.0177342336357026
 40
1.0
 40
1.0
 40
1.0
 40
1.0
 10
422.1821301738201
 20
205.5533972483371
 30
0.0
 10
422.1844644174518
 20
205.5557264622591
 30
0.0
 10
422.3160880150479
 20
205.6870664440049
 30
0.0
 10
422.4503025761699
 20
205.7919825421374
 30
0.0
 10
422.5821369449077
 20
205.8950380336736
 30
0.0
  0
LINE
  5
1EE
330
1F
100
AcDbEntity
  8
0
  6
Continuous
 62
     7
370
    15
100
AcDbLine
 10
422.5821369449
 20
204.9533982676
 30
0.0
 11
422.5821369449
 21
205.8950380337
 31
0.0
  0
LINE
  5
1EF
330
1F
100
AcDbEntity
  8
0
  6
Continuous
 62
     7
370
    15
100
AcDbLine
 10
422.1821301738
 20
204.5533989471
 30
0.0
 11
422.5821369449
 21
204.9533982676
 31
0.0
  0
LINE
  5
1F0
330
1F
100
AcDbEntity
  8
0
  6
Continuous
 62
     7
370
    15
100
AcDbLine
 10
422.1821301738
 20
205.5533972483
 30
0.0
 11
422.1821301738
 21
204.5533989471
 31
0.0
  0
LINE
  5
1F1
330
1F
100
AcDbEntity
  8
0
  6
Continuous
 62
     7
370
    15
100
AcDbLine
 10
422.1821301738
 20
204.5533989471
 30
0.0
 11
421.7821383039
 21
204.9533982676
 31
0.0
  0
LINE
  5
1F2
330
1F
100
AcDbEntity
  8
0
  6
Continuous
 62
     7
370
    15
100
AcDbLine
 10
421.7821383039
 20
205.8950380337
 30
0.0
 11
421.7821383039
 21
204.9533982676
 31
0.0
  0
SPLINE
  5
1F3
330
1F
100
AcDbEntity
  8
0
  6
Continuous
 62
     7
370
    15
100
AcDbSpline
210
0.0
220
0.0
230
1.0
 70
     8
 71
     3
 72
     9
 73
     5
 74
     0
 42
0.00000001
 43
0.00000001
 40
0.0
 40
0.0
 40
0.0
 40
0.0
 40
0.0177342986472041
 40
1.0
 40
1.0
 40
1.0
 40
1.0
 10
422.1821301738201
 20
205.5533972483371
 30
0.0
 10
422.1797959294724
 20
205.5557264622026
 30
0.0
 10
422.048172774022
 20
205.6870659592883
 30
0.0
 10
421.9139655030458
 20
205.7919823053883
 30
0.0
 10
421.7821383038936
 20
205.8950380336736
 30
0.0
  0
LINE
  5
1F4
330
1F
100
AcDbEntity
  8
0
  6
Continuous
 62
     7
370
    15
100
AcDbLine
 10
422.1821301738
 20
203.5533987832
 30
0.0
 11
422.1821301738
 21
204.5533989471
 31
0.0
  0
LINE
  5
1F5
330
1F
100
AcDbEntity
  8
0
  6
Continuous
 62
     7
370
    15
100
AcDbLine
 10
422.1821301738
 20
204.5533989471
 30
0.0
 11
422.5821369449
 21
204.1533977639
 31
0.0
  0
LINE
  5
1F6
330
1F
100
AcDbEntity
  8
0
  6
Continuous
 62
     7
370
    15
100
AcDbLine
 10
422.5821369449
 20
203.2117579978
 30
0.0
 11
422.5821369449
 21
204.1533977639
 31
0.0
  0
SPLINE
  5
1F7
330
1F
100
AcDbEntity
  8
0
  6
Continuous
 62
     7
370
    15
100
AcDbSpline
210
0.0
220
0.0
230
1.0
 70
     8
 71
     3
 72
     9
 73
     5
 74
     0
 42
0.00000001
 43
0.00000001
 40
0.0
 40
0.0
 40
0.0
 40
0.0
 40
0.0177342336357026
 40
1.0
 40
1.0
 40
1.0
 40
1.0
 10
422.1821301738201
 20
203.5533987831567
 30
0.0
 10
422.1844644174518
 20
203.5510695692347
 30
0.0
 10
422.3160880150479
 20
203.419729587489
 30
0.0
 10
422.4503025761699
 20
203.3148134893564
 30
0.0
 10
422.5821369449077
 20
203.2117579978202
 30
0.0
  0
SPLINE
  5
1F8
330
1F
100
AcDbEntity
  8
0
  6
Continuous
 62
     7
370
    15
100
AcDbSpline
210
0.0
220
0.0
230
1.0
 70
     8
 71
     3
 72
     9
 73
     5
 74
     0
 42
0.00000001
 43
0.00000001
 40
0.0
 40
0.0
 40
0.0
 40
0.0
 40
0.0177342986472041
 40
1.0
 40
1.0
 40
1.0
 40
1.0
 10
422.1821301738201
 20
203.5533987831567
 30
0.0
 10
422.1797959294724
 20
203.5510695692912
 30
0.0
 10
422.048172774022
 20
203.4197300722055
 30
0.0
 10
421.9139655030458
 20
203.3148137261055
 30
0.0
 10
421.7821383038936
 20
203.2117579978202
 30
0.0
  0
LINE
  5
1F9
330
1F
100
AcDbEntity
  8
0
  6
Continuous
 62
     7
370
    15
100
AcDbLine
 10
421.7821383039
 20
204.1533977639
 30
0.0
 11
421.7821383039
 21
203.2117579978
 31
0.0
  0
LINE
  5
1FA
330
1F
100
AcDbEntity
  8
0
  6
Continuous
 62
     7
370
    15
100
AcDbLine
 10
422.1821301738
 20
204.5533989471
 30
0.0
 11
421.7821383039
 21
204.1533977639
 31
0.0
  0
LINE
  5
1FB
330
1F
100
AcDbEntity
  8
0
  6
Continuous
 62
     7
370
    15
100
AcDbLine
 10
421.1821281473
 20
204.5533989471
 30
0.0
 11
422.1821301738
 21
204.5533989471
 31
0.0
  0
LINE
  5
1FC
330
1F
100
AcDbEntity
  8
0
  6
Continuous
 62
     7
370
    15
100
AcDbLine
 10
420.8404892246
 20
204.1533977639
 30
0.0
 11
421.7821383039
 21
204.1533977639
 31
0.0
  0
CIRCLE
  5
1FD
330
1F
100
AcDbEntity
  8
0
  6
Continuous
 62
     7
370
    15
100
AcDbCircle
 10
422.182132061
 20
204.5533981155
 30
0.0
 40
2.349999999999966
  0
LINE
  5
1FE
330
1F
100
AcDbEntity
  8
0
  6
Continuous
 62
     7
370
    15
100
AcDbLine
 10
422.5821369449
 20
204.1533977639
 30
0.0
 11
423.5237711231
 21
204.1533977639
 31
0.0
  0
ARC
  5
1FF
330
1F
100
AcDbEntity
  8
0
  6
Continuous
 62
     7
370
    15
100
AcDbCircle
 10
422.182132061
 20
204.5533981155
 30
0.0
 40
1.399999999999981
100
AcDbArc
 50
343.398450401
 51
16.601549599
  0
LINE
  5
200
330
1F
100
AcDbEntity
  8
0
  6
Continuous
 62
     7
370
    15
100
AcDbLine
 10
423.5237711231
 20
204.9533982676
 30
0.0
 11
422.5821369449
 21
204.9533982676
 31
0.0
  0
ARC
  5
201
330
1F
100
AcDbEntity
  8
0
  6
Continuous
 62
     7
370
    15
100
AcDbCircle
 10
422.182132061
 20
204.5533981155
 30
0.0
 40
1.399999999999989
100
AcDbArc
 50
73.398450401
 51
106.601549599
  0
LINE
  5
202
330
1F
100
AcDbEntity
  8
0
  6
Continuous
 62
     7
370
    15
100
AcDbLine
 10
421.7821383039
 20
204.9533982676
 30
0.0
 11
420.8404892246
 21
204.9533982676
 31
0.0
  0
ARC
  5
203
330
1F
100
AcDbEntity
  8
0
  6
Continuous
 62
     7
370
    15
100
AcDbCircle
 10
422.182132061
 20
204.5533981155
 30
0.0
 40
1.400000000000016
100
AcDbArc
 50
253.398450401
 51
286.601549599
  0
SPLINE
  5
204
330
1F
100
AcDbEntity
  8
0
  6
Continuous
 62
     7
370
    15
100
AcDbSpline
210
0.0
220
0.0
230
1.0
 70
     8
 71
     3
 72
     9
 73
     5
 74
     0
 42
0.00000001
 43
0.00000001
 40
0.0
 40
0.0
 40
0.0
 40
0.0
 40
0.0177329164084262
 40
1.0
 40
1.0
 40
1.0
 40
1.0
 10
423.182132200378
 20
204.5533989470695
 30
0.0
 10
423.1844595360856
 20
204.5510647015337
 30
0.0
 10
423.3157033571225
 20
204.4194312193689
 30
0.0
 10
423.4206679038625
 20
204.2852245538526
 30
0.0
 10
423.5237711230694
 20
204.1533977639173
 30
0.0
  0
SPLINE
  5
205
330
1F
100
AcDbEntity
  8
0
  6
Continuous
 62
     7
370
    15
100
AcDbSpline
210
0.0
220
0.0
230
1.0
 70
     8
 71
     3
 72
     9
 73
     5
 74
     0
 42
0.00000001
 43
0.00000001
 40
0.0
 40
0.0
 40
0.0
 40
0.0
 40
0.0177329245342609
 40
1.0
 40
1.0
 40
1.0
 40
1.0
 10
423.182132200378
 20
204.5533989470695
 30
0.0
 10
423.1844595360785
 20
204.5557331926947
 30
0.0
 10
423.3157032965768
 20
204.6873666195862
 30
0.0
 10
423.4206678742908
 20
204.8215723738375
 30
0.0
 10
423.5237711230694
 20
204.9533982675765
 30
0.0
  0
LINE
  5
206
330
1F
100
AcDbEntity
  8
0
  6
Continuous
 62
     7
370
    15
100
AcDbLine
 10
423.1821322004
 20
204.5533989471
 30
0.0
 11
422.1821301738
 21
204.5533989471
 31
0.0
  0
LWPOLYLINE
  5
207
330
1F
100
AcDbEntity
  8
0
  6
Continuous
 62
     7
370
    15
100
AcDbPolyline
 90
        9
 70
   128
 43
0.0
 10
401.2499102513
 20
219.4004018706
 10
401.287967817
 20
219.3079699677
 10
401.3963514129
 20
219.2296122115
 10
401.5585654537
 20
219.1772532564
 10
401.749903814
 20
219.1588689488
 10
401.9412496249
 20
219.1772532564
 10
402.1034636656
 20
219.2296122115
 10
402.2118472616
 20
219.3079699677
 10
402.2499048273
 20
219.4004018706
  0
ARC
  5
208
330
1F
100
AcDbEntity
  8
0
  6
Continuous
 62
     7
370
    15
100
AcDbCircle
 10
403.4157211122
 20
219.2471635156
 30
0.0
 40
2.17122515613376
100
AcDbArc
 50
86.4566222953
 51
175.9528765158
  0
ARC
  5
209
330
1F
100
AcDbEntity
  8
0
  6
Continuous
 62
     7
370
    15
100
AcDbCircle
 10
416.0163040894
 20
219.2471388647
 30
0.0
 40
2.171248859621494
100
AcDbArc
 50
4.0477313527
 51
93.5429538124
  0
LWPOLYLINE
  5
20A
330
1F
100
AcDbEntity
  8
0
  6
Continuous
 62
     7
370
    15
100
AcDbPolyline
 90
        9
 70
   128
 43
0.0
 10
417.1821349422
 20
219.4004018706
 10
417.2201925079
 20
219.3079699677
 10
417.3285835544
 20
219.2296122115
 10
417.4907975952
 20
219.1772532564
 10
417.6821285049
 20
219.1588689488
 10
417.8734743158
 20
219.1772532564
 10
418.0356883565
 20
219.2296122115
 10
418.1440645019
 20
219.3079699677
 10
418.1821369687
 20
219.4004018706
  0
SPLINE
  5
20B
330
1F
100
AcDbEntity
  8
0
  6
Continuous
 62
     7
370
    15
100
AcDbSpline
210
0.0
220
0.0
230
1.0
 70
     8
 71
     3
 72
    15
 73
    11
 74
     0
 42
0.00000001
 43
0.00000001
 40
0.0
 40
0.0
 40
0.0
 40
0.0
 40
0.1250060495389441
 40
0.2499990285931709
 40
0.3749973252977524
 40
0.4999956595196743
 40
0.6250007234081678
 40
0.749997735627243
 40
0.875001936614313
 40
1.0
 40
1.0
 40
1.0
 40
1.0
 10
418.1450330773769
 20
192.8665672343467
 30
0.0
 10
418.1180119430538
 20
192.8419624445235
 30
0.0
 10
418.0639724997054
 20
192.7927554375247
 30
0.0
 10
417.9235602872637
 20
192.7411803815968
 30
0.0
 10
417.7587106872404
 20
192.714268975595
 30
0.0
 10
417.5839006302872
 20
192.7161463130028
 30
0.0
 10
417.4206028442932
 20
192.746329219369
 30
0.0
 10
417.2890335206246
 20
192.801354551778
 30
0.0
 10
417.1993996267487
 20
192.8747345765583
 30
0.0
 10
417.1878897428541
 20
192.9301632414672
 30
0.0
 10
417.1821349421917
 20
192.9578768935297
 30
0.0
  0
SPLINE
  5
20C
330
1F
100
AcDbEntity
  8
0
  6
Continuous
 62
     7
370
    15
100
AcDbSpline
210
0.0
220
0.0
230
1.0
 70
    24
 71
     1
 72
     4
 73
     2
 74
     0
 42
0.00000001
 43
0.00000001
 40
0.0
 40
0.0
 40
1.0
 40
1.0
 10
418.1821369687496
 20
192.9578768935297
 30
0.0
 10
418.1450330773769
 20
192.8665672343467
 30
0.0
  0
SPLINE
  5
20D
330
1F
100
AcDbEntity
  8
0
  6
Continuous
 62
     7
370
    15
100
AcDbSpline
210
0.0
220
0.0
230
1.0
 70
     8
 71
     3
 72
     9
 73
     5
 74
     0
 42
0.00000001
 43
0.00000001
 40
0.0
 40
0.0
 40
0.0
 40
0.0
 40
0.500000676928452
 40
1.0
 40
1.0
 40
1.0
 40
1.0
 10
401.3104015151439
 20
192.8427142005656
 30
0.0
 10
401.2928746452765
 20
192.8609955056174
 30
0.0
 10
401.2578209529992
 20
192.8975580662205
 30
0.0
 10
401.2525471494714
 20
192.9377706359073
 30
0.0
 10
401.2499102512775
 20
192.9578768935297
 30
0.0
  0
SPLINE
  5
20E
330
1F
100
AcDbEntity
  8
0
  6
Continuous
 62
     7
370
    15
100
AcDbSpline
210
0.0
220
0.0
230
1.0
 70
     8
 71
     3
 72
    15
 73
    11
 74
     0
 42
0.00000001
 43
0.00000001
 40
0.0
 40
0.0
 40
0.0
 40
0.0
 40
0.1250069133829964
 40
0.2500013083060852
 40
0.3750007645283651
 40
0.5000000415559678
 40
0.6249990113920977
 40
0.7500014705187461
 40
0.875003184818646
 40
1.0
 40
1.0
 40
1.0
 40
1.0
 10
402.2499048272548
 20
192.9578768935297
 30
0.0
 10
402.2446013018865
 20
192.931263940784
 30
0.0
 10
402.2339947822561
 20
192.8780407003707
 30
0.0
 10
402.15114767202
 20
192.8068403579773
 30
0.0
 10
402.0287293629194
 20
192.7519993095562
 30
0.0
 10
401.8751368333369
 20
192.7194668137428
 30
0.0
 10
401.7080213255215
 20
192.7126884731235
 30
0.0
 10
401.546276633561
 20
192.7326994368391
 30
0.0
 10
401.4031926538341
 20
192.7761982013872
 30
0.0
 10
401.3413314906181
 20
192.8205424905051
 30
0.0
 10
401.310401515144
 20
192.8427142005656
 30
0.0
  0
SPLINE
  5
20F
330
1F
100
AcDbEntity
  8
0
  6
Continuous
 62
     7
370
    15
100
AcDbSpline
210
0.0
220
0.0
230
1.0
 70
    24
 71
     1
 72
     4
 73
     2
 74
     0
 42
0.00000001
 43
0.00000001
 40
0.0
 40
0.0
 40
1.0
 40
1.0
 10
418.2632588902889
 20
190.2632514860724
 30
0.0
 10
418.1657903949199
 20
189.4157181408499
 30
0.0
  0
SPLINE
  5
210
330
1F
100
AcDbEntity
  8
0
  6
Continuous
 62
     7
370
    15
100
AcDbSpline
210
0.0
220
0.0
230
1.0
 70
     8
 71
     3
 72
    12
 73
     8
 74
     0
 42
0.00000001
 43
0.00000001
 40
0.0
 40
0.0
 40
0.0
 40
0.0
 40
0.0024057629208312
 40
0.2750459129761271
 40
0.5474857391141181
 40
0.8195527507959973
 40
1.0
 40
1.0
 40
1.0
 40
1.0
 10
416.089373187202
 20
189.4256814297531
 30
0.0
 10
416.0890553092403
 20
189.4229088021417
 30
0.0
 10
416.0527129774894
 20
189.1059200057261
 30
0.0
 10
415.9793207206173
 20
188.4569830951491
 30
0.0
 10
415.8706097189379
 20
187.6210881615119
 30
0.0
 10
415.774742033473
 20
187.0129402702679
 30
0.0
 10
415.7141850338479
 20
186.8306302244069
 30
0.0
 10
415.6900369683681
 20
186.7579311978315
 30
0.0
  0
SPLINE
  5
211
330
1F
100
AcDbEntity
  8
0
  6
Continuous
 62
     7
370
    15
100
AcDbSpline
210
0.0
220
0.0
230
1.0
 70
     8
 71
     3
 72
     9
 73
     5
 74
     0
 42
0.00000001
 43
0.00000001
 40
0.0
 40
0.0
 40
0.0
 40
0.0
 40
0.9233843455887805
 40
0.9999999999999999
 40
0.9999999999999999
 40
0.9999999999999999
 40
0.9999999999999999
 10
412.9998409310757
 20
189.2510966312383
 30
0.0
 10
412.9776131690576
 20
189.4456162974327
 30
0.0
 10
412.9535411105217
 20
189.6562757775546
 30
0.0
 10
412.9302212342185
 20
189.8542530853075
 30
0.0
 10
412.9284345666347
 20
189.8694212462996
 30
0.0
  0
SPLINE
  5
212
330
1F
100
AcDbEntity
  8
0
  6
Continuous
 62
     7
370
    15
100
AcDbSpline
210
0.0
220
0.0
230
1.0
 70
     8
 71
     3
 72
    11
 73
     7
 74
     0
 42
0.00000001
 43
0.00000001
 40
0.0
 40
0.0
 40
0.0
 40
0.0
 40
0.2698033674391299
 40
0.5692060954648085
 40
0.870786786495507
 40
1.0
 40
1.0
 40
1.0
 40
1.0
 10
411.944674805778
 20
189.5173552360628
 30
0.0
 10
411.9116671520046
 20
189.2294598777336
 30
0.0
 10
411.8420306685788
 20
188.6220849795905
 30
0.0
 10
411.7391838745095
 20
187.7861309242435
 30
0.0
 10
411.6494404206593
 20
187.1814245729299
 30
0.0
 10
411.5978783192035
 20
186.9897687954524
 30
0.0
 10
411.5824126759945
 20
186.9322831657026
 30
0.0
  0
SPLINE
  5
213
330
1F
100
AcDbEntity
  8
0
  6
Continuous
 62
     7
370
    15
100
AcDbSpline
210
0.0
220
0.0
230
1.0
 70
    24
 71
     1
 72
     4
 73
     2
 74
     0
 42
0.00000001
 43
0.00000001
 40
0.0
 40
0.0
 40
1.0
 40
1.0
 10
409.8712080279765
 20
189.5534402605389
 30
0.0
 10
409.8195755044399
 20
189.1073376786206
 30
0.0
  0
SPLINE
  5
214
330
1F
100
AcDbEntity
  8
0
  6
Continuous
 62
     7
370
    15
100
AcDbSpline
210
0.0
220
0.0
230
1.0
 70
     8
 71
     3
 72
    11
 73
     7
 74
     0
 42
0.00000001
 43
0.00000001
 40
0.0
 40
0.0
 40
0.0
 40
0.0
 40
0.1677706085064619
 40
0.4641590942651122
 40
0.7639971730870483
 40
1.0
 40
1.0
 40
1.0
 40
1.0
 10
407.775449113029
 20
189.3967620011662
 30
0.0
 10
407.7546812693877
 20
189.2167799761806
 30
0.0
 10
407.6972243430511
 20
188.718836418337
 30
0.0
 10
407.6073670873745
 20
187.9530014934359
 30
0.0
 10
407.5030513732669
 20
187.2377859306041
 30
0.0
 10
407.4390402213054
 20
186.9708420063498
 30
0.0
 10
407.410847500938
 20
186.8532706897948
 30
0.0
  0
SPLINE
  5
215
330
1F
100
AcDbEntity
  8
0
  6
Continuous
 62
     7
370
    15
100
AcDbSpline
210
0.0
220
0.0
230
1.0
 70
     8
 71
     3
 72
     9
 73
     5
 74
     0
 42
0.00000001
 43
0.00000001
 40
0.0
 40
0.0
 40
0.0
 40
0.0
 40
0.3410131586875852
 40
1.0
 40
1.0
 40
1.0
 40
1.0
 10
406.7635559598385
 20
189.2814698543642
 30
0.0
 10
406.754321475715
 20
189.3619346315663
 30
0.0
 10
406.7272419220726
 20
189.5978926148644
 30
0.0
 10
406.7000530946063
 20
189.8311341539193
 30
0.0
 10
406.6821360150753
 20
189.9848372590039
 30
0.0
  0
SPLINE
  5
216
330
1F
100
AcDbEntity
  8
0
  6
Continuous
 62
     7
370
    15
100
AcDbSpline
210
0.0
220
0.0
230
1.0
 70
     8
 71
     3
 72
    17
 73
    13
 74
     0
 42
0.00000001
 43
0.00000001
 40
0.0
 40
0.0
 40
0.0
 40
0.0
 40
0.0127001675436462
 40
0.1257292309491229
 40
0.2384504260399762
 40
0.3516989118782698
 40
0.4642416595617133
 40
0.5776608473080851
 40
0.6900710485066778
 40
0.8036118279977955
 40
0.9159332661502247
 40
1.0
 40
1.0
 40
1.0
 40
1.0
 10
406.6393100778042
 20
190.3533979233597
 30
0.0
 10
406.6352382276943
 20
190.3886348437735
 30
0.0
 10
406.5949276899717
 20
190.7374736200663
 30
0.0
 10
406.5178448607726
 20
191.3157840584789
 30
0.0
 10
406.4103176324873
 20
191.9657389272387
 30
0.0
 10
406.2999124029769
 20
192.3385855175621
 30
0.0
 10
406.1932874739717
 20
192.4048719196846
 30
0.0
 10
406.0820310074837
 20
192.1547172681756
 30
0.0
 10
405.9760951870637
 20
191.6140451965991
 30
0.0
 10
405.8642750420406
 20
190.8446955712801
 30
0.0
 10
405.7677932081723
 20
190.0014761690028
 30
0.0
 10
405.7035949090598
 20
189.4463559594691
 30
0.0
 10
405.676113919395
 20
189.2087289046739
 30
0.0
  0
SPLINE
  5
217
330
1F
100
AcDbEntity
  8
0
  6
Continuous
 62
     7
370
    15
100
AcDbSpline
210
0.0
220
0.0
230
1.0
 70
     8
 71
     3
 72
    10
 73
     6
 74
     0
 42
0.00000001
 43
0.00000001
 40
0.0
 40
0.0
 40
0.0
 40
0.0
 40
0.0064363281042959
 40
0.5027120274405203
 40
1.0
 40
1.0
 40
1.0
 40
1.0
 10
404.5617603818355
 20
190.3533979233597
 30
0.0
 10
404.5612884786696
 20
190.3574634971993
 30
0.0
 10
404.5244302897389
 20
190.6750067974335
 30
0.0
 10
404.452315207013
 20
191.2486894932956
 30
0.0
 10
404.3796395205791
 20
191.6593843423969
 30
0.0
 10
404.3432646552502
 20
191.8649409812186
 30
0.0
  0
SPLINE
  5
218
330
1F
100
AcDbEntity
  8
0
  6
Continuous
 62
     7
370
    15
100
AcDbSpline
210
0.0
220
0.0
230
1.0
 70
    24
 71
     1
 72
     4
 73
     2
 74
     0
 42
0.00000001
 43
0.00000001
 40
0.0
 40
0.0
 40
1.0
 40
1.0
 10
404.3432795564113
 20
191.8649409812186
 30
0.0
 10
404.3107801238476
 20
192.0028326016162
 30
0.0
  0
SPLINE
  5
219
330
1F
100
AcDbEntity
  8
0
  6
Continuous
 62
     7
370
    15
100
AcDbSpline
210
0.0
220
0.0
230
1.0
 70
     8
 71
     3
 72
    10
 73
     6
 74
     0
 42
0.00000001
 43
0.00000001
 40
0.0
 40
0.0
 40
0.0
 40
0.0
 40
0.4972879725594797
 40
0.993563671895704
 40
1.0
 40
1.0
 40
1.0
 40
1.0
 10
403.3432626286922
 20
191.8649409812186
 30
0.0
 10
403.3796374940213
 20
191.6593843423969
 30
0.0
 10
403.4523131804553
 20
191.2486894932956
 30
0.0
 10
403.5244282631804
 20
190.6750067974336
 30
0.0
 10
403.5612864521117
 20
190.3574634971993
 30
0.0
 10
403.5617583552776
 20
190.3533979233597
 30
0.0
  0
SPLINE
  5
21A
330
1F
100
AcDbEntity
  8
0
  6
Continuous
 62
     7
370
    15
100
AcDbSpline
210
0.0
220
0.0
230
1.0
 70
     8
 71
     3
 72
    11
 73
     7
 74
     0
 42
0.00000001
 43
0.00000001
 40
0.0
 40
0.0
 40
0.0
 40
0.0
 40
0.1843053635271537
 40
0.4821641580671707
 40
0.7832564541296813
 40
1.0
 40
1.0
 40
1.0
 40
1.0
 10
404.6902977982936
 20
189.3315861847494
 30
0.0
 10
404.7130009954279
 20
189.5281640252308
 30
0.0
 10
404.7723951862545
 20
190.042434403132
 30
0.0
 10
404.8642801371137
 20
190.8386802938186
 30
0.0
 10
404.9658539041322
 20
191.5635690235929
 30
0.0
 10
405.0275543645687
 20
191.8439878348763
 30
0.0
 10
405.053379491943
 20
191.9613589447234
 30
0.0
  0
SPLINE
  5
21B
330
1F
100
AcDbEntity
  8
0
  6
Continuous
 62
     7
370
    15
100
AcDbSpline
210
0.0
220
0.0
230
1.0
 70
    24
 71
     1
 72
     4
 73
     2
 74
     0
 42
0.00000001
 43
0.00000001
 40
0.0
 40
0.0
 40
1.0
 40
1.0
 10
406.7667001048503
 20
189.3211386081074
 30
0.0
 10
406.7857735911784
 20
189.4861466165875
 30
0.0
  0
SPLINE
  5
21C
330
1F
100
AcDbEntity
  8
0
  6
Continuous
 62
     7
370
    15
100
AcDbSpline
210
0.0
220
0.0
230
1.0
 70
     8
 71
     3
 72
    21
 73
    17
 74
     0
 42
0.00000001
 43
0.00000001
 40
0.0
 40
0.0
 40
0.0
 40
0.0
 40
0.069393135363084
 40
0.1463826628576758
 40
0.2233199175321759
 40
0.3004729912800295
 40
0.3772732497949779
 40
0.4545600650740341
 40
0.5312531456519247
 40
0.6086397111941394
 40
0.6852575374525774
 40
0.7627099578035279
 40
0.839283278864569
 40
0.916767360448274
 40
0.9933276573628447
 40
1.0
 40
1.0
 40
1.0
 40
1.0
 10
407.8127169171749
 20
189.5284733649586
 30
0.0
 10
407.8454658943344
 20
189.2401286107277
 30
0.0
 10
407.9145488440731
 20
188.6318743111558
 30
0.0
 10
408.0196133459033
 20
187.7818293175086
 30
0.0
 10
408.1277711344786
 20
187.081669755211
 30
0.0
 10
408.2376180138604
 20
186.6364269138245
 30
0.0
 10
408.3446997173463
 20
186.4928307160997
 30
0.0
 10
408.4555535348545
 20
186.6667997114046
 30
0.0
 10
408.5617854246805
 20
187.1405548830962
 30
0.0
 10
408.6734043287793
 20
187.8605602440769
 30
0.0
 10
408.7790299692814
 20
188.754861974775
 30
0.0
 10
408.8911749443126
 20
189.7186991201098
 30
0.0
 10
408.996409010679
 20
190.6662493780368
 30
0.0
 10
409.1089619479428
 20
191.4496905826004
 30
0.0
 10
409.1814523888257
 20
191.9266671223425
 30
0.0
 10
409.2211650555373
 20
192.0341098651257
 30
0.0
 10
409.2243486205517
 20
192.0427230101321
 30
0.0
  0
SPLINE
  5
21D
330
1F
100
AcDbEntity
  8
0
  6
Continuous
 62
     7
370
    15
100
AcDbSpline
210
0.0
220
0.0
230
1.0
 70
     8
 71
     3
 72
    12
 73
     8
 74
     0
 42
0.00000001
 43
0.00000001
 40
0.0
 40
0.0
 40
0.0
 40
0.0
 40
0.0889364714996371
 40
0.3234920864912394
 40
0.5605444869885697
 40
0.7949475630210726
 40
1.0
 40
1.0
 40
1.0
 40
1.0
 10
410.9150343696056
 20
189.2614883285258
 30
0.0
 10
410.9288880112228
 20
189.3804878265174
 30
0.0
 10
410.9792784006399
 20
189.8133293284074
 30
0.0
 10
411.0628003562129
 20
190.5696261667126
 30
0.0
 10
411.1748111014806
 20
191.3879631241802
 30
0.0
 10
411.2756686148404
 20
192.0039127831878
 30
0.0
 10
411.3445681381733
 20
192.1799611294236
 30
0.0
 10
411.3767170468746
 20
192.2621062871311
 30
0.0
  0
SPLINE
  5
21E
330
1F
100
AcDbEntity
  8
0
  6
Continuous
 62
     7
370
    15
100
AcDbSpline
210
0.0
220
0.0
230
1.0
 70
     8
 71
     3
 72
    18
 73
    14
 74
     0
 42
0.00000001
 43
0.00000001
 40
0.0
 40
0.0
 40
0.0
 40
0.0
 40
0.0764481218242712
 40
0.177704372906765
 40
0.2797451710719194
 40
0.3811418580173365
 40
0.4830062623799007
 40
0.5845851953185869
 40
0.6862333602473828
 40
0.7880281058879818
 40
0.8894816370300822
 40
0.9914681311001358
 40
1.0
 40
1.0
 40
1.0
 40
1.0
 10
411.9615727225719
 20
189.5830088209603
 30
0.0
 10
411.9892236989093
 20
189.3425051581643
 30
0.0
 10
412.0534986515575
 20
188.7834521486319
 30
0.0
 10
412.1510212162226
 20
187.9526043064907
 30
0.0
 10
412.2618038167843
 20
187.209237333599
 30
0.0
 10
412.3689068724191
 20
186.705223316236
 30
0.0
 10
412.4787467200204
 20
186.4965174285344
 30
0.0
 10
412.5869067481383
 20
186.6050258417177
 30
0.0
 10
412.6955067883522
 20
187.018548770728
 30
0.0
 10
412.8049586247246
 20
187.6942710328006
 30
0.0
 10
412.9123113988613
 20
188.5551181876751
 30
0.0
 10
412.9893969714748
 20
189.2316054461741
 30
0.0
 10
413.0284881149407
 20
189.5705629344804
 30
0.0
 10
413.0315058986125
 20
189.5967299964522
 30
0.0
  0
SPLINE
  5
21F
330
1F
100
AcDbEntity
  8
0
  6
Continuous
 62
     7
370
    15
100
AcDbSpline
210
0.0
220
0.0
230
1.0
 70
    24
 71
     1
 72
     4
 73
     2
 74
     0
 42
0.00000001
 43
0.00000001
 40
0.0
 40
0.0
 40
1.0
 40
1.0
 10
414.0357249537884
 20
189.6127664398645
 30
0.0
 10
414.0634858170925
 20
189.3722579729055
 30
0.0
  0
SPLINE
  5
220
330
1F
100
AcDbEntity
  8
0
  6
Continuous
 62
     7
370
    15
100
AcDbSpline
210
0.0
220
0.0
230
1.0
 70
     8
 71
     3
 72
    11
 73
     7
 74
     0
 42
0.00000001
 43
0.00000001
 40
0.0
 40
0.0
 40
0.0
 40
0.0
 40
0.2871653167769984
 40
0.5866121965595249
 40
0.8841915687731841
 40
1.0
 40
1.0
 40
1.0
 40
1.0
 10
415.092366294044
 20
189.4517109643911
 30
0.0
 10
415.1269631147635
 20
189.7596312315478
 30
0.0
 10
415.1976364022761
 20
190.3886409821308
 30
0.0
 10
415.3065736351767
 20
191.2237608822504
 30
0.0
 10
415.3913115331803
 20
191.798940544649
 30
0.0
 10
415.4420643238403
 20
191.9680477273354
 30
0.0
 10
415.4562824527202
 20
192.0154222201799
 30
0.0
  0
SPLINE
  5
221
330
1F
100
AcDbEntity
  8
0
  6
Continuous
 62
     7
370
    15
100
AcDbSpline
210
0.0
220
0.0
230
1.0
 70
     8
 71
     3
 72
     9
 73
     5
 74
     0
 42
0.00000001
 43
0.00000001
 40
0.0
 40
0.0
 40
0.0
 40
0.0
 40
0.0629141936475044
 40
1.0
 40
1.0
 40
1.0
 40
1.0
 10
417.1471023122249
 20
189.254026572058
 30
0.0
 10
417.1495309653733
 20
189.2748709595634
 30
0.0
 10
417.1881335923419
 20
189.6061855055646
 30
0.0
 10
417.2269151843307
 20
189.9453888482111
 30
0.0
 10
417.2632568637309
 20
190.2632514860724
 30
0.0
  0
SPLINE
  5
222
330
1F
100
AcDbEntity
  8
0
  6
Continuous
 62
     7
370
    15
100
AcDbSpline
210
0.0
220
0.0
230
1.0
 70
     8
 71
     3
 72
    15
 73
    11
 74
     0
 42
0.00000001
 43
0.00000001
 40
0.0
 40
0.0
 40
0.0
 40
0.0
 40
0.1246430548089231
 40
0.2472956204604016
 40
0.3712362790201471
 40
0.5003210580737739
 40
0.626243063898115
 40
0.7490937111281816
 40
0.8723560729658878
 40
0.9999999999999999
 40
0.9999999999999999
 40
0.9999999999999999
 40
0.9999999999999999
 10
417.263182357925
 20
190.2632514860724
 30
0.0
 10
417.2697373622384
 20
190.2801933529989
 30
0.0
 10
417.2827426906243
 20
190.3138065334505
 30
0.0
 10
417.3825983535614
 20
190.357592837478
 30
0.0
 10
417.5289223480295
 20
190.3895775093044
 30
0.0
 10
417.7103712669492
 20
190.4045446472086
 30
0.0
 10
417.898194346331
 20
190.4001749755085
 30
0.0
 10
418.0637806842606
 20
190.3776872065628
 30
0.0
 10
418.1958985251211
 20
190.3405290466997
 30
0.0
 10
418.2337405572915
 20
190.3078478502896
 30
0.0
 10
418.2529919902263
 20
190.2912218969558
 30
0.0
  0
SPLINE
  5
223
330
1F
100
AcDbEntity
  8
0
  6
Continuous
 62
     7
370
    15
100
AcDbSpline
210
0.0
220
0.0
230
1.0
 70
    24
 71
     1
 72
     4
 73
     2
 74
     0
 42
0.00000001
 43
0.00000001
 40
0.0
 40
0.0
 40
1.0
 40
1.0
 10
418.2529919902263
 20
190.2912218969558
 30
0.0
 10
418.2633333960948
 20
190.2632514860724
 30
0.0
  0
SPLINE
  5
224
330
1F
100
AcDbEntity
  8
0
  6
Continuous
 62
     7
370
    15
100
AcDbSpline
210
0.0
220
0.0
230
1.0
 70
    24
 71
     1
 72
     4
 73
     2
 74
     0
 42
0.00000001
 43
0.00000001
 40
0.0
 40
0.0
 40
1.0
 40
1.0
 10
418.2633333960948
 20
190.2632514860724
 30
0.0
 10
418.2363473931728
 20
190.2229252185915
 30
0.0
  0
SPLINE
  5
225
330
1F
100
AcDbEntity
  8
0
  6
Continuous
 62
     7
370
    15
100
AcDbSpline
210
0.0
220
0.0
230
1.0
 70
    24
 71
     1
 72
     4
 73
     2
 74
     0
 42
0.00000001
 43
0.00000001
 40
0.0
 40
0.0
 40
1.0
 40
1.0
 10
417.2735237637935
 20
190.2352810751889
 30
0.0
 10
417.263182357925
 20
190.2632514860724
 30
0.0
  0
SPLINE
  5
226
330
1F
100
AcDbEntity
  8
0
  6
Continuous
 62
     7
370
    15
100
AcDbSpline
210
0.0
220
0.0
230
1.0
 70
     8
 71
     3
 72
    15
 73
    11
 74
     0
 42
0.00000001
 43
0.00000001
 40
0.0
 40
0.0
 40
0.0
 40
0.0
 40
0.1260144980055467
 40
0.2487411716803462
 40
0.371981302776187
 40
0.5000507038299812
 40
0.6267203803242548
 40
0.7495741073956802
 40
0.8726080724839811
 40
1.0
 40
1.0
 40
1.0
 40
1.0
 10
403.3432328263698
 20
191.8649409812186
 30
0.0
 10
403.3504465852241
 20
191.8117060005749
 30
0.0
 10
403.3646858898918
 20
191.706624984745
 30
0.0
 10
403.4738197434788
 20
191.5725325492081
 30
0.0
 10
403.6303921218554
 20
191.4787058450855
 30
0.0
 10
403.8218604469051
 20
191.4407859976126
 30
0.0
 10
404.0161270268705
 20
191.4654454562026
 30
0.0
 10
404.1811330371202
 20
191.5474763347849
 30
0.0
 10
404.3043057783169
 20
191.673761418681
 30
0.0
 10
404.3290322453377
 20
191.7782639775525
 30
0.0
 10
404.3416106263576
 20
191.8314245444034
 30
0.0
  0
SPLINE
  5
227
330
1F
100
AcDbEntity
  8
0
  6
Continuous
 62
     7
370
    15
100
AcDbSpline
210
0.0
220
0.0
230
1.0
 70
    24
 71
     1
 72
     4
 73
     2
 74
     0
 42
0.00000001
 43
0.00000001
 40
0.0
 40
0.0
 40
1.0
 40
1.0
 10
404.3416106263576
 20
191.8314245444034
 30
0.0
 10
404.3432795564113
 20
191.8649409812186
 30
0.0
  0
SPLINE
  5
228
330
1F
100
AcDbEntity
  8
0
  6
Continuous
 62
     7
370
    15
100
AcDbSpline
210
0.0
220
0.0
230
1.0
 70
     8
 71
     3
 72
    12
 73
     8
 74
     0
 42
0.00000001
 43
0.00000001
 40
0.0
 40
0.0
 40
0.0
 40
0.0
 40
0.1296073877948626
 40
0.2706470112228183
 40
0.5276059841535764
 40
0.7721122544806305
 40
1.0
 40
1.0
 40
1.0
 40
1.0
 10
418.1450330773769
 20
192.8665672343467
 30
0.0
 10
418.1480812543763
 20
192.7514923261643
 30
0.0
 10
418.1544464779072
 20
192.5111921357491
 30
0.0
 10
418.199703165276
 20
192.0197086857208
 30
0.0
 10
418.2497266454617
 20
191.4844979862892
 30
0.0
 10
418.2905045910777
 20
190.896152040685
 30
0.0
 10
418.2651994508632
 20
190.4880800392874
 30
0.0
 10
418.2529919902263
 20
190.2912218969558
 30
0.0
  0
SPLINE
  5
229
330
1F
100
AcDbEntity
  8
0
  6
Continuous
 62
     7
370
    15
100
AcDbSpline
210
0.0
220
0.0
230
1.0
 70
     8
 71
     3
 72
    13
 73
     9
 74
     0
 42
0.00000001
 43
0.00000001
 40
0.0
 40
0.0
 40
0.0
 40
0.0
 40
0.1478196662468932
 40
0.3276411469892819
 40
0.5087731618082587
 40
0.6888573147314568
 40
0.869661283743865
 40
1.0
 40
1.0
 40
1.0
 40
1.0
 10
409.6704744855347
 20
187.9268639635537
 30
0.0
 10
409.7005844965715
 20
187.6929472173842
 30
0.0
 10
409.7673231031619
 20
187.1744725586267
 30
0.0
 10
409.8673256909224
 20
186.5914056779834
 30
0.0
 10
409.9779741472852
 20
186.225005239309
 30
0.0
 10
410.0852368929474
 20
186.1811612445719
 30
0.0
 10
410.1847552156157
 20
186.3969258198051
 30
0.0
 10
410.2470440477822
 20
186.7363491174689
 30
0.0
 10
410.2731370488587
 20
186.8785346772764
 30
0.0
  0
SPLINE
  5
22A
330
1F
100
AcDbEntity
  8
0
  6
Continuous
 62
     7
370
    15
100
AcDbSpline
210
0.0
220
0.0
230
1.0
 70
     8
 71
     3
 72
     9
 73
     5
 74
     0
 42
0.00000001
 43
0.00000001
 40
0.0
 40
0.0
 40
0.0
 40
0.0
 40
0.8206316581121782
 40
1.0
 40
1.0
 40
1.0
 40
1.0
 10
417.0821332494202
 20
191.2776964631174
 30
0.0
 10
417.1061799175666
 20
191.4335429115027
 30
0.0
 10
417.1354825503723
 20
191.6234532651244
 30
0.0
 10
417.1649570274737
 20
191.7023860071259
 30
0.0
 10
417.1702438155594
 20
191.7165440421794
 30
0.0
  0
LINE
  5
22B
330
1F
100
AcDbEntity
  8
0
  6
Continuous
 62
     7
370
    15
100
AcDbLine
 10
425.1821362535
 20
223.8533978265
 30
0.0
 11
425.1821362535
 21
223.8952328366
 31
0.0
  0
SPLINE
  5
22C
330
1F
100
AcDbEntity
  8
0
  6
Continuous
 62
     7
370
    15
100
AcDbSpline
210
0.0
220
0.0
230
1.0
 70
     8
 71
     3
 72
    11
 73
     7
 74
     0
 42
0.00000001
 43
0.00000001
 40
0.0
 40
0.0
 40
0.0
 40
0.0
 40
0.2475724844842149
 40
0.4997225484429001
 40
0.741840823763012
 40
1.0
 40
1.0
 40
1.0
 40
1.0
 10
425.1821362534939
 20
223.8952328365539
 30
0.0
 10
425.6763266087337
 20
223.8978938069139
 30
0.0
 10
426.6738448274922
 20
223.9032649485914
 30
0.0
 10
428.0722304271521
 20
223.9454890419411
 30
0.0
 10
429.3566928783048
 20
224.0102845414114
 30
0.0
 10
430.0146325580358
 20
224.0709225418823
 30
0.0
 10
430.354150489944
 20
224.1022136908267
 30
0.0
  0
SPLINE
  5
22D
330
1F
100
AcDbEntity
  8
0
  6
Continuous
 62
     7
370
    15
100
AcDbSpline
210
0.0
220
0.0
230
1.0
 70
    24
 71
     1
 72
     4
 73
     2
 74
     0
 42
0.00000001
 43
0.00000001
 40
0.0
 40
0.0
 40
1.0
 40
1.0
 10
431.6401952067791
 20
223.9984345536922
 30
0.0
 10
431.6821270743786
 20
223.9949700337146
 30
0.0
  0
LINE
  5
22E
330
1F
100
AcDbEntity
  8
0
  6
Continuous
 62
     7
370
    15
100
AcDbLine
 10
431.6821270744
 20
223.9949700337
 30
0.0
 11
431.6821270744
 21
223.8533978265
 31
0.0
  0
LINE
  5
22F
330
1F
100
AcDbEntity
  8
0
  6
Continuous
 62
     7
370
    15
100
AcDbLine
 10
431.6821270744
 20
223.8533978265
 30
0.0
 11
425.1821362535
 21
223.8533978265
 31
0.0
  0
LINE
  5
230
330
1F
100
AcDbEntity
  8
0
  6
Continuous
 62
     7
370
    15
100
AcDbLine
 10
396.1821296374
 20
223.8952328366
 30
0.0
 11
396.1821296374
 21
224.3933302265
 31
0.0
  0
LINE
  5
231
330
1F
100
AcDbEntity
  8
0
  6
Continuous
 62
     7
370
    15
100
AcDbLine
 10
425.1821362535
 20
224.3933302265
 30
0.0
 11
396.1821296374
 21
224.3933302265
 31
0.0
  0
LINE
  5
232
330
1F
100
AcDbEntity
  8
0
  6
Continuous
 62
     7
370
    15
100
AcDbLine
 10
425.1821362535
 20
224.3933302265
 30
0.0
 11
425.1821362535
 21
223.8952328366
 31
0.0
  0
LINE
  5
233
330
1F
100
AcDbEntity
  8
0
  6
Continuous
 62
     7
370
    15
100
AcDbLine
 10
425.1821362535
 20
223.8952328366
 30
0.0
 11
396.1821296374
 21
223.8952328366
 31
0.0
  0
LINE
  5
234
330
1F
100
AcDbEntity
  8
0
  6
Continuous
 62
     7
370
    15
100
AcDbLine
 10
396.1821296374
 20
223.8533978265
 30
0.0
 11
425.1821362535
 21
223.8533978265
 31
0.0
  0
LINE
  5
235
330
1F
100
AcDbEntity
  8
0
  6
Continuous
 62
     7
370
    15
100
AcDbLine
 10
396.1821296374
 20
223.8952328366
 30
0.0
 11
396.1821296374
 21
223.8533978265
 31
0.0
  0
LINE
  5
236
330
1F
100
AcDbEntity
  8
0
  6
Continuous
 62
     7
370
    15
100
AcDbLine
 10
389.6821313659
 20
223.8533978265
 30
0.0
 11
389.6821313659
 21
223.9949700337
 31
0.0
  0
SPLINE
  5
237
330
1F
100
AcDbEntity
  8
0
  6
Continuous
 62
     7
370
    15
100
AcDbSpline
210
0.0
220
0.0
230
1.0
 70
     8
 71
     3
 72
    11
 73
     7
 74
     0
 42
0.00000001
 43
0.00000001
 40
0.0
 40
0.0
 40
0.0
 40
0.0
 40
0.2430053800410812
 40
0.490650878910363
 40
0.7429713999649755
 40
1.0
 40
1.0
 40
1.0
 40
1.0
 10
389.682131365913
 20
223.9949700337146
 30
0.0
 10
389.6977021803216
 20
223.9962747749507
 30
0.0
 10
389.729141129425
 20
223.9989091710868
 30
0.0
 10
389.9892116040483
 20
224.0201066732897
 30
0.0
 10
390.3970498388946
 20
224.0528597486318
 30
0.0
 10
390.8044998490373
 20
224.0856613116031
 30
0.0
 10
391.0101079503474
 20
224.1022136908267
 30
0.0
  0
SPLINE
  5
238
330
1F
100
AcDbEntity
  8
0
  6
Continuous
 62
     7
370
    15
100
AcDbSpline
210
0.0
220
0.0
230
1.0
 70
     8
 71
     3
 72
    11
 73
     7
 74
     0
 42
0.00000001
 43
0.00000001
 40
0.0
 40
0.0
 40
0.0
 40
0.0
 40
0.258155335912621
 40
0.5002778669165385
 40
0.7524253073652231
 40
0.9999999999999999
 40
0.9999999999999999
 40
0.9999999999999999
 40
0.9999999999999999
 10
391.0101079503474
 20
224.1022136908267
 30
0.0
 10
391.3496214140405
 20
224.0709243647256
 30
0.0
 10
392.0075627686337
 20
224.0102889443349
 30
0.0
 10
393.2920237140424
 20
223.9454885525374
 30
0.0
 10
394.6904148083928
 20
223.9032648825496
 30
0.0
 10
395.6879339877047
 20
223.8978938023846
 30
0.0
 10
396.1821296373782
 20
223.8952328365539
 30
0.0
  0
LINE
  5
239
330
1F
100
AcDbEntity
  8
0
  6
Continuous
 62
     7
370
    15
100
AcDbLine
 10
396.1821296374
 20
223.8533978265
 30
0.0
 11
389.6821313659
 21
223.8533978265
 31
0.0
  0
SPLINE
  5
23A
330
1F
100
AcDbEntity
  8
0
  6
Continuous
 62
     7
370
    15
100
AcDbSpline
210
0.0
220
0.0
230
1.0
 70
     8
 71
     3
 72
    11
 73
     7
 74
     0
 42
0.00000001
 43
0.00000001
 40
0.0
 40
0.0
 40
0.0
 40
0.0
 40
0.2503151053061053
 40
0.5001258788417788
 40
0.7659093998669745
 40
1.0
 40
1.0
 40
1.0
 40
1.0
 10
391.0101079503474
 20
224.1022136908267
 30
0.0
 10
391.0158827650666
 20
224.1649744752778
 30
0.0
 10
391.0274207594798
 20
224.2903695945295
 30
0.0
 10
391.1143126576129
 20
224.4544904632223
 30
0.0
 10
391.2378097916776
 20
224.5702369518613
 30
0.0
 10
391.3366437154612
 20
224.5918254385066
 30
0.0
 10
391.3829275528369
 20
224.6019353073333
 30
0.0
  0
SPLINE
  5
23B
330
1F
100
AcDbEntity
  8
0
  6
Continuous
 62
     7
370
    15
100
AcDbSpline
210
0.0
220
0.0
230
1.0
 70
    24
 71
     1
 72
     4
 73
     2
 74
     0
 42
0.00000001
 43
0.00000001
 40
0.0
 40
0.0
 40
1.0
 40
1.0
 10
391.3891785899577
 20
224.6024829250072
 30
0.0
 10
391.3829275528369
 20
224.6019353073333
 30
0.0
  0
SPLINE
  5
23C
330
1F
100
AcDbEntity
  8
0
  6
Continuous
 62
     7
370
    15
100
AcDbSpline
210
0.0
220
0.0
230
1.0
 70
     8
 71
     3
 72
    11
 73
     7
 74
     0
 42
0.00000001
 43
0.00000001
 40
0.0
 40
0.0
 40
0.0
 40
0.0
 40
0.2497846758640487
 40
0.4996684834196475
 40
0.7497260363809296
 40
1.0
 40
1.0
 40
1.0
 40
1.0
 10
396.1821296373782
 20
224.3933302264903
 30
0.0
 10
395.7191820128464
 20
224.3960303075859
 30
0.0
 10
394.793103034413
 20
224.4014315413545
 30
0.0
 10
393.4827210938013
 20
224.4448673222478
 30
0.0
 10
392.2980321103152
 20
224.5103345062445
 30
0.0
 10
391.6922171087128
 20
224.5717579295025
 30
0.0
 10
391.3891785899577
 20
224.6024829250072
 30
0.0
  0
SPLINE
  5
23D
330
1F
100
AcDbEntity
  8
0
  6
Continuous
 62
     7
370
    15
100
AcDbSpline
210
0.0
220
0.0
230
1.0
 70
     8
 71
     3
 72
    12
 73
     8
 74
     0
 42
0.00000001
 43
0.00000001
 40
0.0
 40
0.0
 40
0.0
 40
0.0
 40
0.233844741865382
 40
0.4993664170685926
 40
0.7489298974925642
 40
0.9111543443844244
 40
1.0
 40
1.0
 40
1.0
 40
1.0
 10
429.9813383380352
 20
224.6019353073333
 30
0.0
 10
430.0275621213674
 20
224.5918261567087
 30
0.0
 10
430.1262712258862
 20
224.5702384558833
 30
0.0
 10
430.250761716803
 20
224.4545225958092
 30
0.0
 10
430.3244351214393
 20
224.3091084095443
 30
0.0
 10
430.351004377286
 20
224.1869714822052
 30
0.0
 10
430.3533281731345
 20
224.1243673020189
 30
0.0
 10
430.354150489944
 20
224.1022136908267
 30
0.0
  0
SPLINE
  5
23E
330
1F
100
AcDbEntity
  8
0
  6
Continuous
 62
     7
370
    15
100
AcDbSpline
210
0.0
220
0.0
230
1.0
 70
     8
 71
     3
 72
    11
 73
     7
 74
     0
 42
0.00000001
 43
0.00000001
 40
0.0
 40
0.0
 40
0.0
 40
0.0
 40
0.2502742449060241
 40
0.5003309549948665
 40
0.7502150433989161
 40
1.0
 40
1.0
 40
1.0
 40
1.0
 10
429.9750798503338
 20
224.6024829250072
 30
0.0
 10
429.6720411141135
 20
224.571757959438
 30
0.0
 10
429.0662270386364
 20
224.5103347340031
 30
0.0
 10
427.881543708279
 20
224.444867139821
 30
0.0
 10
426.5711626377226
 20
224.4014315706605
 30
0.0
 10
425.6450838051231
 20
224.3960303173533
 30
0.0
 10
425.1821362534938
 20
224.3933302264903
 30
0.0
  0
SPLINE
  5
23F
330
1F
100
AcDbEntity
  8
0
  6
Continuous
 62
     7
370
    15
100
AcDbSpline
210
0.0
220
0.0
230
1.0
 70
    24
 71
     1
 72
     4
 73
     2
 74
     0
 42
0.00000001
 43
0.00000001
 40
0.0
 40
0.0
 40
1.0
 40
1.0
 10
429.9813383380352
 20
224.6019353073333
 30
0.0
 10
429.9750798503338
 20
224.6024829250072
 30
0.0
  0
SPLINE
  5
240
330
1F
100
AcDbEntity
  8
0
  6
Continuous
 62
     7
370
    15
100
AcDbSpline
210
0.0
220
0.0
230
1.0
 70
    24
 71
     3
 72
    15
 73
    11
 74
     0
 42
0.00000001
 43
0.00000001
 40
0.0
 40
0.0
 40
0.0
 40
0.0
 40
0.1165161293931451
 40
0.2400116291514366
 40
0.3686414075851402
 40
0.5000005626079853
 40
0.6313597176308305
 40
0.75998913182865
 40
0.8834838706068548
 40
1.0
 40
1.0
 40
1.0
 40
1.0
 10
396.1821296373782
 20
223.3533968132232
 30
0.0
 10
395.8161789175
 20
223.3533968132232
 30
0.0
 10
395.0623568593472
 20
223.3533968132232
 30
0.0
 10
393.9441228544329
 20
223.3533968132232
 30
0.0
 10
392.8687585385063
 20
223.3533968132232
 30
0.0
 10
391.9094752474227
 20
223.3533968132232
 30
0.0
 10
391.1290540107343
 20
223.3533968132232
 30
0.0
 10
390.5755160233092
 20
223.3533968132232
 30
0.0
 10
390.2416907783972
 20
223.3533968132232
 30
0.0
 10
390.2015965830129
 20
223.3533968132232
 30
0.0
 10
390.182132379192
 20
223.3533968132232
 30
0.0
  0
ARC
  5
241
330
1F
100
AcDbEntity
  8
0
  6
Continuous
 62
     7
370
    15
100
AcDbCircle
 10
390.182132061
 20
223.8533981155
 30
0.0
 40
0.5
100
AcDbArc
 50
179.9999999882
 51
270.0
  0
LINE
  5
242
330
1F
100
AcDbEntity
  8
0
  6
Continuous
 62
     7
370
    15
100
AcDbLine
 10
396.1821296374
 20
223.3533968132
 30
0.0
 11
396.1821296374
 21
223.8533978265
 31
0.0
  0
SPLINE
  5
243
330
1F
100
AcDbEntity
  8
0
  6
Continuous
 62
     7
370
    15
100
AcDbSpline
210
0.0
220
0.0
230
1.0
 70
    24
 71
     3
 72
    15
 73
    11
 74
     0
 42
0.00000001
 43
0.00000001
 40
0.0
 40
0.0
 40
0.0
 40
0.0
 40
0.1165161172792476
 40
0.2400108432180059
 40
0.3686398798105359
 40
0.4999990211762904
 40
0.6313593917216146
 40
0.7599891567819941
 40
0.8834838827207524
 40
1.0
 40
1.0
 40
1.0
 40
1.0
 10
431.1821335116802
 20
223.3533968132232
 30
0.0
 10
431.1626694468641
 20
223.3533968132232
 30
0.0
 10
431.122575537815
 20
223.3533968132232
 30
0.0
 10
430.7887483447592
 20
223.3533968132232
 30
0.0
 10
430.2352203552472
 20
223.3533968132232
 30
0.0
 10
429.4547970227291
 20
223.3533968132232
 30
0.0
 10
428.4955012886238
 20
223.3533968132232
 30
0.0
 10
427.420138088571
 20
223.3533968132232
 30
0.0
 10
426.3019067275444
 20
223.3533968132232
 30
0.0
 10
425.5480870015056
 20
223.3533968132232
 30
0.0
 10
425.1821362534938
 20
223.3533968132232
 30
0.0
  0
LINE
  5
244
330
1F
100
AcDbEntity
  8
0
  6
Continuous
 62
     7
370
    15
100
AcDbLine
 10
425.1821362535
 20
223.8533978265
 30
0.0
 11
425.1821362535
 21
223.3533968132
 31
0.0
  0
ARC
  5
245
330
1F
100
AcDbEntity
  8
0
  6
Continuous
 62
     7
370
    15
100
AcDbCircle
 10
431.182132061
 20
223.8533981155
 30
0.0
 40
0.5
100
AcDbArc
 50
270.0000000103
 51
359.9999997116
  0
LINE
  5
246
330
1F
100
AcDbEntity
  8
0
  6
Continuous
 62
     7
370
    15
100
AcDbLine
 10
425.1821362535
 20
223.3533968132
 30
0.0
 11
396.1821296374
 21
223.3533968132
 31
0.0
  0
LINE
  5
247
330
1F
100
AcDbEntity
  8
0
  6
Continuous
 62
     7
370
    15
100
AcDbLine
 10
391.38917859
 20
224.602482925
 30
0.0
 11
394.2571603815
 21
224.8533998531
 31
0.0
  0
LINE
  5
248
330
1F
100
AcDbEntity
  8
0
  6
Continuous
 62
     7
370
    15
100
AcDbLine
 10
394.2571603815
 20
224.8533998531
 30
0.0
 11
427.10711296
 21
224.8533998531
 31
0.0
  0
LINE
  5
249
330
1F
100
AcDbEntity
  8
0
  6
Continuous
 62
     7
370
    15
100
AcDbLine
 10
429.9750798503
 20
224.602482925
 30
0.0
 11
427.10711296
 21
224.8533998531
 31
0.0
  0
ARC
  5
24A
330
1F
100
AcDbEntity
  8
0
  6
Continuous
 62
     7
370
    15
100
AcDbCircle
 10
390.182132061
 20
223.9949696045
 30
0.0
 40
0.4999999999999987
100
AcDbArc
 50
94.9999999994
 51
116.9056977288
  0
ARC
  5
24B
330
1F
100
AcDbEntity
  8
0
  6
Continuous
 62
     7
370
    15
100
AcDbCircle
 10
390.182132061
 20
223.9949696045
 30
0.0
 40
0.5
100
AcDbArc
 50
152.3626350839
 51
179.9999999882
  0
SPLINE
  5
24C
330
1F
100
AcDbEntity
  8
0
  6
Continuous
 62
     7
370
    15
100
AcDbSpline
210
0.0
220
0.0
230
1.0
 70
     8
 71
     3
 72
    11
 73
     7
 74
     0
 42
0.00000001
 43
0.00000001
 40
0.0
 40
0.0
 40
0.0
 40
0.0
 40
0.2498809541834663
 40
0.4998119996152458
 40
0.7498407925333361
 40
1.0
 40
1.0
 40
1.0
 40
1.0
 10
390.1385539332805
 20
224.493067423651
 30
0.0
 10
390.1539824666606
 20
224.4944168132768
 30
0.0
 10
390.1848426262312
 20
224.4971158630275
 30
0.0
 10
390.4361650196687
 20
224.5191050606833
 30
0.0
 10
390.8198393723883
 20
224.552673257113
 30
0.0
 10
391.1951988700606
 20
224.5855117699197
 30
0.0
 10
391.3829275528369
 20
224.6019353073333
 30
0.0
  0
SPLINE
  5
24D
330
1F
100
AcDbEntity
  8
0
  6
Continuous
 62
     7
370
    15
100
AcDbSpline
210
0.0
220
0.0
230
1.0
 70
     8
 71
     3
 72
    11
 73
     7
 74
     0
 42
0.00000001
 43
0.00000001
 40
0.0
 40
0.0
 40
0.0
 40
0.0
 40
0.2498809059774855
 40
0.4998120583646177
 40
0.7498417128539144
 40
1.0
 40
1.0
 40
1.0
 40
1.0
 10
431.225704507011
 20
224.493067423651
 30
0.0
 10
431.2102788951449
 20
224.4944168098968
 30
0.0
 10
431.1794245696088
 20
224.4971158537248
 30
0.0
 10
430.9281026357889
 20
224.5191051389
 30
0.0
 10
430.5444167716726
 20
224.5526730738621
 30
0.0
 10
430.1690633256271
 20
224.5855117478171
 30
0.0
 10
429.9813383380352
 20
224.6019353073333
 30
0.0
  0
ARC
  5
24E
330
1F
100
AcDbEntity
  8
0
  6
Continuous
 62
     7
370
    15
100
AcDbCircle
 10
431.182132061
 20
223.9949696045
 30
0.0
 40
0.4999999999999919
100
AcDbArc
 50
359.999999978
 51
29.3744085891
  0
ARC
  5
24F
330
1F
100
AcDbEntity
  8
0
  6
Continuous
 62
     7
370
    15
100
AcDbCircle
 10
431.182132061
 20
223.9949696045
 30
0.0
 40
0.4999999999999897
100
AcDbArc
 50
47.2445245658
 51
85.0000000241
  0
LINE
  5
250
330
1F
100
AcDbEntity
  8
0
  6
Continuous
 62
     7
370
    15
100
AcDbLine
 10
406.512590603
 20
187.3533983629
 30
0.0
 11
405.4285758296
 21
187.3533983629
 31
0.0
  0
LINE
  5
251
330
1F
100
AcDbEntity
  8
0
  6
Continuous
 62
     7
370
    15
100
AcDbLine
 10
404.4480198184
 20
187.3533983629
 30
0.0
 11
395.1821350614
 21
187.3533983629
 31
0.0
  0
LINE
  5
252
330
1F
100
AcDbEntity
  8
0
  6
Continuous
 62
     7
370
    15
100
AcDbLine
 10
395.1821350614
 20
187.3533983629
 30
0.0
 11
395.1821350614
 21
223.3533968132
 31
0.0
  0
LINE
  5
253
330
1F
100
AcDbEntity
  8
0
  6
Continuous
 62
     7
370
    15
100
AcDbLine
 10
426.1821382801
 20
187.3533983629
 30
0.0
 11
426.1821382801
 21
223.3533968132
 31
0.0
  0
LINE
  5
254
330
1F
100
AcDbEntity
  8
0
  6
Continuous
 62
     7
370
    15
100
AcDbLine
 10
414.6821373264
 20
187.3533983629
 30
0.0
 11
414.8210608522
 21
187.3533983629
 31
0.0
  0
LINE
  5
255
330
1F
100
AcDbEntity
  8
0
  6
Continuous
 62
     7
370
    15
100
AcDbLine
 10
415.8210628787
 20
187.3533983629
 30
0.0
 11
416.9086092273
 21
187.3533983629
 31
0.0
  0
LINE
  5
256
330
1F
100
AcDbEntity
  8
0
  6
Continuous
 62
     7
370
    15
100
AcDbLine
 10
417.8933375637
 20
187.3533983629
 30
0.0
 11
426.1821382801
 21
187.3533983629
 31
0.0
  0
LINE
  5
257
330
1F
100
AcDbEntity
  8
0
  6
Continuous
 62
     7
370
    15
100
AcDbLine
 10
414.6821373264
 20
187.3533983629
 30
0.0
 11
414.6821373264
 21
190.3533979234
 31
0.0
  0
LINE
  5
258
330
1F
100
AcDbEntity
  8
0
  6
Continuous
 62
     7
370
    15
100
AcDbLine
 10
414.6821373264
 20
190.3533979234
 30
0.0
 11
415.1960634748
 21
190.3533979234
 31
0.0
  0
LINE
  5
259
330
1F
100
AcDbEntity
  8
0
  6
Continuous
 62
     7
370
    15
100
AcDbLine
 10
416.1960655014
 20
190.3533979234
 30
0.0
 11
417.2690534154
 21
190.3533979234
 31
0.0
  0
LINE
  5
25A
330
1F
100
AcDbEntity
  8
0
  6
Continuous
 62
     7
370
    15
100
AcDbLine
 10
418.1821369687
 20
192.9567509245
 30
0.0
 11
418.1821369687
 21
194.3533976477
 31
0.0
  0
LINE
  5
25B
330
1F
100
AcDbEntity
  8
0
  6
Continuous
 62
     7
370
    15
100
AcDbLine
 10
417.1821349422
 20
194.3533976477
 30
0.0
 11
403.1821363727
 21
194.3533976477
 31
0.0
  0
LINE
  5
25C
330
1F
100
AcDbEntity
  8
0
  6
Continuous
 62
     7
370
    15
100
AcDbLine
 10
403.1821363727
 20
190.3533979234
 30
0.0
 11
403.1821363727
 21
194.3533976477
 31
0.0
  0
LINE
  5
25D
330
1F
100
AcDbEntity
  8
0
  6
Continuous
 62
     7
370
    15
100
AcDbLine
 10
406.6821360151
 20
190.3533979234
 30
0.0
 11
405.8098518411
 21
190.3533979234
 31
0.0
  0
LINE
  5
25E
330
1F
100
AcDbEntity
  8
0
  6
Continuous
 62
     7
370
    15
100
AcDbLine
 10
404.8098498146
 20
190.3533979234
 30
0.0
 11
403.1821363727
 21
190.3533979234
 31
0.0
  0
LINE
  5
25F
330
1F
100
AcDbEntity
  8
0
  6
Continuous
 62
     7
370
    15
100
AcDbLine
 10
406.6821360151
 20
188.6016341772
 30
0.0
 11
406.6821360151
 21
190.3533979234
 31
0.0
  0
CIRCLE
  5
260
330
1F
100
AcDbEntity
  8
0
  6
Continuous
 62
     7
370
    15
100
AcDbCircle
 10
422.182132061
 20
204.5533981155
 30
0.0
 40
3.0
  0
ARC
  5
261
330
1F
100
AcDbEntity
  8
0
  6
Continuous
 62
     7
370
    15
100
AcDbCircle
 10
399.182132061
 20
204.5533981155
 30
0.0
 40
3.000000000000013
100
AcDbArc
 50
90.0
 51
313.5714343855
  0
ARC
  5
262
330
1F
100
AcDbEntity
  8
0
  6
Continuous
 62
     7
370
    15
100
AcDbCircle
 10
399.182132061
 20
204.5533981155
 30
0.0
 40
3.0
100
AcDbArc
 50
46.4285656145
 51
90.0
  0
LINE
  5
263
330
1F
100
AcDbEntity
  8
0
  6
Continuous
 62
     7
370
    15
100
AcDbLine
 10
395.1821350614
 20
223.3533968132
 30
0.0
 11
395.1821350614
 21
223.453398506
 31
0.0
  0
LINE
  5
264
330
1F
100
AcDbEntity
  8
0
  6
Continuous
 62
     7
370
    15
100
AcDbLine
 10
390.1385539333
 20
224.493328194
 30
0.0
 11
394.2541503469
 21
224.8533998531
 31
0.0
  0
LINE
  5
265
330
1F
100
AcDbEntity
  8
0
  6
Continuous
 62
     7
370
    15
100
AcDbLine
 10
394.2541503469
 20
224.8533998531
 30
0.0
 11
394.2571603815
 21
224.8533998531
 31
0.0
  0
LINE
  5
266
330
1F
100
AcDbEntity
  8
0
  6
Continuous
 62
     7
370
    15
100
AcDbLine
 10
427.10711296
 20
224.8533998531
 30
0.0
 11
427.1101080934
 21
224.8533998531
 31
0.0
  0
LINE
  5
267
330
1F
100
AcDbEntity
  8
0
  6
Continuous
 62
     7
370
    15
100
AcDbLine
 10
427.1101080934
 20
224.8533998531
 30
0.0
 11
431.078346924
 21
224.5062214237
 31
0.0
  0
LINE
  5
268
330
1F
100
AcDbEntity
  8
0
  6
Continuous
 62
     7
370
    15
100
AcDbLine
 10
426.1821382801
 20
223.453398506
 30
0.0
 11
426.1821382801
 21
223.3533968132
 31
0.0
  0
LINE
  5
269
330
1F
100
AcDbEntity
  8
0
  6
Continuous
 62
     7
370
    15
100
AcDbLine
 10
417.0821332494
 20
194.3533976477
 30
0.0
 11
417.0821332494
 21
190.3533979234
 31
0.0
  0
LINE
  5
26A
330
1F
100
AcDbEntity
  8
0
  6
Continuous
 62
     7
370
    15
100
AcDbLine
 10
415.6821393529
 20
192.5878745418
 30
0.0
 11
415.6821393529
 21
194.3533976477
 31
0.0
  0
LINE
  5
26B
330
1F
100
AcDbEntity
  8
0
  6
Continuous
 62
     7
370
    15
100
AcDbLine
 10
404.2821251909
 20
192.0946339991
 30
0.0
 11
404.2821251909
 21
194.3533976477
 31
0.0
  0
LINE
  5
26C
330
1F
100
AcDbEntity
  8
0
  6
Continuous
 62
     7
370
    15
100
AcDbLine
 10
405.6821339885
 20
194.3533976477
 30
0.0
 11
405.6821339885
 21
192.8584228184
 31
0.0
  0
LINE
  5
26D
330
1F
100
AcDbEntity
  8
0
  6
Continuous
 62
     7
370
    15
100
AcDbLine
 10
403.5499119321
 20
221.4142379266
 30
0.0
 11
403.5499119321
 21
221.4764465492
 31
0.0
  0
LINE
  5
26E
330
1F
100
AcDbEntity
  8
0
  6
Continuous
 62
     7
370
    15
100
AcDbLine
 10
403.5499119321
 20
220.476448248
 30
0.0
 11
403.5499119321
 21
221.4142379266
 31
0.0
  0
LINE
  5
26F
330
1F
100
AcDbEntity
  8
0
  6
Continuous
 62
     7
370
    15
100
AcDbLine
 10
415.8821278373
 20
221.4764465492
 30
0.0
 11
415.8821278373
 21
221.4142379266
 31
0.0
  0
LINE
  5
270
330
1F
100
AcDbEntity
  8
0
  6
Continuous
 62
     7
370
    15
100
AcDbLine
 10
415.8821278373
 20
221.4142379266
 30
0.0
 11
415.8821278373
 21
220.476448248
 31
0.0
  0
LINE
  5
271
330
1F
100
AcDbEntity
  8
0
  6
Continuous
 62
     7
370
    15
100
AcDbLine
 10
402.2561782161
 20
219.5121009749
 30
0.0
 11
402.2499048273
 21
219.4004018706
 31
0.0
  0
LINE
  5
272
330
1F
100
AcDbEntity
  8
0
  6
Continuous
 62
     7
370
    15
100
AcDbLine
 10
417.1821349422
 20
219.4004018706
 30
0.0
 11
417.1817922155
 21
219.4262963634
 31
0.0
  0
SPLINE
  5
273
330
1F
100
AcDbEntity
  8
0
  6
Continuous
 62
     7
370
    15
100
AcDbSpline
210
0.0
220
0.0
230
1.0
 70
     8
 71
     3
 72
    16
 73
    12
 74
     0
 42
0.00000001
 43
0.00000001
 40
0.0
 40
0.0
 40
0.0
 40
0.0
 40
0.0722607401351983
 40
0.1890093619453644
 40
0.3044299783246994
 40
0.4211060522323942
 40
0.5366188691203735
 40
0.6531694905585337
 40
0.7688178648542119
 40
0.8851920092619707
 40
1.0
 40
1.0
 40
1.0
 40
1.0
 10
417.0260899821697
 20
190.3533979233597
 30
0.0
 10
417.0039300833378
 20
190.5432507926624
 30
0.0
 10
416.9459673731418
 20
191.0398409137056
 30
0.0
 10
416.8477448499439
 20
191.6837163797715
 30
0.0
 10
416.7423014150363
 20
192.1981734772563
 30
0.0
 10
416.6303966797134
 20
192.4130473032531
 30
0.0
 10
416.5244795863743
 20
192.3121762847048
 30
0.0
 10
416.4132291861141
 20
191.9055710260288
 30
0.0
 10
416.3065655235761
 20
191.2350555115318
 30
0.0
 10
416.1966304824547
 20
190.3777912472671
 30
0.0
 10
416.1249637825362
 20
189.7416147669589
 30
0.0
 10
416.089373187202
 20
189.4256814297531
 30
0.0
  0
SPLINE
  5
274
330
1F
100
AcDbEntity
  8
0
  6
Continuous
 62
     7
370
    15
100
AcDbSpline
210
0.0
220
0.0
230
1.0
 70
     8
 71
     3
 72
    16
 73
    12
 74
     0
 42
0.00000001
 43
0.00000001
 40
0.0
 40
0.0
 40
0.0
 40
0.0
 40
0.0607935357012977
 40
0.1788834607761366
 40
0.2955660040532119
 40
0.4136422949206308
 40
0.5303600122378905
 40
0.6483723220372709
 40
0.7651740205125067
 40
0.8830682636441791
 40
1.0
 40
1.0
 40
1.0
 40
1.0
 10
414.9486743966518
 20
190.3533979233597
 30
0.0
 10
414.9302302000463
 20
190.5125718746559
 30
0.0
 10
414.8759586120893
 20
190.9809372517444
 30
0.0
 10
414.7814491614278
 20
191.6148193356121
 30
0.0
 10
414.6762795438253
 20
192.1580484164522
 30
0.0
 10
414.5639538946832
 20
192.4050837757852
 30
0.0
 10
414.4585776648204
 20
192.3375338261658
 30
0.0
 10
414.3466220713101
 20
191.9615450156452
 30
0.0
 10
414.2407537087406
 20
191.3150952404407
 30
0.0
 10
414.1295981807747
 20
190.4721030246622
 30
0.0
 10
414.0580670088372
 20
189.8352621520779
 30
0.0
 10
414.0224480191646
 20
189.5181468602512
 30
0.0
  0
SPLINE
  5
275
330
1F
100
AcDbEntity
  8
0
  6
Continuous
 62
     7
370
    15
100
AcDbSpline
210
0.0
220
0.0
230
1.0
 70
     8
 71
     3
 72
    17
 73
    13
 74
     0
 42
0.00000001
 43
0.00000001
 40
0.0
 40
0.0
 40
0.0
 40
0.0
 40
0.1043756715170405
 40
0.2154629633010334
 40
0.3252902733824266
 40
0.4364220745667084
 40
0.5462292312977076
 40
0.6573585739441045
 40
0.7671920725334884
 40
0.878266956602089
 40
0.9881719298829857
 40
1.0
 40
1.0
 40
1.0
 40
1.0
 10
412.9284345666347
 20
189.8694212462996
 30
0.0
 10
412.8947916827443
 20
190.1646483473882
 30
0.0
 10
412.8253425922459
 20
190.7740864005552
 30
0.0
 10
412.715432372629
 20
191.5462677101761
 30
0.0
 10
412.6100513108361
 20
192.1139073046219
 30
0.0
 10
412.4977229975156
 20
192.3938263700959
 30
0.0
 10
412.3925434002712
 20
192.3594601430228
 30
0.0
 10
412.2801835388889
 20
192.0146074283852
 30
0.0
 10
412.1749115760538
 20
191.3929550095925
 30
0.0
 10
412.0626851298791
 20
190.5683623040461
 30
0.0
 10
411.9889938909427
 20
189.8989616493973
 30
0.0
 10
411.9485996700821
 20
189.5511500083228
 30
0.0
 10
411.9446748057781
 20
189.5173552360628
 30
0.0
  0
SPLINE
  5
276
330
1F
100
AcDbEntity
  8
0
  6
Continuous
 62
     7
370
    15
100
AcDbSpline
210
0.0
220
0.0
230
1.0
 70
     8
 71
     3
 72
    17
 73
    13
 74
     0
 42
0.00000001
 43
0.00000001
 40
0.0
 40
0.0
 40
0.0
 40
0.0
 40
0.1011986982602246
 40
0.2116626380796854
 40
0.3210650143740355
 40
0.4316313516856952
 40
0.5409627684997268
 40
0.6515820660311769
 40
0.7608871933693893
 40
0.8715114040268912
 40
0.9808349343905793
 40
1.0
 40
1.0
 40
1.0
 40
1.0
 10
410.8596169511257
 20
189.793512868533
 30
0.0
 10
410.8267231176706
 20
190.0830587421249
 30
0.0
 10
410.7579238575481
 20
190.6886598467159
 30
0.0
 10
410.6494511600439
 20
191.4729782511102
 30
0.0
 10
410.5436740775811
 20
192.0672268116284
 30
0.0
 10
410.4316367854412
 20
192.3789214345375
 30
0.0
 10
410.3263133826138
 20
192.3780488284849
 30
0.0
 10
410.2139758922094
 20
192.0644626967127
 30
0.0
 10
410.108839530961
 20
191.4690928152237
 30
0.0
 10
409.996318007166
 20
190.6616679908583
 30
0.0
 10
409.9205471255602
 20
189.9788645021222
 30
0.0
 10
409.8776121159766
 20
189.6086592331969
 30
0.0
 10
409.8712080279765
 20
189.5534402605389
 30
0.0
  0
SPLINE
  5
277
330
1F
100
AcDbEntity
  8
0
  6
Continuous
 62
     7
370
    15
100
AcDbSpline
210
0.0
220
0.0
230
1.0
 70
     8
 71
     3
 72
    17
 73
    13
 74
     0
 42
0.00000001
 43
0.00000001
 40
0.0
 40
0.0
 40
0.0
 40
0.0
 40
0.1027216444276518
 40
0.2119153741099667
 40
0.3203744491431819
 40
0.429725354635469
 40
0.5380612499426131
 40
0.6475220481460888
 40
0.7557805795634911
 40
0.8653006585230227
 40
0.9735266706427343
 40
1.0
 40
1.0
 40
1.0
 40
1.0
 10
408.7959402362285
 20
189.6736702796314
 30
0.0
 10
408.7620221876813
 20
189.9723606717867
 30
0.0
 10
408.6920490482615
 20
190.5885607584316
 30
0.0
 10
408.5836368449584
 20
191.3976382996973
 30
0.0
 10
408.4770839312762
 20
192.0173918876858
 30
0.0
 10
408.3657337278116
 20
192.3605990841832
 30
0.0
 10
408.2598922039334
 20
192.3931677219496
 30
0.0
 10
408.1479261329014
 20
192.1111867243095
 30
0.0
 10
408.0425707381993
 20
191.5428912981422
 30
0.0
 10
407.9301670575944
 20
190.7536074376439
 30
0.0
 10
407.851973860645
 20
190.0577590505063
 30
0.0
 10
407.8064250336777
 20
189.6645729573389
 30
0.0
 10
407.7974730292735
 20
189.5872975614164
 30
0.0
  0
SPLINE
  5
278
330
1F
100
AcDbEntity
  8
0
  6
Continuous
 62
     7
370
    15
100
AcDbSpline
210
0.0
220
0.0
230
1.0
 70
     8
 71
     3
 72
    15
 73
    11
 74
     0
 42
0.00000001
 43
0.00000001
 40
0.0
 40
0.0
 40
0.0
 40
0.0
 40
0.0770707195724719
 40
0.222236027695987
 40
0.3658761282692093
 40
0.5111414812219803
 40
0.6547182584264516
 40
0.8000220210150841
 40
0.9435937756781038
 40
1.0
 40
1.0
 40
1.0
 40
1.0
 10
403.9373570243297
 20
187.3533983629439
 30
0.0
 10
403.9564258883518
 20
187.2326996753874
 30
0.0
 10
404.0114116029844
 20
186.8846609257884
 30
0.0
 10
404.1060022641865
 20
186.5875638343227
 30
0.0
 10
404.2114816489346
 20
186.5012762509785
 30
0.0
 10
404.3237319960352
 20
186.7425902444607
 30
0.0
 10
404.4289230070842
 20
187.2731624229782
 30
0.0
 10
404.5413475851742
 20
188.0363592755537
 30
0.0
 10
404.6248917969712
 20
188.765554292327
 30
0.0
 10
404.6759080444203
 20
189.2070554161392
 30
0.0
 10
404.6902977982936
 20
189.3315861847494
 30
0.0
  0
SPLINE
  5
279
330
1F
100
AcDbEntity
  8
0
  6
Continuous
 62
     7
370
    15
100
AcDbSpline
210
0.0
220
0.0
230
1.0
 70
     8
 71
     3
 72
    15
 73
    11
 74
     0
 42
0.00000001
 43
0.00000001
 40
0.0
 40
0.0
 40
0.0
 40
0.0
 40
0.0623774180902111
 40
0.207563718131996
 40
0.3515725902502269
 40
0.4969369121798714
 40
0.6408131879425745
 40
0.786289451539483
 40
0.9300920320880333
 40
1.0
 40
1.0
 40
1.0
 40
1.0
 10
406.014727906364
 20
187.3533983629439
 30
0.0
 10
406.030214180044
 20
187.2532482065405
 30
0.0
 10
406.0817454656191
 20
186.919993970135
 30
0.0
 10
406.1718803803035
 20
186.6151208280506
 30
0.0
 10
406.2779979245133
 20
186.4940035005461
 30
0.0
 10
406.389692410118
 20
186.703399337503
 30
0.0
 10
406.495275829973
 20
187.2053401891783
 30
0.0
 10
406.6074318524488
 20
187.9478980835649
 30
0.0
 10
406.6943798847673
 20
188.6950472615503
 30
0.0
 10
406.7488741896399
 20
189.1668159132253
 30
0.0
 10
406.7667001048503
 20
189.3211386081074
 30
0.0
  0
SPLINE
  5
27A
330
1F
100
AcDbEntity
  8
0
  6
Continuous
 62
     7
370
    15
100
AcDbSpline
210
0.0
220
0.0
230
1.0
 70
     8
 71
     3
 72
    17
 73
    13
 74
     0
 42
0.00000001
 43
0.00000001
 40
0.0
 40
0.0
 40
0.0
 40
0.0
 40
0.0870700791576528
 40
0.1926723512355455
 40
0.2986957000352182
 40
0.4044940045930641
 40
0.5102903487217092
 40
0.616315006295851
 40
0.7219160184405324
 40
0.8281317427750703
 40
0.9335803957252917
 40
0.9999999999999999
 40
0.9999999999999999
 40
0.9999999999999999
 40
0.9999999999999999
 10
409.8875844041286
 20
189.5519454878066
 30
0.0
 10
409.9176849785375
 20
189.2886802692513
 30
0.0
 10
409.9842928018105
 20
188.7061158665503
 30
0.0
 10
410.0852858776113
 20
187.8662234200759
 30
0.0
 10
410.194858185977
 20
187.144039066448
 30
0.0
 10
410.3032482084923
 20
186.6692285780794
 30
0.0
 10
410.4116592006944
 20
186.4929130495871
 30
0.0
 10
410.5212708418009
 20
186.6342533938895
 30
0.0
 10
410.6285490596833
 20
187.0780182038682
 30
0.0
 10
410.7391913219597
 20
187.7766941069969
 30
0.0
 10
410.8323348598317
 20
188.5430273660694
 30
0.0
 10
410.8919829700155
 20
189.0612267939564
 30
0.0
 10
410.9150343696056
 20
189.2614883285258
 30
0.0
  0
SPLINE
  5
27B
330
1F
100
AcDbEntity
  8
0
  6
Continuous
 62
     7
370
    15
100
AcDbSpline
210
0.0
220
0.0
230
1.0
 70
     8
 71
     3
 72
    18
 73
    14
 74
     0
 42
0.00000001
 43
0.00000001
 40
0.0
 40
0.0
 40
0.0
 40
0.0
 40
0.045165474166572
 40
0.1502993036846032
 40
0.2565193334971895
 40
0.3617499074920049
 40
0.4678420976091674
 40
0.5732108952357151
 40
0.6791276920316324
 40
0.784678411469069
 40
0.8903733952114824
 40
0.9961462824420767
 40
1.0
 40
1.0
 40
1.0
 40
1.0
 10
414.0634858170925
 20
189.3722579729055
 30
0.0
 10
414.0792263306116
 20
189.2359827987562
 30
0.0
 10
414.1316067885879
 20
188.7824933986759
 30
0.0
 10
414.2167857624739
 20
188.0413590236923
 30
0.0
 10
414.3285326421636
 20
187.277042296662
 30
0.0
 10
414.4346382587981
 20
186.7445655965158
 30
0.0
 10
414.5456559519064
 20
186.5036294590845
 30
0.0
 10
414.6525686975491
 20
186.5790586229876
 30
0.0
 10
414.7625968934603
 20
186.9620652549251
 30
0.0
 10
414.8705930013895
 20
187.6138615968418
 30
0.0
 10
414.9793686736162
 20
188.4591115552435
 30
0.0
 10
415.0536105025348
 20
189.1146605980023
 30
0.0
 10
415.0910501727014
 20
189.4402649542988
 30
0.0
 10
415.092366294044
 20
189.4517109643911
 30
0.0
  0
SPLINE
  5
27C
330
1F
100
AcDbEntity
  8
0
  6
Continuous
 62
     7
370
    15
100
AcDbSpline
210
0.0
220
0.0
230
1.0
 70
     8
 71
     3
 72
    14
 73
    10
 74
     0
 42
0.00000001
 43
0.00000001
 40
0.0
 40
0.0
 40
0.0
 40
0.0
 40
0.1368814413917033
 40
0.2830632524149663
 40
0.4278302880651869
 40
0.5738443472192373
 40
0.7187947540420703
 40
0.864577764940408
 40
1.0
 40
1.0
 40
1.0
 40
1.0
 10
416.3999878922878
 20
187.3533983629439
 30
0.0
 10
416.4334962279232
 20
187.163484221493
 30
0.0
 10
416.5027896132905
 20
186.7707522776143
 30
0.0
 10
416.6122295997086
 20
186.5174056247443
 30
0.0
 10
416.7183685576859
 20
186.5555281141632
 30
0.0
 10
416.8294481598103
 20
186.9087179347352
 30
0.0
 10
416.9362759171098
 20
187.5353928155266
 30
0.0
 10
417.0439387346848
 20
188.3459395199405
 30
0.0
 10
417.1135696172306
 20
188.9588583850578
 30
0.0
 10
417.1471023122249
 20
189.254026572058
 30
0.0
  0
SPLINE
  5
27D
330
1F
100
AcDbEntity
  8
0
  6
Continuous
 62
     7
370
    15
100
AcDbSpline
210
0.0
220
0.0
230
1.0
 70
     8
 71
     3
 72
     9
 73
     5
 74
     0
 42
0.00000001
 43
0.00000001
 40
0.0
 40
0.0
 40
0.0
 40
0.0
 40
0.7266224030416429
 40
1.0
 40
1.0
 40
1.0
 40
1.0
 10
417.2735237637935
 20
190.2352810751889
 30
0.0
 10
417.2930550784147
 20
190.5143065932068
 30
0.0
 10
417.3199346716387
 20
190.8983100547706
 30
0.0
 10
417.3014268639065
 20
191.2580962666244
 30
0.0
 10
417.2963672439037
 20
191.3564537566398
 30
0.0
  0
SPLINE
  5
27E
330
1F
100
AcDbEntity
  8
0
  6
Continuous
 62
     7
370
    15
100
AcDbSpline
210
0.0
220
0.0
230
1.0
 70
     8
 71
     3
 72
     9
 73
     5
 74
     0
 42
0.00000001
 43
0.00000001
 40
0.0
 40
0.0
 40
0.0
 40
0.0
 40
0.5181970744673963
 40
1.0
 40
1.0
 40
1.0
 40
1.0
 10
401.3104015151439
 20
192.8427142005656
 30
0.0
 10
401.3172430920962
 20
192.7593456508851
 30
0.0
 10
401.3304457466257
 20
192.5984637127418
 30
0.0
 10
401.4055834757029
 20
192.508236573152
 30
0.0
 10
401.44178505339
 20
192.4647648733352
 30
0.0
  0
SPLINE
  5
27F
330
1F
100
AcDbEntity
  8
0
  6
Continuous
 62
     7
370
    15
100
AcDbSpline
210
0.0
220
0.0
230
1.0
 70
     8
 71
     3
 72
    13
 73
     9
 74
     0
 42
0.00000001
 43
0.00000001
 40
0.0
 40
0.0
 40
0.0
 40
0.0
 40
0.150446253479585
 40
0.3179141355046767
 40
0.6046691937681578
 40
0.7636814101209732
 40
0.9075008687015373
 40
1.0
 40
1.0
 40
1.0
 40
1.0
 10
404.3416106263576
 20
191.8314245444034
 30
0.0
 10
404.2977010707447
 20
191.9224532077554
 30
0.0
 10
404.2049139917033
 20
192.1148096017924
 30
0.0
 10
403.7910340724102
 20
192.253880991013
 30
0.0
 10
403.313898154738
 20
192.3195970350862
 30
0.0
 10
402.844813038475
 20
192.4117361483357
 30
0.0
 10
402.5279579878988
 20
192.4995244502843
 30
0.0
 10
402.3885616409053
 20
192.6427232030474
 30
0.0
 10
402.3339995304523
 20
192.6987736400459
 30
0.0
  0
SPLINE
  5
280
330
1F
100
AcDbEntity
  8
0
  6
Continuous
 62
     7
370
    15
100
AcDbSpline
210
0.0
220
0.0
230
1.0
 70
     8
 71
     3
 72
    13
 73
     9
 74
     0
 42
0.00000001
 43
0.00000001
 40
0.0
 40
0.0
 40
0.0
 40
0.0
 40
0.0864110525645662
 40
0.2965087825640456
 40
0.5054068691456328
 40
0.715836318352892
 40
0.9244726636725737
 40
0.9999999999999999
 40
0.9999999999999999
 40
0.9999999999999999
 40
0.9999999999999999
 10
403.5156541625443
 20
187.3533983629439
 30
0.0
 10
403.5305203788899
 20
187.2442041939726
 30
0.0
 10
403.5815319518211
 20
186.8695179803009
 30
0.0
 10
403.6702874266993
 20
186.452180439402
 30
0.0
 10
403.777047127604
 20
186.1719121348049
 30
0.0
 10
403.8882027830643
 20
186.2353540547506
 30
0.0
 10
403.971383215028
 20
186.4791950697775
 30
0.0
 10
404.0211979292762
 20
186.7725862365933
 30
0.0
 10
404.0344380895081
 20
186.8505661290382
 30
0.0
  0
SPLINE
  5
281
330
1F
100
AcDbEntity
  8
0
  6
Continuous
 62
     7
370
    15
100
AcDbSpline
210
0.0
220
0.0
230
1.0
 70
     8
 71
     3
 72
    13
 73
     9
 74
     0
 42
0.00000001
 43
0.00000001
 40
0.0
 40
0.0
 40
0.0
 40
0.0
 40
0.0653978227827027
 40
0.2740430187021072
 40
0.4824044196973286
 40
0.6914846192717071
 40
0.8994871754243603
 40
1.0
 40
1.0
 40
1.0
 40
1.0
 10
405.5929505387726
 20
187.3533983629439
 30
0.0
 10
405.6043301591488
 20
187.2689945438935
 30
0.0
 10
405.6520153172604
 20
186.915308803629
 30
0.0
 10
405.7359473322112
 20
186.4981846899476
 30
0.0
 10
405.8439249945408
 20
186.1855035703413
 30
0.0
 10
405.9539164240997
 20
186.2138064610168
 30
0.0
 10
406.0423122577227
 20
186.4512418614454
 30
0.0
 10
406.0964732584462
 20
186.7624065661366
 30
0.0
 10
406.1141186515275
 20
186.8637825276945
 30
0.0
  0
SPLINE
  5
282
330
1F
100
AcDbEntity
  8
0
  6
Continuous
 62
     7
370
    15
100
AcDbSpline
210
0.0
220
0.0
230
1.0
 70
     8
 71
     3
 72
    10
 73
     6
 74
     0
 42
0.00000001
 43
0.00000001
 40
0.0
 40
0.0
 40
0.0
 40
0.0
 40
0.0615441640842054
 40
0.7670597292264136
 40
1.0
 40
1.0
 40
1.0
 40
1.0
 10
406.5970950881425
 20
190.6474304300044
 30
0.0
 10
406.6002787746831
 20
190.6727111482209
 30
0.0
 10
406.639958860879
 20
190.9877990393035
 30
0.0
 10
406.6887896879228
 20
191.3316375994946
 30
0.0
 10
406.737538110075
 20
191.5200560477342
 30
0.0
 10
406.7496382752839
 20
191.5668246250842
 30
0.0
  0
SPLINE
  5
283
330
1F
100
AcDbEntity
  8
0
  6
Continuous
 62
     7
370
    15
100
AcDbSpline
210
0.0
220
0.0
230
1.0
 70
     8
 71
     3
 72
    13
 73
     9
 74
     0
 42
0.00000001
 43
0.00000001
 40
0.0
 40
0.0
 40
0.0
 40
0.0
 40
0.1677133952228095
 40
0.348212432901059
 40
0.5293195973690437
 40
0.7101641801866745
 40
0.8908853432184881
 40
1.0
 40
1.0
 40
1.0
 40
1.0
 10
407.5923734466019
 20
187.9250981759523
 30
0.0
 10
407.6262788428155
 20
187.6642472583081
 30
0.0
 10
407.6966744155022
 20
187.1226594350058
 30
0.0
 10
407.8016269244293
 20
186.5397867917844
 30
0.0
 10
407.9110068550588
 20
186.2044777315512
 30
0.0
 10
408.0195678388416
 20
186.195423684829
 30
0.0
 10
408.1134796783071
 20
186.4239547771943
 30
0.0
 10
408.1718206524843
 20
186.7506604186825
 30
0.0
 10
408.1937843123857
 20
186.873655478308
 30
0.0
  0
SPLINE
  5
284
330
1F
100
AcDbEntity
  8
0
  6
Continuous
 62
     7
370
    15
100
AcDbSpline
210
0.0
220
0.0
230
1.0
 70
     8
 71
     3
 72
    13
 73
     9
 74
     0
 42
0.00000001
 43
0.00000001
 40
0.0
 40
0.0
 40
0.0
 40
0.0
 40
0.1287986137991458
 40
0.3076032299114405
 40
0.4882033629702956
 40
0.6671848728354141
 40
0.8475507793589975
 40
1.0
 40
1.0
 40
1.0
 40
1.0
 10
411.7479347745362
 20
187.9319433968757
 30
0.0
 10
411.7743607418681
 20
187.7243273990203
 30
0.0
 10
411.8374725461419
 20
187.2284885880435
 30
0.0
 10
411.9331533941475
 20
186.6461227105617
 30
0.0
 10
412.0446941869203
 20
186.2489686275359
 30
0.0
 10
412.1509975989036
 20
186.1703859617756
 30
0.0
 10
412.2562246304854
 20
186.3712325414276
 30
0.0
 10
412.322676641303
 20
186.7224165154048
 30
0.0
 10
412.353115634102
 20
186.8832797657941
 30
0.0
  0
SPLINE
  5
285
330
1F
100
AcDbEntity
  8
0
  6
Continuous
 62
     7
370
    15
100
AcDbSpline
210
0.0
220
0.0
230
1.0
 70
     8
 71
     3
 72
     9
 73
     5
 74
     0
 42
0.00000001
 43
0.00000001
 40
0.0
 40
0.0
 40
0.0
 40
0.0
 40
0.6110674403485525
 40
1.0
 40
1.0
 40
1.0
 40
1.0
 10
412.8308915654603
 20
190.6470541756843
 30
0.0
 10
412.8580837176513
 20
190.8564962821681
 30
0.0
 10
412.9025831466757
 20
191.199244222337
 30
0.0
 10
412.9477808036546
 20
191.4023966952042
 30
0.0
 10
412.9653596440735
 20
191.4814093064759
 30
0.0
  0
SPLINE
  5
286
330
1F
100
AcDbEntity
  8
0
  6
Continuous
 62
     7
370
    15
100
AcDbSpline
210
0.0
220
0.0
230
1.0
 70
     8
 71
     3
 72
    13
 73
     9
 74
     0
 42
0.00000001
 43
0.00000001
 40
0.0
 40
0.0
 40
0.0
 40
0.0
 40
0.1110425847638748
 40
0.2915411088556456
 40
0.4741402590855424
 40
0.6547305660582818
 40
0.8371879580822511
 40
1.0
 40
1.0
 40
1.0
 40
1.0
 10
413.8256930867615
 20
187.9331094127391
 30
0.0
 10
413.848274729854
 20
187.7536821172213
 30
0.0
 10
413.9075625902809
 20
187.2825976877163
 30
0.0
 10
413.9990917386785
 20
186.7039736095366
 30
0.0
 10
414.1112361472112
 20
186.2761077853439
 30
0.0
 10
414.2168518810897
 20
186.1639298958453
 30
0.0
 10
414.3246591194737
 20
186.3385747448688
 30
0.0
 10
414.3925444697862
 20
186.6831500506874
 30
0.0
 10
414.4245558539811
 20
186.8456347760056
 30
0.0
  0
SPLINE
  5
287
330
1F
100
AcDbEntity
  8
0
  6
Continuous
 62
     7
370
    15
100
AcDbSpline
210
0.0
220
0.0
230
1.0
 70
     8
 71
     3
 72
    13
 73
     9
 74
     0
 42
0.00000001
 43
0.00000001
 40
0.0
 40
0.0
 40
0.0
 40
0.0
 40
0.1622630639258241
 40
0.3684737520764704
 40
0.5722323769347555
 40
0.7783900525830534
 40
0.9822391156065762
 40
1.0
 40
1.0
 40
1.0
 40
1.0
 10
415.9809374371949
 20
187.3533983629439
 30
0.0
 10
416.0090790981299
 20
187.158738602576
 30
0.0
 10
416.0729843587818
 20
186.7166970772546
 30
0.0
 10
416.1775186079074
 20
186.3134739812295
 30
0.0
 10
416.2827777883386
 20
186.1522778439597
 30
0.0
 10
416.3951592337825
 20
186.3386835287436
 30
0.0
 10
416.4679300986796
 20
186.6141595015713
 30
0.0
 10
416.5075849912615
 20
186.8706498825439
 30
0.0
 10
416.5107631246033
 20
186.8912062522267
 30
0.0
  0
SPLINE
  5
288
330
1F
100
AcDbEntity
  8
0
  6
Continuous
 62
     7
370
    15
100
AcDbSpline
210
0.0
220
0.0
230
1.0
 70
     8
 71
     3
 72
    11
 73
     7
 74
     0
 42
0.00000001
 43
0.00000001
 40
0.0
 40
0.0
 40
0.0
 40
0.0
 40
0.2939557531219933
 40
0.5825241085001505
 40
0.8657466106223557
 40
0.9999999999999999
 40
0.9999999999999999
 40
0.9999999999999999
 40
0.9999999999999999
 10
430.354150489944
 20
224.1022136908267
 30
0.0
 10
430.5600828623537
 20
224.0856356279776
 30
0.0
 10
430.9681734350853
 20
224.0527833324221
 30
0.0
 10
431.3713746310823
 20
224.0204044190925
 30
0.0
 10
431.6016713482458
 20
224.0016412288487
 30
0.0
 10
431.6308211192342
 20
223.9992148403714
 30
0.0
 10
431.6401952067791
 20
223.9984345536922
 30
0.0
  0
DIMENSION
  5
289
330
1F
100
AcDbEntity
  8
FORMAT
100
AcDbDimension
  2
*D7
 10
449.2233791476
 20
223.3533981155
 30
0.0
 11
449.2233791476
 21
205.2894928524
 31
0.0
 70
   160
 71
     2
 42
-1.0
  3
SLDDIMSTYLE1
100
AcDbAlignedDimension
 13
426.182132061
 23
187.3533981155
 33
0.0
 14
426.182132061
 24
223.3533981155
 34
0.0
 50
90.0
100
AcDbRotatedDimension
  0
DIMENSION
  5
294
330
1F
100
AcDbEntity
  8
FORMAT
100
AcDbDimension
  2
*D8
 10
389.6821320609
 20
237.0212339709
 30
0.0
 11
410.625286621
 21
237.0212339708
 31
0.0
 70
   160
 71
     2
 42
-1.0
  3
SLDDIMSTYLE1
100
AcDbAlignedDimension
 13
431.682132061
 23
223.8533981152
 33
0.0
 14
389.6821320609
 24
223.8533981154
 34
0.0
 50
-0.0000000003
100
AcDbRotatedDimension
  0
DIMENSION
  5
29E
330
1F
100
AcDbEntity
  8
FORMAT
100
AcDbDimension
  2
*D9
 10
426.182132061
 20
174.2247706329
 30
0.0
 11
411.392493468
 21
174.2247706329
 31
0.0
 70
   160
 71
     2
 42
-1.0
  3
SLDDIMSTYLE1
100
AcDbAlignedDimension
 13
395.182132061
 23
187.3533981155
 33
0.0
 14
426.182132061
 24
187.3533981155
 34
0.0
 50
0.0
100
AcDbRotatedDimension
  0
SPLINE
  5
2A8
330
1F
100
AcDbEntity
  8
0
  6
Continuous
 62
     7
370
    15
100
AcDbSpline
210
0.0
220
0.0
230
1.0
 70
    24
 71
     1
 72
     4
 73
     2
 74
     0
 42
0.00000001
 43
0.00000001
 40
0.0
 40
0.0
 40
1.0
 40
1.0
 10
277.504813792925
 20
345.4550024047765
 30
0.0
 10
277.504813792925
 20
333.1227864995869
 30
0.0
  0
SPLINE
  5
2A9
330
1F
100
AcDbEntity
  8
0
  6
Continuous
 62
     7
370
    15
100
AcDbSpline
210
0.0
220
0.0
230
1.0
 70
    24
 71
     1
 72
     4
 73
     2
 74
     0
 42
0.00000001
 43
0.00000001
 40
0.0
 40
0.0
 40
1.0
 40
1.0
 10
278.5048158194829
 20
333.1227864995869
 30
0.0
 10
278.5048158194829
 20
345.4550024047765
 30
0.0
  0
SPLINE
  5
2AA
330
1F
100
AcDbEntity
  8
0
  6
Continuous
 62
     7
370
    15
100
AcDbSpline
210
0.0
220
0.0
230
1.0
 70
     8
 71
     3
 72
    13
 73
     9
 74
     0
 42
0.00000001
 43
0.00000001
 40
0.0
 40
0.0
 40
0.0
 40
0.0
 40
0.2039057499432791
 40
0.3235644990372253
 40
0.4526745673270848
 40
0.588464986929003
 40
0.7274811642951045
 40
1.0
 40
1.0
 40
1.0
 40
1.0
 10
277.504813792925
 20
333.1227864995869
 30
0.0
 10
277.4984810201511
 20
332.9673451784915
 30
0.0
 10
277.4884319634143
 20
332.7206856644565
 30
0.0
 10
277.4299609903171
 20
332.418777695321
 30
0.0
 10
277.3661864317214
 20
332.1958221354287
 30
0.0
 10
277.2871288086885
 20
332.0117735167616
 30
0.0
 10
277.1720067668807
 20
331.8336293179797
 30
0.0
 10
277.1010985531951
 20
331.8218888905255
 30
0.0
 10
277.0541430737783
 20
331.8141143694791
 30
0.0
  0
SPLINE
  5
2AB
330
1F
100
AcDbEntity
  8
0
  6
Continuous
 62
     7
370
    15
100
AcDbSpline
210
0.0
220
0.0
230
1.0
 70
    24
 71
     1
 72
     4
 73
     2
 74
     0
 42
0.00000001
 43
0.00000001
 40
0.0
 40
0.0
 40
1.0
 40
1.0
 10
277.276662113886
 20
330.8547999635609
 30
0.0
 10
277.3374588515569
 20
330.8611776605519
 30
0.0
  0
SPLINE
  5
2AC
330
1F
100
AcDbEntity
  8
0
  6
Continuous
 62
     7
370
    15
100
AcDbSpline
210
0.0
220
0.0
230
1.0
 70
    24
 71
     1
 72
     4
 73
     2
 74
     0
 42
0.00000001
 43
0.00000001
 40
0.0
 40
0.0
 40
1.0
 40
1.0
 10
277.0541430737783
 20
330.8314498439702
 30
0.0
 10
277.276662113886
 20
330.8547999635609
 30
0.0
  0
SPLINE
  5
2AD
330
1F
100
AcDbEntity
  8
0
  6
Continuous
 62
     7
370
    15
100
AcDbSpline
210
0.0
220
0.0
230
1.0
 70
     8
 71
     3
 72
    13
 73
     9
 74
     0
 42
0.00000001
 43
0.00000001
 40
0.0
 40
0.0
 40
0.0
 40
0.0
 40
0.1846055701949461
 40
0.4178318206720247
 40
0.5531584725054155
 40
0.6978911356583456
 40
0.8483352943096717
 40
1.0
 40
1.0
 40
1.0
 40
1.0
 10
277.0541430737783
 20
346.7636670843037
 30
0.0
 10
277.0792039887838
 20
346.7652451856071
 30
0.0
 10
277.1359262628376
 20
346.7688170222535
 30
0.0
 10
277.2673681121244
 20
346.6102608034012
 30
0.0
 10
277.3721590062041
 20
346.3674739138376
 30
0.0
 10
277.4440764409529
 20
346.1089550421424
 30
0.0
 10
277.494801855225
 20
345.798479750333
 30
0.0
 10
277.5014675037514
 20
345.5698028117756
 30
0.0
 10
277.504813792925
 20
345.4550024047765
 30
0.0
  0
SPLINE
  5
2AE
330
1F
100
AcDbEntity
  8
0
  6
Continuous
 62
     7
370
    15
100
AcDbSpline
210
0.0
220
0.0
230
1.0
 70
    24
 71
     1
 72
     4
 73
     2
 74
     0
 42
0.00000001
 43
0.00000001
 40
0.0
 40
0.0
 40
1.0
 40
1.0
 10
277.2403926875402
 20
347.7267887369069
 30
0.0
 10
277.0541430737783
 20
347.7463390603932
 30
0.0
  0
SPLINE
  5
2AF
330
1F
100
AcDbEntity
  8
0
  6
Continuous
 62
     7
370
    15
100
AcDbSpline
210
0.0
220
0.0
230
1.0
 70
    24
 71
     1
 72
     4
 73
     2
 74
     0
 42
0.00000001
 43
0.00000001
 40
0.0
 40
0.0
 40
1.0
 40
1.0
 10
277.3374588515569
 20
347.7166112438115
 30
0.0
 10
277.2890747811605
 20
347.7216925397786
 30
0.0
  0
SPLINE
  5
2B0
330
1F
100
AcDbEntity
  8
0
  6
Continuous
 62
     7
370
    15
100
AcDbSpline
210
0.0
220
0.0
230
1.0
 70
     8
 71
     3
 72
    12
 73
     8
 74
     0
 42
0.00000001
 43
0.00000001
 40
0.0
 40
0.0
 40
0.0
 40
0.0
 40
0.1813320363343585
 40
0.4189840212552257
 40
0.7006360463419232
 40
0.8505018872603682
 40
1.0
 40
1.0
 40
1.0
 40
1.0
 10
277.3374588515569
 20
330.8611776605519
 30
0.0
 10
277.4717089259915
 20
330.9120879978423
 30
0.0
 10
277.7819058287424
 20
331.0297209229039
 30
0.0
 10
278.1532094765764
 20
331.4940127079964
 30
0.0
 10
278.384681735377
 20
332.0862006570158
 30
0.0
 10
278.4896246119257
 20
332.6641672186605
 30
0.0
 10
278.4997562320728
 20
332.9700386465221
 30
0.0
 10
278.5048158194829
 20
333.1227864995869
 30
0.0
  0
SPLINE
  5
2B1
330
1F
100
AcDbEntity
  8
0
  6
Continuous
 62
     7
370
    15
100
AcDbSpline
210
0.0
220
0.0
230
1.0
 70
     8
 71
     3
 72
    13
 73
     9
 74
     0
 42
0.00000001
 43
0.00000001
 40
0.0
 40
0.0
 40
0.0
 40
0.0
 40
0.1956004290506629
 40
0.4322503607842258
 40
0.5658344169014526
 40
0.7071438219996825
 40
0.8531706589184715
 40
1.0
 40
1.0
 40
1.0
 40
1.0
 10
278.504815819483
 20
345.4550024047765
 30
0.0
 10
278.4964650521524
 20
345.6556802148615
 30
0.0
 10
278.4780109914482
 20
346.0991508975774
 30
0.0
 10
278.3276579366504
 20
346.652164395637
 30
0.0
 10
278.1191026468024
 20
347.080605240093
 30
0.0
 10
277.9017347247029
 20
347.3743852465179
 30
0.0
 10
277.6382037858708
 20
347.6063186463804
 30
0.0
 10
277.4378901339679
 20
347.6797799434749
 30
0.0
 10
277.3374588515569
 20
347.7166112438115
 30
0.0
  0
SPLINE
  5
2B2
330
1F
100
AcDbEntity
  8
0
  6
Continuous
 62
     7
370
    15
100
AcDbSpline
210
0.0
220
0.0
230
1.0
 70
    24
 71
     1
 72
     4
 73
     2
 74
     0
 42
0.00000001
 43
0.00000001
 40
0.0
 40
0.0
 40
1.0
 40
1.0
 10
265.7455475356389
 20
330.822784818736
 30
0.0
 10
277.1352798964788
 20
330.822784818736
 30
0.0
  0
SPLINE
  5
2B3
330
1F
100
AcDbEntity
  8
0
  6
Continuous
 62
     7
370
    15
100
AcDbSpline
210
0.0
220
0.0
230
1.0
 70
    24
 71
     1
 72
     4
 73
     2
 74
     0
 42
0.00000001
 43
0.00000001
 40
0.0
 40
0.0
 40
1.0
 40
1.0
 10
277.1352798964788
 20
331.8227793947133
 30
0.0
 10
265.7455475356389
 20
331.8227793947133
 30
0.0
  0
SPLINE
  5
2B4
330
1F
100
AcDbEntity
  8
0
  6
Continuous
 62
     7
370
    15
100
AcDbSpline
210
0.0
220
0.0
230
1.0
 70
    24
 71
     1
 72
     4
 73
     2
 74
     0
 42
0.00000001
 43
0.00000001
 40
0.0
 40
0.0
 40
1.0
 40
1.0
 10
265.7455475356389
 20
346.7550095096502
 30
0.0
 10
277.1352798964788
 20
346.7550095096501
 30
0.0
  0
SPLINE
  5
2B5
330
1F
100
AcDbEntity
  8
0
  6
Continuous
 62
     7
370
    15
100
AcDbSpline
210
0.0
220
0.0
230
1.0
 70
    24
 71
     1
 72
     4
 73
     2
 74
     0
 42
0.00000001
 43
0.00000001
 40
0.0
 40
0.0
 40
1.0
 40
1.0
 10
277.1352798964788
 20
347.755011536208
 30
0.0
 10
265.7455475356389
 20
347.7550115362081
 30
0.0
  0
SPLINE
  5
2B6
330
1F
100
AcDbEntity
  8
0
  6
Continuous
 62
     7
370
    15
100
AcDbSpline
210
0.0
220
0.0
230
1.0
 70
     8
 71
     3
 72
    13
 73
     9
 74
     0
 42
0.00000001
 43
0.00000001
 40
0.0
 40
0.0
 40
0.0
 40
0.0
 40
0.1364219557266128
 40
0.3185146573580632
 40
0.6428337372255459
 40
0.7903476149627416
 40
0.9239540829293723
 40
1.0
 40
1.0
 40
1.0
 40
1.0
 10
260.4230166699697
 20
335.8174081817541
 30
0.0
 10
260.2680630936148
 20
335.8343935504807
 30
0.0
 10
259.9062812600662
 20
335.8740505754168
 30
0.0
 10
259.2374826661287
 20
335.9446434330212
 30
0.0
 10
258.6268924347398
 20
336.0308206907698
 30
0.0
 10
258.2654534609142
 20
336.0971915795103
 30
0.0
 10
258.1229666335027
 20
336.1300022002837
 30
0.0
 10
258.1155281578546
 20
336.1174618084168
 30
0.0
 10
258.1128300454427
 20
336.1129131093893
 30
0.0
  0
SPLINE
  5
2B7
330
1F
100
AcDbEntity
  8
0
  6
Continuous
 62
     7
370
    15
100
AcDbSpline
210
0.0
220
0.0
230
1.0
 70
     8
 71
     3
 72
     9
 73
     5
 74
     0
 42
0.00000001
 43
0.00000001
 40
0.0
 40
0.0
 40
0.0
 40
0.0
 40
0.3741183897344279
 40
1.0
 40
1.0
 40
1.0
 40
1.0
 10
260.1253510739614
 20
340.0074656978521
 30
0.0
 10
259.9760880576075
 20
340.0243195326415
 30
0.0
 10
259.5771153782378
 20
340.0693690016114
 30
0.0
 10
259.2501776444747
 20
340.1091884231599
 30
0.0
 10
259.0455533292104
 20
340.1341106668386
 30
0.0
  0
SPLINE
  5
2B8
330
1F
100
AcDbEntity
  8
0
  6
Continuous
 62
     7
370
    15
100
AcDbSpline
210
0.0
220
0.0
230
1.0
 70
     8
 71
     3
 72
    13
 73
     9
 74
     0
 42
0.00000001
 43
0.00000001
 40
0.0
 40
0.0
 40
0.0
 40
0.0
 40
0.170720946623543
 40
0.4044732172686679
 40
0.6083337365299316
 40
0.7878357084657563
 40
0.9413206351877915
 40
1.0
 40
1.0
 40
1.0
 40
1.0
 10
260.3184403207113
 20
344.1404368654165
 30
0.0
 10
260.1350325171033
 20
344.1610764001891
 30
0.0
 10
259.7005015127675
 20
344.2099757250672
 30
0.0
 10
259.1216685913965
 20
344.2773207432884
 30
0.0
 10
258.6279930164421
 20
344.3425303237963
 30
0.0
 10
258.2909691373245
 20
344.403686044062
 30
0.0
 10
258.1176694715837
 20
344.4534150383095
 30
0.0
 10
258.1195865085373
 20
344.4322218539527
 30
0.0
 10
258.1201167132665
 20
344.4263603464041
 30
0.0
  0
SPLINE
  5
2B9
330
1F
100
AcDbEntity
  8
0
  6
Continuous
 62
     7
370
    15
100
AcDbSpline
210
0.0
220
0.0
230
1.0
 70
     8
 71
     3
 72
    13
 73
     9
 74
     0
 42
0.00000001
 43
0.00000001
 40
0.0
 40
0.0
 40
0.0
 40
0.0
 40
0.1546355863747754
 40
0.3450329758416625
 40
0.6703914643828249
 40
0.8127514615611013
 40
0.9385580542879068
 40
0.9999999999999999
 40
0.9999999999999999
 40
0.9999999999999999
 40
0.9999999999999999
 10
260.7919992234518
 20
345.1653238311682
 30
0.0
 10
260.9690986254301
 20
345.1460802234176
 30
0.0
 10
261.3642543274061
 20
345.1031426344464
 30
0.0
 10
262.0599882667887
 20
345.0278238239211
 30
0.0
 10
262.6620820816789
 20
344.940894793945
 30
0.0
 10
262.9974855943508
 20
344.8770857162353
 30
0.0
 10
263.1207442286347
 20
344.8450139460414
 30
0.0
 10
263.1218837879914
 20
344.859471954286
 30
0.0
 10
263.1222577121068
 20
344.8642160669241
 30
0.0
  0
SPLINE
  5
2BA
330
1F
100
AcDbEntity
  8
0
  6
Continuous
 62
     7
370
    15
100
AcDbSpline
210
0.0
220
0.0
230
1.0
 70
     8
 71
     3
 72
    12
 73
     8
 74
     0
 42
0.00000001
 43
0.00000001
 40
0.0
 40
0.0
 40
0.0
 40
0.0
 40
0.2957352551636576
 40
0.6123379034451788
 40
0.7619960413511299
 40
0.9022987591943215
 40
1.0
 40
1.0
 40
1.0
 40
1.0
 10
260.7823879744817
 20
341.0112824216757
 30
0.0
 10
261.1155459905204
 20
340.9768644854092
 30
0.0
 10
261.8053700053954
 20
340.9056000468063
 30
0.0
 10
262.5257359341662
 20
340.8083519855397
 30
0.0
 10
262.9175141089825
 20
340.7396960548866
 30
0.0
 10
263.0867327516149
 20
340.7025415321435
 30
0.0
 10
263.1066682580312
 20
340.710615404543
 30
0.0
 10
263.1148518349935
 20
340.7139297500524
 30
0.0
  0
SPLINE
  5
2BB
330
1F
100
AcDbEntity
  8
0
  6
Continuous
 62
     7
370
    15
100
AcDbSpline
210
0.0
220
0.0
230
1.0
 70
     8
 71
     3
 72
    13
 73
     9
 74
     0
 42
0.00000001
 43
0.00000001
 40
0.0
 40
0.0
 40
0.0
 40
0.0
 40
0.1525181497654974
 40
0.4058688355437936
 40
0.6221990034092304
 40
0.8090020827885135
 40
0.966693071438059
 40
1.0
 40
1.0
 40
1.0
 40
1.0
 10
261.0345603253652
 20
336.8269171491537
 30
0.0
 10
261.1926746790046
 20
336.8092918039794
 30
0.0
 10
261.6134356749453
 20
336.7623886758406
 30
0.0
 10
262.1761854578937
 20
336.6949265757318
 30
0.0
 10
262.6677832142854
 20
336.6281930520868
 30
0.0
 10
262.9837556935353
 20
336.5710091687628
 30
0.0
 10
263.1331421150816
 20
336.5191429085725
 30
0.0
 10
263.1217676422997
 20
336.5450449426292
 30
0.0
 10
263.1197841193487
 20
336.5495618358526
 30
0.0
  0
SPLINE
  5
2BC
330
1F
100
AcDbEntity
  8
0
  6
Continuous
 62
     7
370
    15
100
AcDbSpline
210
0.0
220
0.0
230
1.0
 70
    24
 71
     1
 72
     4
 73
     2
 74
     0
 42
0.00000001
 43
0.00000001
 40
0.0
 40
0.0
 40
1.0
 40
1.0
 10
95.75087291262643
 20
345.4550024047765
 30
0.0
 10
95.75087291262643
 20
333.1227864995869
 30
0.0
  0
SPLINE
  5
2BD
330
1F
100
AcDbEntity
  8
0
  6
Continuous
 62
     7
370
    15
100
AcDbSpline
210
0.0
220
0.0
230
1.0
 70
    24
 71
     1
 72
     4
 73
     2
 74
     0
 42
0.00000001
 43
0.00000001
 40
0.0
 40
0.0
 40
1.0
 40
1.0
 10
96.75087493918436
 20
333.1227864995869
 30
0.0
 10
96.75087493918436
 20
345.4550024047765
 30
0.0
  0
SPLINE
  5
2BE
330
1F
100
AcDbEntity
  8
0
  6
Continuous
 62
     7
370
    15
100
AcDbSpline
210
0.0
220
0.0
230
1.0
 70
    24
 71
     1
 72
     4
 73
     2
 74
     0
 42
0.00000001
 43
0.00000001
 40
0.0
 40
0.0
 40
1.0
 40
1.0
 10
97.11217966936128
 20
330.8547999635609
 30
0.0
 10
97.36056712530153
 20
330.8314498439702
 30
0.0
  0
SPLINE
  5
2BF
330
1F
100
AcDbEntity
  8
0
  6
Continuous
 62
     7
370
    15
100
AcDbSpline
210
0.0
220
0.0
230
1.0
 70
    24
 71
     1
 72
     4
 73
     2
 74
     0
 42
0.00000001
 43
0.00000001
 40
0.0
 40
0.0
 40
1.0
 40
1.0
 10
97.0443272318651
 20
330.8611776605519
 30
0.0
 10
97.11217966936128
 20
330.8547999635609
 30
0.0
  0
SPLINE
  5
2C0
330
1F
100
AcDbEntity
  8
0
  6
Continuous
 62
     7
370
    15
100
AcDbSpline
210
0.0
220
0.0
230
1.0
 70
     8
 71
     3
 72
    13
 73
     9
 74
     0
 42
0.00000001
 43
0.00000001
 40
0.0
 40
0.0
 40
0.0
 40
0.0
 40
0.1851521787707867
 40
0.4193261703093066
 40
0.5546898071397163
 40
0.6991060385199904
 40
0.8489752088357203
 40
1.0
 40
1.0
 40
1.0
 40
1.0
 10
97.36056712530153
 20
331.8141143694791
 30
0.0
 10
97.31385365482481
 20
331.8159095515169
 30
0.0
 10
97.20805862283058
 20
331.8199752169278
 30
0.0
 10
97.03822696581443
 20
331.9883398812011
 30
0.0
 10
96.90822749988286
 20
332.2317246350805
 30
0.0
 10
96.82214219317102
 20
332.4863462859166
 30
0.0
 10
96.76255458875147
 20
332.7891664937326
 30
0.0
 10
96.75477563086638
 20
333.0112954596211
 30
0.0
 10
96.75087121389406
 20
333.1227864995869
 30
0.0
  0
SPLINE
  5
2C1
330
1F
100
AcDbEntity
  8
0
  6
Continuous
 62
     7
370
    15
100
AcDbSpline
210
0.0
220
0.0
230
1.0
 70
    24
 71
     1
 72
     4
 73
     2
 74
     0
 42
0.00000001
 43
0.00000001
 40
0.0
 40
0.0
 40
1.0
 40
1.0
 10
97.0983290400316
 20
347.7216925397786
 30
0.0
 10
97.0443272318651
 20
347.7166112438115
 30
0.0
  0
SPLINE
  5
2C2
330
1F
100
AcDbEntity
  8
0
  6
Continuous
 62
     7
370
    15
100
AcDbSpline
210
0.0
220
0.0
230
1.0
 70
    24
 71
     1
 72
     4
 73
     2
 74
     0
 42
0.00000001
 43
0.00000001
 40
0.0
 40
0.0
 40
1.0
 40
1.0
 10
97.36056712530153
 20
347.7463390603932
 30
0.0
 10
97.0983290400316
 20
347.7216925397786
 30
0.0
  0
SPLINE
  5
2C3
330
1F
100
AcDbEntity
  8
0
  6
Continuous
 62
     7
370
    15
100
AcDbSpline
210
0.0
220
0.0
230
1.0
 70
     8
 71
     3
 72
    13
 73
     9
 74
     0
 42
0.00000001
 43
0.00000001
 40
0.0
 40
0.0
 40
0.0
 40
0.0
 40
0.1510246235543253
 40
0.300893627542629
 40
0.4453123149792253
 40
0.5806758015807035
 40
0.8148482628833261
 40
1.0
 40
1.0
 40
1.0
 40
1.0
 10
96.75087121389406
 20
345.4550024047765
 30
0.0
 10
96.75477557672791
 20
345.5664935392595
 30
0.0
 10
96.76255442675033
 20
345.7886226934593
 30
0.0
 10
96.8221431757664
 20
346.0914432933635
 30
0.0
 10
96.908226412106
 20
346.3460711344344
 30
0.0
 10
97.03822665085664
 20
346.5894563930405
 30
0.0
 10
97.20805907042498
 20
346.7578146688581
 30
0.0
 10
97.31385371683535
 20
346.7618744821133
 30
0.0
 10
97.36056712530153
 20
346.7636670843037
 30
0.0
  0
SPLINE
  5
2C4
330
1F
100
AcDbEntity
  8
0
  6
Continuous
 62
     7
370
    15
100
AcDbSpline
210
0.0
220
0.0
230
1.0
 70
     8
 71
     3
 72
    12
 73
     8
 74
     0
 42
0.00000001
 43
0.00000001
 40
0.0
 40
0.0
 40
0.0
 40
0.0
 40
0.1514447514816189
 40
0.3029379178837507
 40
0.5859373055194192
 40
0.8221365972836248
 40
1.0
 40
1.0
 40
1.0
 40
1.0
 10
95.75087663791673
 20
333.1227864995869
 30
0.0
 10
95.75695467294562
 20
332.9668024671681
 30
0.0
 10
95.7691126860723
 20
332.6547845362608
 30
0.0
 10
95.89417974404513
 20
332.0687832266451
 30
0.0
 10
96.16369402482863
 20
331.4756435525583
 30
0.0
 10
96.57968912515324
 20
331.0245581908532
 30
0.0
 10
96.90471163612972
 20
330.9102706422511
 30
0.0
 10
97.0443272318651
 20
330.8611776605519
 30
0.0
  0
SPLINE
  5
2C5
330
1F
100
AcDbEntity
  8
0
  6
Continuous
 62
     7
370
    15
100
AcDbSpline
210
0.0
220
0.0
230
1.0
 70
     8
 71
     3
 72
    12
 73
     8
 74
     0
 42
0.00000001
 43
0.00000001
 40
0.0
 40
0.0
 40
0.0
 40
0.0
 40
0.1778624557276527
 40
0.4140615184879962
 40
0.6970647093321588
 40
0.8485553953496131
 40
1.0
 40
1.0
 40
1.0
 40
1.0
 10
97.0443272318651
 20
347.7166112438115
 30
0.0
 10
96.90471161180852
 20
347.6675211361176
 30
0.0
 10
96.57968823681485
 20
347.5532399942581
 30
0.0
 10
96.1636902499556
 20
347.1021504638859
 30
0.0
 10
95.89418340367112
 20
346.509003318314
 30
0.0
 10
95.76911182835921
 20
345.9230023014223
 30
0.0
 10
95.75695441828452
 20
345.610986549441
 30
0.0
 10
95.75087663791673
 20
345.4550024047765
 30
0.0
  0
SPLINE
  5
2C6
330
1F
100
AcDbEntity
  8
0
  6
Continuous
 62
     7
370
    15
100
AcDbSpline
210
0.0
220
0.0
230
1.0
 70
    24
 71
     1
 72
     4
 73
     2
 74
     0
 42
0.00000001
 43
0.00000001
 40
0.0
 40
0.0
 40
1.0
 40
1.0
 10
112.3455510761549
 20
347.7550115362081
 30
0.0
 10
97.28470158837335
 20
347.755011536208
 30
0.0
  0
SPLINE
  5
2C7
330
1F
100
AcDbEntity
  8
0
  6
Continuous
 62
     7
370
    15
100
AcDbSpline
210
0.0
220
0.0
230
1.0
 70
    24
 71
     1
 72
     4
 73
     2
 74
     0
 42
0.00000001
 43
0.00000001
 40
0.0
 40
0.0
 40
1.0
 40
1.0
 10
97.28470158837335
 20
346.7550095096501
 30
0.0
 10
112.3455510761549
 20
346.7550095096502
 30
0.0
  0
SPLINE
  5
2C8
330
1F
100
AcDbEntity
  8
0
  6
Continuous
 62
     7
370
    15
100
AcDbSpline
210
0.0
220
0.0
230
1.0
 70
    24
 71
     1
 72
     4
 73
     2
 74
     0
 42
0.00000001
 43
0.00000001
 40
0.0
 40
0.0
 40
1.0
 40
1.0
 10
112.3455510761549
 20
331.8227793947133
 30
0.0
 10
97.28470158837335
 20
331.8227793947133
 30
0.0
  0
SPLINE
  5
2C9
330
1F
100
AcDbEntity
  8
0
  6
Continuous
 62
     7
370
    15
100
AcDbSpline
210
0.0
220
0.0
230
1.0
 70
    24
 71
     1
 72
     4
 73
     2
 74
     0
 42
0.00000001
 43
0.00000001
 40
0.0
 40
0.0
 40
1.0
 40
1.0
 10
97.28470158837335
 20
330.822784818736
 30
0.0
 10
112.3455510761549
 20
330.822784818736
 30
0.0
  0
SPLINE
  5
2CA
330
1F
100
AcDbEntity
  8
0
  6
Continuous
 62
     7
370
    15
100
AcDbSpline
210
0.0
220
0.0
230
1.0
 70
     8
 71
     3
 72
    19
 73
    15
 74
     0
 42
0.00000001
 43
0.00000001
 40
0.0
 40
0.0
 40
0.0
 40
0.0
 40
0.0870758267335515
 40
0.2612013690187635
 40
0.3362153441255987
 40
0.3725301361333506
 40
0.4089329902848707
 40
0.4754505290374602
 40
0.5071967551298423
 40
0.5494642692558777
 40
0.6750557375796573
 40
0.855972373738297
 40
0.9652422193128156
 40
1.0
 40
1.0
 40
1.0
 40
1.0
 10
119.544980051737
 20
346.2342139259252
 30
0.0
 10
119.6301564024876
 20
346.2514726335573
 30
0.0
 10
119.8856599131479
 20
346.3032435811338
 30
0.0
 10
120.070986076616
 20
346.3839250879045
 30
0.0
 10
120.2480301789733
 20
346.5604260588836
 30
0.0
 10
120.3203125530397
 20
346.7179482125756
 30
0.0
 10
120.3503650058071
 20
346.902956451245
 30
0.0
 10
120.3114387477548
 20
347.0623808516948
 30
0.0
 10
120.2428589391736
 20
347.1808556321867
 30
0.0
 10
120.148743701684
 20
347.2853944117399
 30
0.0
 10
119.9555057738265
 20
347.3972720394964
 30
0.0
 10
119.6085462051189
 20
347.4980706966226
 30
0.0
 10
119.2717026748055
 20
347.5665175014812
 30
0.0
 10
119.0895186821088
 20
347.5948188907727
 30
0.0
 10
119.045552733164
 20
347.6016487852011
 30
0.0
  0
SPLINE
  5
2CB
330
1F
100
AcDbEntity
  8
0
  6
Continuous
 62
     7
370
    15
100
AcDbSpline
210
0.0
220
0.0
230
1.0
 70
     8
 71
     3
 72
    13
 73
     9
 74
     0
 42
0.00000001
 43
0.00000001
 40
0.0
 40
0.0
 40
0.0
 40
0.0
 40
0.2190180246587507
 40
0.4118128802720668
 40
0.7366736744023322
 40
0.8720362084532287
 40
0.9934946336403132
 40
1.0
 40
1.0
 40
1.0
 40
1.0
 10
116.9318751718809
 20
335.4267295375738
 30
0.0
 10
116.6723694149635
 20
335.4565790583671
 30
0.0
 10
116.1844286924142
 20
335.512704197619
 30
0.0
 10
115.4015169255231
 20
335.5949625288915
 30
0.0
 10
114.8083398991511
 20
335.6910140664068
 30
0.0
 10
114.503266720872
 20
335.7422754986414
 30
0.0
 10
114.4182354122574
 20
335.7714124245954
 30
0.0
 10
114.4275945154532
 20
335.7482095736586
 30
0.0
 10
114.4280703093817
 20
335.7470299974356
 30
0.0
  0
SPLINE
  5
2CC
330
1F
100
AcDbEntity
  8
0
  6
Continuous
 62
     7
370
    15
100
AcDbSpline
210
0.0
220
0.0
230
1.0
 70
     8
 71
     3
 72
    14
 73
    10
 74
     0
 42
0.00000001
 43
0.00000001
 40
0.0
 40
0.0
 40
0.0
 40
0.0
 40
0.2140566460970492
 40
0.4040768749970994
 40
0.5764797884949608
 40
0.7319887609037128
 40
0.8689624776426815
 40
0.9907672961136866
 40
1.0
 40
1.0
 40
1.0
 40
1.0
 10
116.927196207266
 20
337.5048752799902
 30
0.0
 10
116.6696852919239
 20
337.5341482491147
 30
0.0
 10
116.1835793576007
 20
337.5894071261521
 30
0.0
 10
115.5563421099909
 20
337.6563168077421
 30
0.0
 10
115.07018294673
 20
337.7186550489164
 30
0.0
 10
114.6991007406779
 20
337.7866857648544
 30
0.0
 10
114.4846849568944
 20
337.825733446519
 30
0.0
 10
114.4108094062211
 20
337.8445288025963
 30
0.0
 10
114.412436133291
 20
337.8323239641689
 30
0.0
 10
114.4125507499983
 20
337.8314640298757
 30
0.0
  0
SPLINE
  5
2CD
330
1F
100
AcDbEntity
  8
0
  6
Continuous
 62
     7
370
    15
100
AcDbSpline
210
0.0
220
0.0
230
1.0
 70
     8
 71
     3
 72
    13
 73
     9
 74
     0
 42
0.00000001
 43
0.00000001
 40
0.0
 40
0.0
 40
0.0
 40
0.0
 40
0.1480938132201379
 40
0.3337380996633241
 40
0.6612205388289142
 40
0.803672562029367
 40
0.9313560512014977
 40
1.0
 40
1.0
 40
1.0
 40
1.0
 10
116.733592870455
 20
341.6816409603033
 30
0.0
 10
116.5648001511881
 20
341.7007146800508
 30
0.0
 10
116.1844158519374
 20
341.7436984269316
 30
0.0
 10
115.4998910015858
 20
341.8123605033751
 30
0.0
 10
114.8971677193615
 20
341.9041424371432
 30
0.0
 10
114.5544671313452
 20
341.9659481684509
 30
0.0
 10
114.4262550141559
 20
341.9964800134754
 30
0.0
 10
114.4224770858801
 20
341.9842082164828
 30
0.0
 10
114.4211561705877
 20
341.9799175039205
 30
0.0
  0
SPLINE
  5
2CE
330
1F
100
AcDbEntity
  8
0
  6
Continuous
 62
     7
370
    15
100
AcDbSpline
210
0.0
220
0.0
230
1.0
 70
     8
 71
     3
 72
    10
 73
     6
 74
     0
 42
0.00000001
 43
0.00000001
 40
0.0
 40
0.0
 40
0.0
 40
0.0
 40
0.3599101692365699
 40
0.8322564203286689
 40
1.0
 40
1.0
 40
1.0
 40
1.0
 10
119.045552733164
 20
342.4755748287115
 30
0.0
 10
119.1212243748255
 20
342.4628944061543
 30
0.0
 10
119.2962075094872
 20
342.433572191925
 30
0.0
 10
119.4315227237322
 20
342.3890443436463
 30
0.0
 10
119.4279155982107
 20
342.4101311873167
 30
0.0
 10
119.4269703056623
 20
342.415657259551
 30
0.0
  0
SPLINE
  5
2CF
330
1F
100
AcDbEntity
  8
0
  6
Continuous
 62
     7
370
    15
100
AcDbSpline
210
0.0
220
0.0
230
1.0
 70
     8
 71
     3
 72
    11
 73
     7
 74
     0
 42
0.00000001
 43
0.00000001
 40
0.0
 40
0.0
 40
0.0
 40
0.0
 40
0.1181566067619368
 40
0.5834614800384725
 40
0.998175608415946
 40
1.0
 40
1.0
 40
1.0
 40
1.0
 10
119.045552733164
 20
338.3191194311056
 30
0.0
 10
119.0762248915219
 20
338.3146957272403
 30
0.0
 10
119.2276850883058
 20
338.292851321961
 30
0.0
 10
119.3462396806553
 20
338.2695345876087
 30
0.0
 10
119.4393873099692
 20
338.2350960232029
 30
0.0
 10
119.4291015188308
 20
338.2601056017821
 30
0.0
 10
119.4290564682295
 20
338.2602151409063
 30
0.0
  0
SPLINE
  5
2D0
330
1F
100
AcDbEntity
  8
0
  6
Continuous
 62
     7
370
    15
100
AcDbSpline
210
0.0
220
0.0
230
1.0
 70
     8
 71
     3
 72
    22
 73
    18
 74
     0
 42
0.00000001
 43
0.00000001
 40
0.0
 40
0.0
 40
0.0
 40
0.0
 40
0.1497018438342823
 40
0.2855897204658366
 40
0.4069030637664005
 40
0.5144677981957546
 40
0.6119729345462116
 40
0.6977077908126892
 40
0.7361767408110902
 40
0.7713943098094984
 40
0.8051433995116255
 40
0.8396175149812116
 40
0.8740221886292997
 40
0.9075680778110622
 40
0.9413432380889509
 40
0.9771594262619113
 40
1.0
 40
1.0
 40
1.0
 40
1.0
 10
116.927196207266
 20
336.5048732534323
 30
0.0
 10
117.1841060639878
 20
336.4769776192925
 30
0.0
 10
117.6742190264396
 20
336.4237604634305
 30
0.0
 10
118.3055097059649
 20
336.3526612406015
 30
0.0
 10
118.7925383068015
 20
336.289506018514
 30
0.0
 10
119.1600641532328
 20
336.2268544469867
 30
0.0
 10
119.3780104296179
 20
336.1807952949968
 30
0.0
 10
119.4464408200026
 20
336.1697242192055
 30
0.0
 10
119.4433960597712
 20
336.1898164657667
 30
0.0
 10
119.4111208110146
 20
336.2344934585539
 30
0.0
 10
119.3624962445196
 20
336.3217270586306
 30
0.0
 10
119.3304586192285
 20
336.4606485896855
 30
0.0
 10
119.345166229017
 20
336.5977522882444
 30
0.0
 10
119.3893163443433
 20
336.7044950989489
 30
0.0
 10
119.4340875609809
 20
336.7712307633812
 30
0.0
 10
119.4655847180619
 20
336.8028644519607
 30
0.0
 10
119.4503781573225
 20
336.8006030900598
 30
0.0
 10
119.4444568183233
 20
336.7997225299749
 30
0.0
  0
ARC
  5
2D1
330
1F
100
AcDbEntity
  8
0
  6
Continuous
 62
     7
370
    15
100
AcDbCircle
 10
277.1293412415
 20
331.405987311
 30
0.0
 40
0.5832327276094582
100
AcDbArc
 50
270.5834133312
 51
293.7020238467
  0
ARC
  5
2D2
330
1F
100
AcDbEntity
  8
0
  6
Continuous
 62
     7
370
    15
100
AcDbCircle
 10
277.1889027402
 20
331.3227821067
 30
0.0
 40
0.5028644920523099
100
AcDbArc
 50
96.1213613305
 51
263.8786386695
  0
ARC
  5
2D3
330
1F
100
AcDbEntity
  8
0
  6
Continuous
 62
     7
370
    15
100
AcDbCircle
 10
277.1889110064
 20
347.2550105229
 30
0.0
 40
0.5028690776227778
100
AcDbArc
 50
96.1222525268
 51
263.8777474732
  0
ARC
  5
2D4
330
1F
100
AcDbEntity
  8
0
  6
Continuous
 62
     7
370
    15
100
AcDbCircle
 10
277.1289057969
 20
347.1696921294
 30
0.0
 40
0.5853541126260678
100
AcDbArc
 50
65.9885887727
 51
89.3760764415
  0
SPLINE
  5
2D5
330
1F
100
AcDbEntity
  8
0
  6
Continuous
 62
     7
370
    15
100
AcDbSpline
210
0.0
220
0.0
230
1.0
 70
    24
 71
     1
 72
     4
 73
     2
 74
     0
 42
0.00000001
 43
0.00000001
 40
0.0
 40
0.0
 40
1.0
 40
1.0
 10
259.004783752184
 20
333.9144851938162
 30
0.0
 10
258.9820892836858
 20
333.9161541238699
 30
0.0
  0
LWPOLYLINE
  5
2D6
330
1F
100
AcDbEntity
  8
0
  6
Continuous
 62
     7
370
    15
100
AcDbPolyline
 90
        9
 70
   128
 43
0.0
 10
97.2847015884
 20
330.8227848187
 10
97.4413351443
 20
330.8608423844
 10
97.574123117
 20
330.9692259804
 10
97.662848356
 20
331.1314400211
 10
97.694006684
 20
331.3227783814
 10
97.662848356
 20
331.5141241923
 10
97.574123117
 20
331.6763382331
 10
97.4413351443
 20
331.784721829
 10
97.2847015884
 20
331.8227793947
  0
ARC
  5
2D7
330
1F
100
AcDbEntity
  8
0
  6
Continuous
 62
     7
370
    15
100
AcDbCircle
 10
97.2892998609
 20
331.6236244875
 30
0.0
 40
0.8008528699178964
100
AcDbArc
 50
249.3275571354
 51
269.671021897
  0
ARC
  5
2D8
330
1F
100
AcDbEntity
  8
0
  6
Continuous
 62
     7
370
    15
100
AcDbCircle
 10
97.289238025
 20
346.9547911839
 30
0.0
 40
0.8002332107003131
100
AcDbArc
 50
90.3248053947
 51
110.4175427198
  0
LWPOLYLINE
  5
2D9
330
1F
100
AcDbEntity
  8
0
  6
Continuous
 62
     7
370
    15
100
AcDbPolyline
 90
        9
 70
   128
 43
0.0
 10
97.2847015884
 20
346.7550095097
 10
97.4413351443
 20
346.7930670753
 10
97.574123117
 20
346.9014581219
 10
97.662848356
 20
347.0636721626
 10
97.694006684
 20
347.2550030723
 10
97.662848356
 20
347.4463488832
 10
97.574123117
 20
347.608562924
 10
97.4413351443
 20
347.7169390694
 10
97.2847015884
 20
347.7550115362
  0
CIRCLE
  5
2DA
330
1F
100
AcDbEntity
  8
0
  6
Continuous
 62
     7
370
    15
100
AcDbCircle
 10
161.0455504045
 20
340.4050066284
 30
0.0
 40
5.899999999999977
  0
CIRCLE
  5
2DB
330
1F
100
AcDbEntity
  8
0
  6
Continuous
 62
     7
370
    15
100
AcDbCircle
 10
161.0455504045
 20
340.4050066284
 30
0.0
 40
5.250000000000057
  0
CIRCLE
  5
2DC
330
1F
100
AcDbEntity
  8
0
  6
Continuous
 62
     7
370
    15
100
AcDbCircle
 10
189.0455504045
 20
340.4050066284
 30
0.0
 40
5.899999999999977
  0
CIRCLE
  5
2DD
330
1F
100
AcDbEntity
  8
0
  6
Continuous
 62
     7
370
    15
100
AcDbCircle
 10
189.0455504045
 20
340.4050066284
 30
0.0
 40
5.250000000000057
  0
CIRCLE
  5
2DE
330
1F
100
AcDbEntity
  8
0
  6
Continuous
 62
     7
370
    15
100
AcDbCircle
 10
217.0455504045
 20
340.4050066284
 30
0.0
 40
5.899999999999977
  0
CIRCLE
  5
2DF
330
1F
100
AcDbEntity
  8
0
  6
Continuous
 62
     7
370
    15
100
AcDbCircle
 10
217.0455504045
 20
340.4050066284
 30
0.0
 40
5.250000000000057
  0
CIRCLE
  5
2E0
330
1F
100
AcDbEntity
  8
0
  6
Continuous
 62
     7
370
    15
100
AcDbCircle
 10
133.0455504045
 20
340.4050066284
 30
0.0
 40
5.899999999999977
  0
CIRCLE
  5
2E1
330
1F
100
AcDbEntity
  8
0
  6
Continuous
 62
     7
370
    15
100
AcDbCircle
 10
133.0455504045
 20
340.4050066284
 30
0.0
 40
5.250000000000057
  0
CIRCLE
  5
2E2
330
1F
100
AcDbEntity
  8
0
  6
Continuous
 62
     7
370
    15
100
AcDbCircle
 10
245.0455504045
 20
340.4050066284
 30
0.0
 40
5.899999999999977
  0
CIRCLE
  5
2E3
330
1F
100
AcDbEntity
  8
0
  6
Continuous
 62
     7
370
    15
100
AcDbCircle
 10
245.0455504045
 20
340.4050066284
 30
0.0
 40
5.250000000000057
  0
CIRCLE
  5
2E4
330
1F
100
AcDbEntity
  8
0
  6
Continuous
 62
     7
370
    15
100
AcDbCircle
 10
133.0455504045
 20
340.4050066284
 30
0.0
 40
6.0
  0
CIRCLE
  5
2E5
330
1F
100
AcDbEntity
  8
0
  6
Continuous
 62
     7
370
    15
100
AcDbCircle
 10
189.0455504045
 20
340.4050066284
 30
0.0
 40
6.0
  0
CIRCLE
  5
2E6
330
1F
100
AcDbEntity
  8
0
  6
Continuous
 62
     7
370
    15
100
AcDbCircle
 10
161.0455504045
 20
340.4050066284
 30
0.0
 40
6.0
  0
CIRCLE
  5
2E7
330
1F
100
AcDbEntity
  8
0
  6
Continuous
 62
     7
370
    15
100
AcDbCircle
 10
217.0455504045
 20
340.4050066284
 30
0.0
 40
6.0
  0
CIRCLE
  5
2E8
330
1F
100
AcDbEntity
  8
0
  6
Continuous
 62
     7
370
    15
100
AcDbCircle
 10
245.0455504045
 20
340.4050066284
 30
0.0
 40
6.0
  0
LINE
  5
2E9
330
1F
100
AcDbEntity
  8
0
  6
Continuous
 62
     7
370
    15
100
AcDbLine
 10
265.2891249683
 20
354.755010821
 30
0.0
 11
265.2891249683
 21
325.7550042048
 31
0.0
  0
SPLINE
  5
2EA
330
1F
100
AcDbEntity
  8
0
  6
Continuous
 62
     7
370
    15
100
AcDbSpline
210
0.0
220
0.0
230
1.0
 70
     8
 71
     3
 72
    11
 73
     7
 74
     0
 42
0.00000001
 43
0.00000001
 40
0.0
 40
0.0
 40
0.0
 40
0.0
 40
0.2497846758640487
 40
0.4996684834196475
 40
0.7497260363809296
 40
1.0
 40
1.0
 40
1.0
 40
1.0
 10
265.2891249682714
 20
325.7550042048367
 30
0.0
 10
265.258269861826
 20
325.2920565803049
 30
0.0
 10
265.1965474035129
 20
324.3659776018715
 30
0.0
 10
264.7000684354847
 20
323.0555956612598
 30
0.0
 10
263.9517727993373
 20
321.8709066777736
 30
0.0
 10
263.2496934080525
 20
321.2650916761712
 30
0.0
 10
262.89850187562
 20
320.9620531574162
 30
0.0
  0
LINE
  5
2EB
330
1F
100
AcDbEntity
  8
0
  6
Continuous
 62
     7
370
    15
100
AcDbLine
 10
262.8985018756
 20
320.9620531574
 30
0.0
 11
260.0305200841
 21
323.8300349489
 31
0.0
  0
LINE
  5
2EC
330
1F
100
AcDbEntity
  8
0
  6
Continuous
 62
     7
370
    15
100
AcDbLine
 10
260.0305200841
 20
323.8300349489
 30
0.0
 11
260.0305200841
 21
356.6799875275
 31
0.0
  0
LINE
  5
2ED
330
1F
100
AcDbEntity
  8
0
  6
Continuous
 62
     7
370
    15
100
AcDbLine
 10
262.8985018756
 20
359.5479544178
 30
0.0
 11
260.0305200841
 21
356.6799875275
 31
0.0
  0
SPLINE
  5
2EE
330
1F
100
AcDbEntity
  8
0
  6
Continuous
 62
     7
370
    15
100
AcDbSpline
210
0.0
220
0.0
230
1.0
 70
     8
 71
     3
 72
    11
 73
     7
 74
     0
 42
0.00000001
 43
0.00000001
 40
0.0
 40
0.0
 40
0.0
 40
0.0
 40
0.2502742449060241
 40
0.5003309549948665
 40
0.7502150433989161
 40
1.0
 40
1.0
 40
1.0
 40
1.0
 10
262.89850187562
 20
359.5479544177922
 30
0.0
 10
263.2496930658863
 20
359.244915681572
 30
0.0
 10
263.9517701960268
 20
358.6391016060949
 30
0.0
 10
264.700070520647
 20
357.4544182757375
 30
0.0
 10
265.1965470685417
 20
356.1440372051811
 30
0.0
 10
265.2582697501838
 20
355.2179583725815
 30
0.0
 10
265.2891249682714
 20
354.7550108209523
 30
0.0
  0
SPLINE
  5
2EF
330
1F
100
AcDbEntity
  8
0
  6
Continuous
 62
     7
370
    15
100
AcDbSpline
210
0.0
220
0.0
230
1.0
 70
     8
 71
     3
 72
    11
 73
     7
 74
     0
 42
0.00000001
 43
0.00000001
 40
0.0
 40
0.0
 40
0.0
 40
0.0
 40
0.2498809059774855
 40
0.4998120583646177
 40
0.7498417128539144
 40
1.0
 40
1.0
 40
1.0
 40
1.0
 10
259.2455567147542
 20
360.7985790744694
 30
0.0
 10
259.573525981352
 20
360.7831534626034
 30
0.0
 10
260.2295304630762
 20
360.7522991370672
 30
0.0
 10
261.1853529000078
 20
360.5009772032474
 30
0.0
 10
262.0961627141166
 20
360.1172913391309
 30
0.0
 10
262.6346551447676
 20
359.7419378930855
 30
0.0
 10
262.9039706017782
 20
359.5542129054936
 30
0.0
  0
SPLINE
  5
2F0
330
1F
100
AcDbEntity
  8
0
  6
Continuous
 62
     7
370
    15
100
AcDbSpline
210
0.0
220
0.0
230
1.0
 70
    24
 71
     1
 72
     4
 73
     2
 74
     0
 42
0.00000001
 43
0.00000001
 40
0.0
 40
0.0
 40
1.0
 40
1.0
 10
262.9039706017782
 20
359.5542129054936
 30
0.0
 10
262.89850187562
 20
359.5479544177922
 30
0.0
  0
LINE
  5
2F1
330
1F
100
AcDbEntity
  8
0
  6
Continuous
 62
     7
370
    15
100
AcDbLine
 10
260.0305200841
 20
356.6799875275
 30
0.0
 11
259.0455533292
 21
356.6799875275
 31
0.0
  0
LINE
  5
2F2
330
1F
100
AcDbEntity
  8
0
  6
Continuous
 62
     7
370
    15
100
AcDbLine
 10
259.0455533292
 20
360.7985790745
 30
0.0
 11
259.2455567148
 21
360.7985790745
 31
0.0
  0
SPLINE
  5
2F3
330
1F
100
AcDbEntity
  8
0
  6
Continuous
 62
     7
370
    15
100
AcDbSpline
210
0.0
220
0.0
230
1.0
 70
    24
 71
     1
 72
     4
 73
     2
 74
     0
 42
0.00000001
 43
0.00000001
 40
0.0
 40
0.0
 40
1.0
 40
1.0
 10
262.89850187562
 20
320.9620531574162
 30
0.0
 10
262.9039706017782
 20
320.9558021202954
 30
0.0
  0
SPLINE
  5
2F4
330
1F
100
AcDbEntity
  8
0
  6
Continuous
 62
     7
370
    15
100
AcDbSpline
210
0.0
220
0.0
230
1.0
 70
     8
 71
     3
 72
    11
 73
     7
 74
     0
 42
0.00000001
 43
0.00000001
 40
0.0
 40
0.0
 40
0.0
 40
0.0
 40
0.2498809541834663
 40
0.4998119996152458
 40
0.7498407925333361
 40
1.0
 40
1.0
 40
1.0
 40
1.0
 10
259.2455567147542
 20
319.711428500739
 30
0.0
 10
259.5735260271015
 20
319.726857034119
 30
0.0
 10
260.2295303966716
 20
319.7577171936896
 30
0.0
 10
261.1853507983726
 20
320.0090395871272
 30
0.0
 10
262.0961665825845
 20
320.3927139398468
 30
0.0
 10
262.6346557950922
 20
320.768073437519
 30
0.0
 10
262.9039706017782
 20
320.9558021202954
 30
0.0
  0
LINE
  5
2F5
330
1F
100
AcDbEntity
  8
0
  6
Continuous
 62
     7
370
    15
100
AcDbLine
 10
259.0455533292
 20
319.7114285007
 30
0.0
 11
259.2455567148
 21
319.7114285007
 31
0.0
  0
LINE
  5
2F6
330
1F
100
AcDbEntity
  8
0
  6
Continuous
 62
     7
370
    15
100
AcDbLine
 10
260.0305200841
 20
323.8300349489
 30
0.0
 11
259.0455533292
 21
323.8300349489
 31
0.0
  0
LINE
  5
2F7
330
1F
100
AcDbEntity
  8
0
  6
Continuous
 62
     7
370
    15
100
AcDbLine
 10
259.0455533292
 20
356.6799875275
 30
0.0
 11
259.0455533292
 21
323.8300349489
 31
0.0
  0
LINE
  5
2F8
330
1F
100
AcDbEntity
  8
0
  6
Continuous
 62
     7
370
    15
100
AcDbLine
 10
265.7455475356
 20
325.7550042048
 30
0.0
 11
265.2891249683
 21
325.7550042048
 31
0.0
  0
SPLINE
  5
2F9
330
1F
100
AcDbEntity
  8
0
  6
Continuous
 62
     7
370
    15
100
AcDbSpline
210
0.0
220
0.0
230
1.0
 70
     8
 71
     3
 72
    11
 73
     7
 74
     0
 42
0.00000001
 43
0.00000001
 40
0.0
 40
0.0
 40
0.0
 40
0.0
 40
0.258155335912621
 40
0.5002778669165385
 40
0.7524253073652231
 40
0.9999999999999999
 40
0.9999999999999999
 40
0.9999999999999999
 40
0.9999999999999999
 10
263.1825776126195
 20
320.5829825178059
 30
0.0
 10
263.5707611596434
 20
320.922495981499
 30
0.0
 10
264.3230200125958
 20
321.5804373360921
 30
0.0
 10
265.1223402745611
 20
322.8648982815008
 30
0.0
 10
265.6475358774775
 20
324.2632893758512
 30
0.0
 10
265.7130768957154
 20
325.2608085551631
 30
0.0
 10
265.7455475356389
 20
325.7550042048367
 30
0.0
  0
SPLINE
  5
2FA
330
1F
100
AcDbEntity
  8
0
  6
Continuous
 62
     7
370
    15
100
AcDbSpline
210
0.0
220
0.0
230
1.0
 70
     8
 71
     3
 72
    11
 73
     7
 74
     0
 42
0.00000001
 43
0.00000001
 40
0.0
 40
0.0
 40
0.0
 40
0.0
 40
0.2503151053061053
 40
0.5001258788417788
 40
0.7659093998669745
 40
1.0
 40
1.0
 40
1.0
 40
1.0
 10
263.1825776126195
 20
320.5829825178059
 30
0.0
 10
263.1788259460885
 20
320.588757332525
 30
0.0
 10
263.1713301718376
 20
320.6002953269382
 30
0.0
 10
263.1069519631541
 20
320.6871872250713
 30
0.0
 10
263.013945995534
 20
320.8106843591361
 30
0.0
 10
262.9390461376688
 20
320.9095182829196
 30
0.0
 10
262.9039706017782
 20
320.9558021202954
 30
0.0
  0
SPLINE
  5
2FB
330
1F
100
AcDbEntity
  8
0
  6
Continuous
 62
     7
370
    15
100
AcDbSpline
210
0.0
220
0.0
230
1.0
 70
     8
 71
     3
 72
    12
 73
     8
 74
     0
 42
0.00000001
 43
0.00000001
 40
0.0
 40
0.0
 40
0.0
 40
0.0
 40
0.233844741865382
 40
0.4993664170685926
 40
0.7489298974925642
 40
0.9111543443844244
 40
1.0
 40
1.0
 40
1.0
 40
1.0
 10
262.9039706017782
 20
359.5542129054936
 30
0.0
 10
262.9390016693652
 20
359.6004366888258
 30
0.0
 10
263.0138091615819
 20
359.6991457933446
 30
0.0
 10
263.1075884453474
 20
359.8236362842614
 30
0.0
 10
263.1620447856471
 20
359.8973096888978
 30
0.0
 10
263.1811210815067
 20
359.9238789447445
 30
0.0
 10
263.1821969110529
 20
359.9262027405929
 30
0.0
 10
263.1825776126195
 20
359.9270250574025
 30
0.0
  0
SPLINE
  5
2FC
330
1F
100
AcDbEntity
  8
0
  6
Continuous
 62
     7
370
    15
100
AcDbSpline
210
0.0
220
0.0
230
1.0
 70
     8
 71
     3
 72
    11
 73
     7
 74
     0
 42
0.00000001
 43
0.00000001
 40
0.0
 40
0.0
 40
0.0
 40
0.0
 40
0.2475724844842149
 40
0.4997225484429001
 40
0.741840823763012
 40
1.0
 40
1.0
 40
1.0
 40
1.0
 10
265.745547535639
 20
354.7550108209523
 30
0.0
 10
265.7130757096395
 20
355.2492011761921
 30
0.0
 10
265.6475316582684
 20
356.2467193949507
 30
0.0
 10
265.1223478849192
 20
357.6451049946106
 30
0.0
 10
264.3230241978948
 20
358.9295674457633
 30
0.0
 10
263.5707666058822
 20
359.5875071254943
 30
0.0
 10
263.1825776126195
 20
359.9270250574025
 30
0.0
  0
LINE
  5
2FD
330
1F
100
AcDbEntity
  8
0
  6
Continuous
 62
     7
370
    15
100
AcDbLine
 10
265.2891249683
 20
354.755010821
 30
0.0
 11
265.7455475356
 21
354.755010821
 31
0.0
  0
SPLINE
  5
2FE
330
1F
100
AcDbEntity
  8
0
  6
Continuous
 62
     7
370
    15
100
AcDbSpline
210
0.0
220
0.0
230
1.0
 70
     8
 71
     3
 72
    11
 73
     7
 74
     0
 42
0.00000001
 43
0.00000001
 40
0.0
 40
0.0
 40
0.0
 40
0.0
 40
0.2430053800410812
 40
0.490650878910363
 40
0.7429713999649755
 40
1.0
 40
1.0
 40
1.0
 40
1.0
 10
259.2455567147542
 20
319.2550059333714
 30
0.0
 10
259.5883466065658
 20
319.27057674778
 30
0.0
 10
260.2804718659755
 20
319.3020156968834
 30
0.0
 10
261.3001284854489
 20
319.5620861715067
 30
0.0
 10
262.2918185158007
 20
319.969924406353
 30
0.0
 10
262.8838338504864
 20
320.3773744164957
 30
0.0
 10
263.1825776126195
 20
320.5829825178059
 30
0.0
  0
LINE
  5
2FF
330
1F
100
AcDbEntity
  8
0
  6
Continuous
 62
     7
370
    15
100
AcDbLine
 10
259.2455567148
 20
319.7114285007
 30
0.0
 11
259.2455567148
 21
319.2550059334
 31
0.0
  0
SPLINE
  5
300
330
1F
100
AcDbEntity
  8
0
  6
Continuous
 62
     7
370
    15
100
AcDbSpline
210
0.0
220
0.0
230
1.0
 70
     8
 71
     3
 72
    11
 73
     7
 74
     0
 42
0.00000001
 43
0.00000001
 40
0.0
 40
0.0
 40
0.0
 40
0.0
 40
0.2570302186150495
 40
0.5093497826327393
 40
0.7569950178901717
 40
1.0
 40
1.0
 40
1.0
 40
1.0
 10
263.1825776126195
 20
359.9270250574025
 30
0.0
 10
262.8838348509854
 20
360.1326400038812
 30
0.0
 10
262.2918244581165
 20
360.5401015422922
 30
0.0
 10
261.3001261392419
 20
360.9479256876779
 30
0.0
 10
260.2804725481712
 20
361.2080020064181
 30
0.0
 10
259.588346766217
 20
361.2394341851185
 30
0.0
 10
259.2455567147542
 20
361.255001641837
 30
0.0
  0
LINE
  5
301
330
1F
100
AcDbEntity
  8
0
  6
Continuous
 62
     7
370
    15
100
AcDbLine
 10
259.2455567148
 20
361.2550016418
 30
0.0
 11
259.2455567148
 21
360.7985790745
 31
0.0
  0
LINE
  5
302
330
1F
100
AcDbEntity
  8
0
  6
Continuous
 62
     7
370
    15
100
AcDbLine
 10
259.2455567148
 20
319.2550059334
 30
0.0
 11
259.0455533292
 21
319.2550059334
 31
0.0
  0
LINE
  5
303
330
1F
100
AcDbEntity
  8
0
  6
Continuous
 62
     7
370
    15
100
AcDbLine
 10
259.0455533292
 20
361.2550016418
 30
0.0
 11
259.2455567148
 21
361.2550016418
 31
0.0
  0
LINE
  5
304
330
1F
100
AcDbEntity
  8
0
  6
Continuous
 62
     7
370
    15
100
AcDbLine
 10
265.7455475356
 20
354.755010821
 30
0.0
 11
265.7455475356
 21
325.7550042048
 31
0.0
  0
LINE
  5
305
330
1F
100
AcDbEntity
  8
0
  6
Continuous
 62
     7
370
    15
100
AcDbLine
 10
112.8019736435
 20
325.7550042048
 30
0.0
 11
112.8019736435
 21
354.755010821
 31
0.0
  0
SPLINE
  5
306
330
1F
100
AcDbEntity
  8
0
  6
Continuous
 62
     7
370
    15
100
AcDbSpline
210
0.0
220
0.0
230
1.0
 70
     8
 71
     3
 72
    11
 73
     7
 74
     0
 42
0.00000001
 43
0.00000001
 40
0.0
 40
0.0
 40
0.0
 40
0.0
 40
0.2497850850470059
 40
0.499669758721367
 40
0.749726597395874
 40
0.9999999999999999
 40
0.9999999999999999
 40
0.9999999999999999
 40
0.9999999999999999
 10
112.8019736435224
 20
354.7550108209523
 30
0.0
 10
112.8328281578708
 20
355.2179586164339
 30
0.0
 10
112.8945494881775
 20
356.1440387834118
 30
0.0
 10
113.3910372715934
 20
357.4544169194945
 30
0.0
 10
114.1393351414711
 20
358.639099395442
 30
0.0
 10
114.8414082423705
 20
359.2449153361528
 30
0.0
 10
115.1925967361738
 20
359.5479544177922
 30
0.0
  0
LINE
  5
307
330
1F
100
AcDbEntity
  8
0
  6
Continuous
 62
     7
370
    15
100
AcDbLine
 10
115.1925967362
 20
359.5479544178
 30
0.0
 11
118.0605785277
 21
356.6799875275
 31
0.0
  0
LINE
  5
308
330
1F
100
AcDbEntity
  8
0
  6
Continuous
 62
     7
370
    15
100
AcDbLine
 10
118.0605785277
 20
356.6799875275
 30
0.0
 11
118.0605785277
 21
323.8300349489
 31
0.0
  0
LINE
  5
309
330
1F
100
AcDbEntity
  8
0
  6
Continuous
 62
     7
370
    15
100
AcDbLine
 10
115.1925967362
 20
320.9620531574
 30
0.0
 11
118.0605785277
 21
323.8300349489
 31
0.0
  0
SPLINE
  5
30A
330
1F
100
AcDbEntity
  8
0
  6
Continuous
 62
     7
370
    15
100
AcDbSpline
210
0.0
220
0.0
230
1.0
 70
     8
 71
     3
 72
    11
 73
     7
 74
     0
 42
0.00000001
 43
0.00000001
 40
0.0
 40
0.0
 40
0.0
 40
0.0
 40
0.2502731213179744
 40
0.5003308028652101
 40
0.750215195690318
 40
1.0
 40
1.0
 40
1.0
 40
1.0
 10
115.1925967361738
 20
320.9620531574162
 30
0.0
 10
114.8414079002057
 20
321.265092021591
 30
0.0
 10
114.1393325381697
 20
321.8709088884345
 30
0.0
 10
113.3910393567703
 20
323.0555970175087
 30
0.0
 10
112.8945491532074
 20
324.3659760236409
 30
0.0
 10
112.8328280462289
 20
325.2920563364526
 30
0.0
 10
112.8019736435224
 20
325.7550042048367
 30
0.0
  0
SPLINE
  5
30B
330
1F
100
AcDbEntity
  8
0
  6
Continuous
 62
     7
370
    15
100
AcDbSpline
210
0.0
220
0.0
230
1.0
 70
     8
 71
     3
 72
    11
 73
     7
 74
     0
 42
0.00000001
 43
0.00000001
 40
0.0
 40
0.0
 40
0.0
 40
0.0
 40
0.2498827428774004
 40
0.4998155259772196
 40
0.7498424821131708
 40
1.0
 40
1.0
 40
1.0
 40
1.0
 10
118.8455493476202
 20
319.711428500739
 30
0.0
 10
118.517577612384
 20
319.7268571655528
 30
0.0
 10
117.8615684639925
 20
319.7577175848451
 30
0.0
 10
116.905744385154
 20
320.0090367522378
 30
0.0
 10
115.9949318141202
 20
320.392714355329
 30
0.0
 10
115.4564477647648
 20
320.7680735389881
 30
0.0
 10
115.1871354605963
 20
320.9558021202954
 30
0.0
  0
SPLINE
  5
30C
330
1F
100
AcDbEntity
  8
0
  6
Continuous
 62
     7
370
    15
100
AcDbSpline
210
0.0
220
0.0
230
1.0
 70
    24
 71
     1
 72
     4
 73
     2
 74
     0
 42
0.00000001
 43
0.00000001
 40
0.0
 40
0.0
 40
1.0
 40
1.0
 10
115.1871354605963
 20
320.9558021202954
 30
0.0
 10
115.1925967361738
 20
320.9620531574162
 30
0.0
  0
LINE
  5
30D
330
1F
100
AcDbEntity
  8
0
  6
Continuous
 62
     7
370
    15
100
AcDbLine
 10
118.0605785277
 20
323.8300349489
 30
0.0
 11
119.0455527332
 21
323.8300349489
 31
0.0
  0
LINE
  5
30E
330
1F
100
AcDbEntity
  8
0
  6
Continuous
 62
     7
370
    15
100
AcDbLine
 10
119.0455527332
 20
319.7114285007
 30
0.0
 11
118.8455493476
 21
319.7114285007
 31
0.0
  0
SPLINE
  5
30F
330
1F
100
AcDbEntity
  8
0
  6
Continuous
 62
     7
370
    15
100
AcDbSpline
210
0.0
220
0.0
230
1.0
 70
    24
 71
     1
 72
     4
 73
     2
 74
     0
 42
0.00000001
 43
0.00000001
 40
0.0
 40
0.0
 40
1.0
 40
1.0
 10
115.1925967361738
 20
359.5479544177922
 30
0.0
 10
115.1871354605963
 20
359.5542129054936
 30
0.0
  0
SPLINE
  5
310
330
1F
100
AcDbEntity
  8
0
  6
Continuous
 62
     7
370
    15
100
AcDbSpline
210
0.0
220
0.0
230
1.0
 70
     8
 71
     3
 72
    11
 73
     7
 74
     0
 42
0.00000001
 43
0.00000001
 40
0.0
 40
0.0
 40
0.0
 40
0.0
 40
0.2498826946734054
 40
0.4998155847293067
 40
0.7498434024406048
 40
1.0
 40
1.0
 40
1.0
 40
1.0
 10
118.8455493476202
 20
360.7985790744694
 30
0.0
 10
118.5175776581364
 20
360.7831533311665
 30
0.0
 10
117.8615683975981
 20
360.7522987459022
 30
0.0
 10
116.9057422834864
 20
360.5009800381765
 30
0.0
 10
115.994935682604
 20
360.1172909236786
 30
0.0
 10
115.4564484150928
 20
359.7419377916202
 30
0.0
 10
115.1871354605963
 20
359.5542129054936
 30
0.0
  0
LINE
  5
311
330
1F
100
AcDbEntity
  8
0
  6
Continuous
 62
     7
370
    15
100
AcDbLine
 10
119.0455527332
 20
360.7985790745
 30
0.0
 11
118.8455493476
 21
360.7985790745
 31
0.0
  0
LINE
  5
312
330
1F
100
AcDbEntity
  8
0
  6
Continuous
 62
     7
370
    15
100
AcDbLine
 10
118.0605785277
 20
356.6799875275
 30
0.0
 11
119.0455527332
 21
356.6799875275
 31
0.0
  0
LINE
  5
313
330
1F
100
AcDbEntity
  8
0
  6
Continuous
 62
     7
370
    15
100
AcDbLine
 10
119.0455527332
 20
323.8300349489
 30
0.0
 11
119.0455527332
 21
356.6799875275
 31
0.0
  0
LINE
  5
314
330
1F
100
AcDbEntity
  8
0
  6
Continuous
 62
     7
370
    15
100
AcDbLine
 10
112.3455510762
 20
354.755010821
 30
0.0
 11
112.8019736435
 21
354.755010821
 31
0.0
  0
SPLINE
  5
315
330
1F
100
AcDbEntity
  8
0
  6
Continuous
 62
     7
370
    15
100
AcDbSpline
210
0.0
220
0.0
230
1.0
 70
     8
 71
     3
 72
    11
 73
     7
 74
     0
 42
0.00000001
 43
0.00000001
 40
0.0
 40
0.0
 40
0.0
 40
0.0
 40
0.2581554325281494
 40
0.5002776798937998
 40
0.7524252147095372
 40
1.0
 40
1.0
 40
1.0
 40
1.0
 10
114.9085284497549
 20
359.9270250574025
 30
0.0
 10
114.5203459556452
 20
359.5875109189728
 30
0.0
 10
113.768089705886
 20
358.9295687490118
 30
0.0
 10
112.9687548206275
 20
357.6451181296966
 30
0.0
 10
112.4435635434813
 20
356.2467251296267
 30
0.0
 10
112.3780219841497
 20
355.2492062982501
 30
0.0
 10
112.3455510761549
 20
354.7550108209523
 30
0.0
  0
SPLINE
  5
316
330
1F
100
AcDbEntity
  8
0
  6
Continuous
 62
     7
370
    15
100
AcDbSpline
210
0.0
220
0.0
230
1.0
 70
     8
 71
     3
 72
    11
 73
     7
 74
     0
 42
0.00000001
 43
0.00000001
 40
0.0
 40
0.0
 40
0.0
 40
0.0
 40
0.2503109755381175
 40
0.5001287082690806
 40
0.765911720298334
 40
1.0
 40
1.0
 40
1.0
 40
1.0
 10
114.9085284497549
 20
359.9270250574025
 30
0.0
 10
114.9122732580489
 20
359.9212537422848
 30
0.0
 10
114.9197554954169
 20
359.9097224845418
 30
0.0
 10
114.984149834346
 20
359.8228194282837
 30
0.0
 10
115.0771490543502
 20
359.6993221615461
 30
0.0
 10
115.1520565139747
 20
359.6004938962188
 30
0.0
 10
115.1871354605963
 20
359.5542129054936
 30
0.0
  0
SPLINE
  5
317
330
1F
100
AcDbEntity
  8
0
  6
Continuous
 62
     7
370
    15
100
AcDbSpline
210
0.0
220
0.0
230
1.0
 70
     8
 71
     3
 72
    12
 73
     8
 74
     0
 42
0.00000001
 43
0.00000001
 40
0.0
 40
0.0
 40
0.0
 40
0.0
 40
0.2338426302861636
 40
0.4993732513121357
 40
0.7489333712676901
 40
0.9111548997289657
 40
1.0
 40
1.0
 40
1.0
 40
1.0
 10
115.1871354605963
 20
320.9558021202954
 30
0.0
 10
115.1521044515642
 20
320.9095787196546
 30
0.0
 10
115.0772953850749
 20
320.8108681901143
 30
0.0
 10
114.9835142238894
 20
320.6863699060404
 30
0.0
 10
114.9290423487723
 20
320.6127052217544
 30
0.0
 10
114.9099749870671
 20
320.5861396904445
 30
0.0
 10
114.9089065413051
 20
320.5838077300469
 30
0.0
 10
114.9085284497549
 20
320.5829825178059
 30
0.0
  0
SPLINE
  5
318
330
1F
100
AcDbEntity
  8
0
  6
Continuous
 62
     7
370
    15
100
AcDbSpline
210
0.0
220
0.0
230
1.0
 70
     8
 71
     3
 72
    11
 73
     7
 74
     0
 42
0.00000001
 43
0.00000001
 40
0.0
 40
0.0
 40
0.0
 40
0.0
 40
0.2475721031190745
 40
0.499721778661233
 40
0.7418403550684987
 40
1.0
 40
1.0
 40
1.0
 40
1.0
 10
112.3455510761549
 20
325.7550042048367
 30
0.0
 10
112.3780230791763
 20
325.260813972149
 30
0.0
 10
112.4435674878642
 20
324.2632960007609
 30
0.0
 10
112.9687490567859
 20
322.864907274015
 30
0.0
 10
113.7680847963759
 20
321.5804493351434
 30
0.0
 10
114.5203403835807
 20
320.9225036451741
 30
0.0
 10
114.9085284497549
 20
320.5829825178059
 30
0.0
  0
LINE
  5
319
330
1F
100
AcDbEntity
  8
0
  6
Continuous
 62
     7
370
    15
100
AcDbLine
 10
112.8019736435
 20
325.7550042048
 30
0.0
 11
112.3455510762
 21
325.7550042048
 31
0.0
  0
SPLINE
  5
31A
330
1F
100
AcDbEntity
  8
0
  6
Continuous
 62
     7
370
    15
100
AcDbSpline
210
0.0
220
0.0
230
1.0
 70
     8
 71
     3
 72
    11
 73
     7
 74
     0
 42
0.00000001
 43
0.00000001
 40
0.0
 40
0.0
 40
0.0
 40
0.0
 40
0.243006706594188
 40
0.4906519083251836
 40
0.7429698161819348
 40
1.0
 40
1.0
 40
1.0
 40
1.0
 10
118.8455493476202
 20
361.255001641837
 30
0.0
 10
118.5027568276618
 20
361.2394342752905
 30
0.0
 10
117.8106285879336
 20
361.2080023933861
 30
0.0
 10
116.7909742557969
 20
360.9479272894052
 30
0.0
 10
115.7992800539569
 20
360.5400994355206
 30
0.0
 10
115.2072713237189
 20
360.1326397324799
 30
0.0
 10
114.9085284497549
 20
359.9270250574025
 30
0.0
  0
LINE
  5
31B
330
1F
100
AcDbEntity
  8
0
  6
Continuous
 62
     7
370
    15
100
AcDbLine
 10
118.8455493476
 20
360.7985790745
 30
0.0
 11
118.8455493476
 21
361.2550016418
 31
0.0
  0
SPLINE
  5
31C
330
1F
100
AcDbEntity
  8
0
  6
Continuous
 62
     7
370
    15
100
AcDbSpline
210
0.0
220
0.0
230
1.0
 70
     8
 71
     3
 72
    11
 73
     7
 74
     0
 42
0.00000001
 43
0.00000001
 40
0.0
 40
0.0
 40
0.0
 40
0.0
 40
0.2570285652373437
 40
0.5093474301326881
 40
0.7569928954746152
 40
1.0
 40
1.0
 40
1.0
 40
1.0
 10
114.9085284497549
 20
320.5829825178059
 30
0.0
 10
115.2072723242225
 20
320.3773746879006
 30
0.0
 10
115.7992859962726
 20
319.9699265131005
 30
0.0
 10
116.7909719095757
 20
319.5620845697851
 30
0.0
 10
117.8106292701313
 20
319.3020153099091
 30
0.0
 10
118.5027569873151
 20
319.2705766576141
 30
0.0
 10
118.8455493476202
 20
319.2550059333714
 30
0.0
  0
LINE
  5
31D
330
1F
100
AcDbEntity
  8
0
  6
Continuous
 62
     7
370
    15
100
AcDbLine
 10
118.8455493476
 20
319.2550059334
 30
0.0
 11
118.8455493476
 21
319.7114285007
 31
0.0
  0
LINE
  5
31E
330
1F
100
AcDbEntity
  8
0
  6
Continuous
 62
     7
370
    15
100
AcDbLine
 10
118.8455493476
 20
361.2550016418
 30
0.0
 11
119.0455527332
 21
361.2550016418
 31
0.0
  0
LINE
  5
31F
330
1F
100
AcDbEntity
  8
0
  6
Continuous
 62
     7
370
    15
100
AcDbLine
 10
119.0455527332
 20
319.2550059334
 30
0.0
 11
118.8455493476
 21
319.2550059334
 31
0.0
  0
LINE
  5
320
330
1F
100
AcDbEntity
  8
0
  6
Continuous
 62
     7
370
    15
100
AcDbLine
 10
112.3455510762
 20
325.7550042048
 30
0.0
 11
112.3455510762
 21
354.755010821
 31
0.0
  0
LINE
  5
321
330
1F
100
AcDbEntity
  8
0
  6
Continuous
 62
     7
370
    15
100
AcDbLine
 10
119.0455527332
 20
354.3550040499
 30
0.0
 11
259.0455533292
 21
354.3550040499
 31
0.0
  0
LINE
  5
322
330
1F
100
AcDbEntity
  8
0
  6
Continuous
 62
     7
370
    15
100
AcDbLine
 10
119.0455527332
 20
356.6829826609
 30
0.0
 11
119.0455527332
 21
354.3550040499
 31
0.0
  0
LINE
  5
323
330
1F
100
AcDbEntity
  8
0
  6
Continuous
 62
     7
370
    15
100
AcDbLine
 10
119.0455527332
 20
356.6829826609
 30
0.0
 11
259.0455533292
 21
356.6829826609
 31
0.0
  0
LINE
  5
324
330
1F
100
AcDbEntity
  8
0
  6
Continuous
 62
     7
370
    15
100
AcDbLine
 10
259.0455533292
 20
354.3550040499
 30
0.0
 11
259.0455533292
 21
356.6829826609
 31
0.0
  0
LINE
  5
325
330
1F
100
AcDbEntity
  8
0
  6
Continuous
 62
     7
370
    15
100
AcDbLine
 10
119.0455527332
 20
323.8270249144
 30
0.0
 11
259.0455533292
 21
323.8270249144
 31
0.0
  0
LINE
  5
326
330
1F
100
AcDbEntity
  8
0
  6
Continuous
 62
     7
370
    15
100
AcDbLine
 10
119.0455527332
 20
326.1550035253
 30
0.0
 11
119.0455527332
 21
323.8270249144
 31
0.0
  0
LINE
  5
327
330
1F
100
AcDbEntity
  8
0
  6
Continuous
 62
     7
370
    15
100
AcDbLine
 10
119.0455527332
 20
326.1550035253
 30
0.0
 11
259.0455533292
 21
326.1550035253
 31
0.0
  0
LINE
  5
328
330
1F
100
AcDbEntity
  8
0
  6
Continuous
 62
     7
370
    15
100
AcDbLine
 10
259.0455533292
 20
323.8270249144
 30
0.0
 11
259.0455533292
 21
326.1550035253
 31
0.0
  0
LINE
  5
329
330
1F
100
AcDbEntity
  8
0
  6
Continuous
 62
     7
370
    15
100
AcDbLine
 10
259.0455533292
 20
360.7985790745
 30
0.0
 11
119.0455527332
 21
360.7985790745
 31
0.0
  0
LINE
  5
32A
330
1F
100
AcDbEntity
  8
0
  6
Continuous
 62
     7
370
    15
100
AcDbLine
 10
119.0455527332
 20
360.7985790745
 30
0.0
 11
119.0455527332
 21
356.6829826609
 31
0.0
  0
LINE
  5
32B
330
1F
100
AcDbEntity
  8
0
  6
Continuous
 62
     7
370
    15
100
AcDbLine
 10
259.0455533292
 20
356.6829826609
 30
0.0
 11
259.0455533292
 21
360.7985790745
 31
0.0
  0
LINE
  5
32C
330
1F
100
AcDbEntity
  8
0
  6
Continuous
 62
     7
370
    15
100
AcDbLine
 10
119.0455527332
 20
319.7114285007
 30
0.0
 11
259.0455533292
 21
319.7114285007
 31
0.0
  0
LINE
  5
32D
330
1F
100
AcDbEntity
  8
0
  6
Continuous
 62
     7
370
    15
100
AcDbLine
 10
119.0455527332
 20
323.8270249144
 30
0.0
 11
119.0455527332
 21
319.7114285007
 31
0.0
  0
LINE
  5
32E
330
1F
100
AcDbEntity
  8
0
  6
Continuous
 62
     7
370
    15
100
AcDbLine
 10
259.0455533292
 20
319.7114285007
 30
0.0
 11
259.0455533292
 21
323.8270249144
 31
0.0
  0
LINE
  5
32F
330
1F
100
AcDbEntity
  8
0
  6
Continuous
 62
     7
370
    15
100
AcDbLine
 10
119.0455527332
 20
361.2550016418
 30
0.0
 11
259.0455533292
 21
361.2550016418
 31
0.0
  0
LINE
  5
330
330
1F
100
AcDbEntity
  8
0
  6
Continuous
 62
     7
370
    15
100
AcDbLine
 10
119.0455527332
 20
361.2550016418
 30
0.0
 11
119.0455527332
 21
360.7985790745
 31
0.0
  0
LINE
  5
331
330
1F
100
AcDbEntity
  8
0
  6
Continuous
 62
     7
370
    15
100
AcDbLine
 10
259.0455533292
 20
361.2550016418
 30
0.0
 11
259.0455533292
 21
360.7985790745
 31
0.0
  0
LINE
  5
332
330
1F
100
AcDbEntity
  8
0
  6
Continuous
 62
     7
370
    15
100
AcDbLine
 10
259.0455533292
 20
319.2550059334
 30
0.0
 11
119.0455527332
 21
319.2550059334
 31
0.0
  0
LINE
  5
333
330
1F
100
AcDbEntity
  8
0
  6
Continuous
 62
     7
370
    15
100
AcDbLine
 10
119.0455527332
 20
319.7114285007
 30
0.0
 11
119.0455527332
 21
319.2550059334
 31
0.0
  0
LINE
  5
334
330
1F
100
AcDbEntity
  8
0
  6
Continuous
 62
     7
370
    15
100
AcDbLine
 10
259.0455533292
 20
319.7114285007
 30
0.0
 11
259.0455533292
 21
319.2550059334
 31
0.0
  0
LINE
  5
335
330
1F
100
AcDbEntity
  8
0
  6
Continuous
 62
     7
370
    15
100
AcDbLine
 10
119.0455527332
 20
354.0550138727
 30
0.0
 11
259.0455533292
 21
354.0550138727
 31
0.0
  0
LINE
  5
336
330
1F
100
AcDbEntity
  8
0
  6
Continuous
 62
     7
370
    15
100
AcDbLine
 10
259.0455533292
 20
326.4550086037
 30
0.0
 11
119.0455527332
 21
326.4550086037
 31
0.0
  0
LINE
  5
337
330
1F
100
AcDbEntity
  8
0
  6
Continuous
 62
     7
370
    15
100
AcDbLine
 10
119.0455527332
 20
352.7550067678
 30
0.0
 11
259.0455533292
 21
352.7550067678
 31
0.0
  0
LINE
  5
338
330
1F
100
AcDbEntity
  8
0
  6
Continuous
 62
     7
370
    15
100
AcDbLine
 10
119.0455527332
 20
327.755008258
 30
0.0
 11
259.0455533292
 21
327.755008258
 31
0.0
  0
LINE
  5
339
330
1F
100
AcDbEntity
  8
0
  6
Continuous
 62
     7
370
    15
100
AcDbLine
 10
278.2463551786
 20
333.1227864996
 30
0.0
 11
277.5048137929
 21
333.1227864996
 31
0.0
  0
LINE
  5
33A
330
1F
100
AcDbEntity
  8
0
  6
Continuous
 62
     7
370
    15
100
AcDbLine
 10
278.5048158195
 20
333.1227864996
 30
0.0
 11
278.2463551786
 21
333.1227864996
 31
0.0
  0
LINE
  5
33B
330
1F
100
AcDbEntity
  8
0
  6
Continuous
 62
     7
370
    15
100
AcDbLine
 10
277.5048137929
 20
345.4550024048
 30
0.0
 11
278.2463551786
 21
345.4550024048
 31
0.0
  0
LINE
  5
33C
330
1F
100
AcDbEntity
  8
0
  6
Continuous
 62
     7
370
    15
100
AcDbLine
 10
278.2463551786
 20
345.4550024048
 30
0.0
 11
278.5048158195
 21
345.4550024048
 31
0.0
  0
ARC
  5
33D
330
1F
100
AcDbEntity
  8
0
  6
Continuous
 62
     7
370
    15
100
AcDbCircle
 10
275.6376741189
 20
332.8472185894
 30
0.0
 40
2.62319548345678
100
AcDbArc
 50
311.1490407744
 51
6.0300741775
  0
ARC
  5
33E
330
1F
100
AcDbEntity
  8
0
  6
Continuous
 62
     7
370
    15
100
AcDbCircle
 10
275.891028106
 20
345.8308753037
 30
0.0
 40
2.385130196675448
100
AcDbArc
 50
350.9329555903
 51
51.7668378527
  0
LINE
  5
33F
330
1F
100
AcDbEntity
  8
0
  6
Continuous
 62
     7
370
    15
100
AcDbLine
 10
95.9636987474
 20
333.1227864996
 30
0.0
 11
95.7508729126
 21
333.1227864996
 31
0.0
  0
LINE
  5
340
330
1F
100
AcDbEntity
  8
0
  6
Continuous
 62
     7
370
    15
100
AcDbLine
 10
96.7508749392
 20
333.1227864996
 30
0.0
 11
95.9636987474
 21
333.1227864996
 31
0.0
  0
LINE
  5
341
330
1F
100
AcDbEntity
  8
0
  6
Continuous
 62
     7
370
    15
100
AcDbLine
 10
95.7508729126
 20
345.4550024048
 30
0.0
 11
95.9636987474
 21
345.4550024048
 31
0.0
  0
LINE
  5
342
330
1F
100
AcDbEntity
  8
0
  6
Continuous
 62
     7
370
    15
100
AcDbLine
 10
95.9636987474
 20
345.4550024048
 30
0.0
 11
96.7508749392
 21
345.4550024048
 31
0.0
  0
ARC
  5
343
330
1F
100
AcDbEntity
  8
0
  6
Continuous
 62
     7
370
    15
100
AcDbCircle
 10
98.3919535823
 20
332.8829827593
 30
0.0
 40
2.440067084600622
100
AcDbArc
 50
174.3600089987
 51
235.4057654252
  0
ARC
  5
344
330
1F
100
AcDbEntity
  8
0
  6
Continuous
 62
     7
370
    15
100
AcDbCircle
 10
98.1985266281
 20
345.783781223
 30
0.0
 40
2.258882725561585
100
AcDbArc
 50
121.7440829409
 51
188.3690897031
  0
ENDSEC
  0
SECTION
  2
OBJECTS
  0
DICTIONARY
  5
C
330
0
100
AcDbDictionary
281
     1
  3
ACAD_GROUP
350
D
  3
ACAD_LAYOUT
350
1A
  3
ACAD_MLEADERSTYLE
350
346
  3
ACAD_MLINESTYLE
350
17
  3
ACAD_PLOTSETTINGS
350
19
  3
ACAD_PLOTSTYLENAME
350
E
  3
ACAD_TABLESTYLE
350
345
  3
ACAD_VISUALSTYLE
350
2A
  3
AcDbVariableDictionary
350
347
  0
DICTIONARY
  5
D
102
{ACAD_REACTORS
330
C
102
}
330
C
100
AcDbDictionary
281
     1
  0
DICTIONARY
  5
1A
102
{ACAD_REACTORS
330
C
102
}
330
C
100
AcDbDictionary
281
     1
  3
Layout1
350
1E
  3
Layout2
350
26
  3
Model
350
22
  0
DICTIONARY
  5
346
102
{ACAD_REACTORS
330
C
102
}
330
C
100
AcDbDictionary
281
     1
  0
DICTIONARY
  5
17
102
{ACAD_REACTORS
330
C
102
}
330
C
100
AcDbDictionary
281
     1
  3
Standard
350
18
  0
DICTIONARY
  5
19
102
{ACAD_REACTORS
330
C
102
}
330
C
100
AcDbDictionary
281
     1
  0
ACDBDICTIONARYWDFLT
  5
E
102
{ACAD_REACTORS
330
C
102
}
330
C
100
AcDbDictionary
281
     1
  3
Normal
350
F
100
AcDbDictionaryWithDefault
340
F
  0
DICTIONARY
  5
345
102
{ACAD_REACTORS
330
C
102
}
330
C
100
AcDbDictionary
281
     1
  0
DICTIONARY
  5
2A
102
{ACAD_REACTORS
330
C
102
}
330
C
100
AcDbDictionary
281
     1
  3
2dWireframe
350
2F
  3
3D Hidden
350
31
  3
3dWireframe
350
30
  3
Basic
350
32
  3
Brighten
350
36
  3
ColorChange
350
3A
  3
Conceptual
350
34
  3
Dim
350
35
  3
Facepattern
350
39
  3
Flat
350
2B
  3
FlatWithEdges
350
2C
  3
Gouraud
350
2D
  3
GouraudWithEdges
350
2E
  3
Linepattern
350
38
  3
Realistic
350
33
  3
Thicken
350
37
  0
DICTIONARY
  5
347
102
{ACAD_REACTORS
330
C
102
}
330
C
100
AcDbDictionary
281
     1
  3
PSOLHEIGHT
350
349
  3
PSOLWIDTH
350
348
  0
LAYOUT
  5
1E
102
{ACAD_REACTORS
330
1A
102
}
330
1A
100
AcDbPlotSettings
  1

  2
none_device
  4

  6

 40
0.0
 41
0.0
 42
0.0
 43
0.0
 44
0.0
 45
0.0
 46
0.0
 47
0.0
 48
0.0
 49
0.0
140
0.0
141
0.0
142
1.0
143
1.0
 70
   688
 72
     0
 73
     0
 74
     5
  7

 75
    16
147
1.0
148
0.0
149
0.0
100
AcDbLayout
  1
Layout1
 70
     1
 71
     1
 10
0.0
 20
0.0
 11
420.0
 21
297.0
 12
0.0
 22
0.0
 32
0.0
 14
1.0000000000E+20
 24
1.0000000000E+20
 34
1.0000000000E+20
 15
-1.0000000000E+20
 25
-1.0000000000E+20
 35
-1.0000000000E+20
146
0.0
 13
0.0
 23
0.0
 33
0.0
 16
1.0
 26
0.0
 36
0.0
 17
0.0
 27
1.0
 37
0.0
 76
     0
330
1B
  0
LAYOUT
  5
26
102
{ACAD_REACTORS
330
1A
102
}
330
1A
100
AcDbPlotSettings
  1

  2
none_device
  4

  6

 40
0.0
 41
0.0
 42
0.0
 43
0.0
 44
0.0
 45
0.0
 46
0.0
 47
0.0
 48
0.0
 49
0.0
140
0.0
141
0.0
142
1.0
143
1.0
 70
   688
 72
     0
 73
     0
 74
     5
  7

 75
    16
147
1.0
148
0.0
149
0.0
100
AcDbLayout
  1
Layout2
 70
     1
 71
     2
 10
0.0
 20
0.0
 11
0.0
 21
0.0
 12
0.0
 22
0.0
 32
0.0
 14
0.0
 24
0.0
 34
0.0
 15
0.0
 25
0.0
 35
0.0
146
0.0
 13
0.0
 23
0.0
 33
0.0
 16
1.0
 26
0.0
 36
0.0
 17
0.0
 27
1.0
 37
0.0
 76
     0
330
23
  0
LAYOUT
  5
22
102
{ACAD_REACTORS
330
1A
102
}
330
1A
100
AcDbPlotSettings
  1

  2
none_device
  4

  6

 40
0.0
 41
0.0
 42
0.0
 43
0.0
 44
0.0
 45
0.0
 46
0.0
 47
0.0
 48
0.0
 49
0.0
140
0.0
141
0.0
142
1.0
143
1.0
 70
  1712
 72
     0
 73
     0
 74
     0
  7

 75
     0
147
1.0
148
0.0
149
0.0
100
AcDbLayout
  1
Model
 70
     1
 71
     0
 10
0.0
 20
0.0
 11
594.0
 21
420.0
 12
0.0
 22
0.0
 32
0.0
 14
0.0
 24
0.0
 34
0.0
 15
594.0
 25
420.0
 35
0.0
146
0.0
 13
0.0
 23
0.0
 33
0.0
 16
1.0
 26
0.0
 36
0.0
 17
0.0
 27
1.0
 37
0.0
 76
     0
330
1F
331
29
  0
MLINESTYLE
  5
18
102
{ACAD_REACTORS
330
17
102
}
330
17
100
AcDbMlineStyle
  2
Standard
 70
     0
  3

 62
   256
 51
90.0
 52
90.0
 71
     2
 49
0.5
 62
   256
  6
BYLAYER
 49
-0.5
 62
   256
  6
BYLAYER
  0
ACDBPLACEHOLDER
  5
F
102
{ACAD_REACTORS
330
E
102
}
330
E
  0
VISUALSTYLE
  5
2F
102
{ACAD_REACTORS
330
2A
102
}
330
2A
100
AcDbVisualStyle
  2
2dWireframe
 70
     4
 71
     0
 72
     2
 73
     0
 90
        0
 40
-0.6
 41
-30.0
 62
     5
 63
     7
 74
     1
 91
        4
 64
     7
 65
   257
 75
     1
175
     1
 42
1.0
 92
        0
 66
   257
 43
1.0
 76
     1
 77
     6
 78
     2
 67
     7
 79
     5
170
     0
171
     0
290
     0
174
     0
 93
        1
 44
0.0
173
     0
291
     0
 45
0.0
1001
ACAD
1000
AcDbSavedByObjectVersion
1070
     0
  0
VISUALSTYLE
  5
31
102
{ACAD_REACTORS
330
2A
102
}
330
2A
100
AcDbVisualStyle
  2
3D Hidden
 70
     6
 71
     1
 72
     2
 73
     2
 90
        0
 40
-0.6
 41
-30.0
 62
     5
 63
     7
 74
     2
 91
        2
 64
     7
 65
   257
 75
     2
175
     1
 42
40.0
 92
        0
 66
   257
 43
1.0
 76
     1
 77
     6
 78
     2
 67
     7
 79
     3
170
     0
171
     0
290
     0
174
     0
 93
        1
 44
0.0
173
     0
291
     0
 45
0.0
1001
ACAD
1000
AcDbSavedByObjectVersion
1070
     0
  0
VISUALSTYLE
  5
30
102
{ACAD_REACTORS
330
2A
102
}
330
2A
100
AcDbVisualStyle
  2
3dWireframe
 70
     5
 71
     0
 72
     2
 73
     0
 90
        0
 40
-0.6
 41
-30.0
 62
     5
 63
     7
 74
     1
 91
        4
 64
     7
 65
   257
 75
     1
175
     1
 42
1.0
 92
        0
 66
   257
 43
1.0
 76
     1
 77
     6
 78
     2
 67
     7
 79
     5
170
     0
171
     0
290
     0
174
     0
 93
        1
 44
0.0
173
     0
291
     0
 45
0.0
1001
ACAD
1000
AcDbSavedByObjectVersion
1070
     0
  0
VISUALSTYLE
  5
32
102
{ACAD_REACTORS
330
2A
102
}
330
2A
100
AcDbVisualStyle
  2
Basic
 70
     7
 71
     1
 72
     0
 73
     1
 90
        0
 40
-0.6
 41
-30.0
 62
     5
 63
     7
 74
     0
 91
        4
 64
     7
 65
   257
 75
     1
175
     1
 42
1.0
 92
        8
 66
     7
 43
1.0
 76
     1
 77
     6
 78
     2
 67
     7
 79
     5
170
     0
171
     0
290
     0
174
     0
 93
        1
 44
0.0
173
     0
291
     1
 45
0.0
1001
ACAD
1000
AcDbSavedByObjectVersion
1070
     0
  0
VISUALSTYLE
  5
36
102
{ACAD_REACTORS
330
2A
102
}
330
2A
100
AcDbVisualStyle
  2
Brighten
 70
    12
 71
     2
 72
     2
 73
     0
 90
        0
 40
-0.6
 41
-30.0
 62
     5
 63
     7
 74
     1
 91
        4
 64
     7
 65
   257
 75
     1
175
     1
 42
1.0
 92
        8
 66
     7
 43
1.0
 76
     1
 77
     6
 78
     2
 67
     7
 79
     5
170
     0
171
     0
290
     0
174
     0
 93
        1
 44
50.0
173
     0
291
     1
 45
0.0
1001
ACAD
1000
AcDbSavedByObjectVersion
1070
     0
  0
VISUALSTYLE
  5
3A
102
{ACAD_REACTORS
330
2A
102
}
330
2A
100
AcDbVisualStyle
  2
ColorChange
 70
    16
 71
     2
 72
     2
 73
     3
 90
        0
 40
-0.6
 41
-30.0
 62
     5
 63
     8
 74
     1
 91
        4
 64
     7
 65
   257
 75
     1
175
     1
 42
1.0
 92
        8
 66
     8
 43
1.0
 76
     1
 77
     6
 78
     2
 67
     7
 79
     5
170
     0
171
     0
290
     0
174
     0
 93
        1
 44
0.0
173
     0
291
     1
 45
0.0
1001
ACAD
1000
AcDbSavedByObjectVersion
1070
     0
  0
VISUALSTYLE
  5
34
102
{ACAD_REACTORS
330
2A
102
}
330
2A
100
AcDbVisualStyle
  2
Conceptual
 70
     9
 71
     3
 72
     2
 73
     0
 90
        0
 40
-0.6
 41
-30.0
 62
     5
 63
     7
 74
     2
 91
        2
 64
     7
 65
   257
 75
     1
175
     1
 42
40.0
 92
        8
 66
     7
 43
1.0
 76
     1
 77
     6
 78
     2
 67
     7
 79
     3
170
     0
171
     0
290
     0
174
     0
 93
        1
 44
0.0
173
     0
291
     0
 45
0.0
1001
ACAD
1000
AcDbSavedByObjectVersion
1070
     0
  0
VISUALSTYLE
  5
35
102
{ACAD_REACTORS
330
2A
102
}
330
2A
100
AcDbVisualStyle
  2
Dim
 70
    11
 71
     2
 72
     2
 73
     0
 90
        0
 40
-0.6
 41
-30.0
 62
     5
 63
     7
 74
     1
 91
        4
 64
     7
 65
   257
 75
     1
175
     1
 42
1.0
 92
        8
 66
     7
 43
1.0
 76
     1
 77
     6
 78
     2
 67
     7
 79
     5
170
     0
171
     0
290
     0
174
     0
 93
        1
 44
-50.0
173
     0
291
     1
 45
0.0
1001
ACAD
1000
AcDbSavedByObjectVersion
1070
     0
  0
VISUALSTYLE
  5
39
102
{ACAD_REACTORS
330
2A
102
}
330
2A
100
AcDbVisualStyle
  2
Facepattern
 70
    15
 71
     2
 72
     2
 73
     0
 90
        0
 40
-0.6
 41
-30.0
 62
     5
 63
     7
 74
     1
 91
        4
 64
     7
 65
   257
 75
     1
175
     1
 42
1.0
 92
        8
 66
     7
 43
1.0
 76
     1
 77
     6
 78
     2
 67
     7
 79
     5
170
     0
171
     0
290
     0
174
     0
 93
        1
 44
0.0
173
     0
291
     1
 45
0.0
1001
ACAD
1000
AcDbSavedByObjectVersion
1070
     0
  0
VISUALSTYLE
  5
2B
102
{ACAD_REACTORS
330
2A
102
}
330
2A
100
AcDbVisualStyle
  2
Flat
 70
     0
 71
     2
 72
     1
 73
     1
 90
        2
 40
-0.6
 41
30.0
 62
     5
 63
     7
 74
     0
 91
        4
 64
     7
 65
   257
 75
     1
175
     1
 42
1.0
 92
        8
 66
     7
 43
1.0
 76
     1
 77
     6
 78
     2
 67
     7
 79
     5
170
     0
171
     0
290
     0
174
     0
 93
       13
 44
0.0
173
     0
291
     1
 45
0.0
1001
ACAD
1000
AcDbSavedByObjectVersion
1070
     0
  0
VISUALSTYLE
  5
2C
102
{ACAD_REACTORS
330
2A
102
}
330
2A
100
AcDbVisualStyle
  2
FlatWithEdges
 70
     1
 71
     2
 72
     1
 73
     1
 90
        2
 40
-0.6
 41
30.0
 62
     5
 63
     7
 74
     1
 91
        4
 64
     7
 65
   257
 75
     1
175
     1
 42
1.0
 92
        0
 66
   257
 43
1.0
 76
     1
 77
     6
 78
     2
 67
     7
 79
     5
170
     0
171
     0
290
     0
174
     0
 93
       13
 44
0.0
173
     0
291
     1
 45
0.0
1001
ACAD
1000
AcDbSavedByObjectVersion
1070
     0
  0
VISUALSTYLE
  5
2D
102
{ACAD_REACTORS
330
2A
102
}
330
2A
100
AcDbVisualStyle
  2
Gouraud
 70
     2
 71
     2
 72
     2
 73
     1
 90
        2
 40
-0.6
 41
30.0
 62
     5
 63
     7
 74
     0
 91
        4
 64
     7
 65
   257
 75
     1
175
     1
 42
1.0
 92
        0
 66
     7
 43
1.0
 76
     1
 77
     6
 78
     2
 67
     7
 79
     5
170
     0
171
     0
290
     0
174
     0
 93
       13
 44
0.0
173
     0
291
     1
 45
0.0
1001
ACAD
1000
AcDbSavedByObjectVersion
1070
     0
  0
VISUALSTYLE
  5
2E
102
{ACAD_REACTORS
330
2A
102
}
330
2A
100
AcDbVisualStyle
  2
GouraudWithEdges
 70
     3
 71
     2
 72
     2
 73
     1
 90
        2
 40
-0.6
 41
30.0
 62
     5
 63
     7
 74
     1
 91
        4
 64
     7
 65
   257
 75
     1
175
     1
 42
1.0
 92
        0
 66
   257
 43
1.0
 76
     1
 77
     6
 78
     2
 67
     7
 79
     5
170
     0
171
     0
290
     0
174
     0
 93
       13
 44
0.0
173
     0
291
     1
 45
0.0
1001
ACAD
1000
AcDbSavedByObjectVersion
1070
     0
  0
VISUALSTYLE
  5
38
102
{ACAD_REACTORS
330
2A
102
}
330
2A
100
AcDbVisualStyle
  2
Linepattern
 70
    14
 71
     2
 72
     2
 73
     0
 90
        0
 40
-0.6
 41
-30.0
 62
     5
 63
     7
 74
     1
 91
        4
 64
     7
 65
   257
 75
     7
175
     7
 42
1.0
 92
        8
 66
     7
 43
1.0
 76
     1
 77
     6
 78
     2
 67
     7
 79
     5
170
     0
171
     0
290
     0
174
     0
 93
        1
 44
0.0
173
     0
291
     1
 45
0.0
1001
ACAD
1000
AcDbSavedByObjectVersion
1070
     0
  0
VISUALSTYLE
  5
33
102
{ACAD_REACTORS
330
2A
102
}
330
2A
100
AcDbVisualStyle
  2
Realistic
 70
     8
 71
     2
 72
     2
 73
     0
 90
        0
 40
-0.6
 41
-30.0
 62
     5
 63
     7
 74
     1
 91
        0
 64
     7
 65
   257
 75
     1
175
     1
 42
1.0
 92
        8
 66
     8
 43
1.0
 76
     1
 77
     6
 78
     2
 67
     7
 79
     5
170
     0
171
     0
290
     0
174
     0
 93
       13
 44
0.0
173
     0
291
     0
 45
0.0
1001
ACAD
1000
AcDbSavedByObjectVersion
1070
     0
  0
VISUALSTYLE
  5
37
102
{ACAD_REACTORS
330
2A
102
}
330
2A
100
AcDbVisualStyle
  2
Thicken
 70
    13
 71
     2
 72
     2
 73
     0
 90
        0
 40
-0.6
 41
-30.0
 62
     5
 63
     7
 74
     1
 91
        4
 64
     7
 65
   257
 75
     1
175
     1
 42
1.0
 92
       12
 66
     7
 43
1.0
 76
     1
 77
     6
 78
     2
 67
     7
 79
     5
170
     0
171
     0
290
     0
174
     0
 93
        1
 44
0.0
173
     0
291
     1
 45
0.0
1001
ACAD
1000
AcDbSavedByObjectVersion
1070
     0
  0
DICTIONARYVAR
  5
349
102
{ACAD_REACTORS
330
347
102
}
330
347
100
DictionaryVariables
280
     0
  1
80.000000
  0
DICTIONARYVAR
  5
348
102
{ACAD_REACTORS
330
347
102
}
330
347
100
DictionaryVariables
280
     0
  1
5.000000
  0
ENDSEC
  0
EOF
