  0
SECTION
  2
HEADER
  9
$ACADVER
  1
AC1027
  9
$ACADMAINTVER
 70
   125
  9
$DWGCODEPAGE
  3
ANSI_1252
  9
$LASTSAVEDBY
  1
jaswalh
  9
$REQUIREDVERSIONS
160
                 0
  9
$INSBASE
 10
0.0
 20
0.0
 30
0.0
  9
$EXTMIN
 10
93.606474
 20
101.672843
 30
0.0
  9
$EXTMAX
 10
319.137639
 20
212.479807
 30
0.0
  9
$LIMMIN
 10
0.0
 20
0.0
  9
$LIMMAX
 10
420.0
 20
297.0
  9
$ORTHOMODE
 70
     0
  9
$REGENMODE
 70
     1
  9
$FILLMODE
 70
     1
  9
$QTEXTMODE
 70
     0
  9
$MIRRTEXT
 70
     0
  9
$LTSCALE
 40
0.75
  9
$ATTMODE
 70
     1
  9
$TEXTSIZE
 40
3.5
  9
$TRACEWID
 40
1.0
  9
$TEXTSTYLE
  7
Standard
  9
$CLAYER
  8
0
  9
$CELTYPE
  6
ByLayer
  9
$CECOLOR
 62
   256
  9
$CELTSCALE
 40
1.0
  9
$DISPSILH
 70
     0
  9
$DIMSCALE
 40
1.0
  9
$DIMASZ
 40
3.5
  9
$DIMEXO
 40
2.1
  9
$DIMDLI
 40
10.5
  9
$DIMRND
 40
0.0
  9
$DIMDLE
 40
0.0
  9
$DIMEXE
 40
2.1
  9
$DIMTP
 40
0.1
  9
$DIMTM
 40
0.1
  9
$DIMTXT
 40
3.5
  9
$DIMCEN
 40
0.0
  9
$DIMTSZ
 40
0.0
  9
$DIMTOL
 70
     0
  9
$DIMLIM
 70
     0
  9
$DIMTIH
 70
     0
  9
$DIMTOH
 70
     0
  9
$DIMSE1
 70
     0
  9
$DIMSE2
 70
     0
  9
$DIMTAD
 70
     1
  9
$DIMZIN
 70
    12
  9
$DIMBLK
  1

  9
$DIMASO
 70
     1
  9
$DIMSHO
 70
     1
  9
$DIMPOST
  1

  9
$DIMAPOST
  1

  9
$DIMALT
 70
     0
  9
$DIMALTD
 70
     2
  9
$DIMALTF
 40
0.03937
  9
$DIMLFAC
 40
1.0
  9
$DIMTOFL
 70
     1
  9
$DIMTVP
 40
0.0
  9
$DIMTIX
 70
     0
  9
$DIMSOXD
 70
     0
  9
$DIMSAH
 70
     0
  9
$DIMBLK1
  1

  9
$DIMBLK2
  1

  9
$DIMSTYLE
  2
Dim-ISO-25
  9
$DIMCLRD
 70
     0
  9
$DIMCLRE
 70
     0
  9
$DIMCLRT
 70
     0
  9
$DIMTFAC
 40
0.714286
  9
$DIMGAP
 40
1.4
  9
$DIMJUST
 70
     0
  9
$DIMSD1
 70
     0
  9
$DIMSD2
 70
     0
  9
$DIMTOLJ
 70
     0
  9
$DIMTZIN
 70
    12
  9
$DIMALTZ
 70
    12
  9
$DIMALTTZ
 70
    12
  9
$DIMUPT
 70
     0
  9
$DIMDEC
 70
     2
  9
$DIMTDEC
 70
     2
  9
$DIMALTU
 70
     2
  9
$DIMALTTD
 70
     2
  9
$DIMTXSTY
  7
Standard
  9
$DIMAUNIT
 70
     0
  9
$DIMADEC
 70
     2
  9
$DIMALTRND
 40
0.0
  9
$DIMAZIN
 70
     3
  9
$DIMDSEP
 70
    46
  9
$DIMATFIT
 70
     3
  9
$DIMFRAC
 70
     0
  9
$DIMLDRBLK
  1

  9
$DIMLUNIT
 70
     2
  9
$DIMLWD
 70
    -2
  9
$DIMLWE
 70
    -2
  9
$DIMTMOVE
 70
     0
  9
$DIMFXL
 40
1.0
  9
$DIMFXLON
 70
     0
  9
$DIMJOGANG
 40
0.785398
  9
$DIMTFILL
 70
     0
  9
$DIMTFILLCLR
 70
     0
  9
$DIMARCSYM
 70
     0
  9
$DIMLTYPE
  6

  9
$DIMLTEX1
  6

  9
$DIMLTEX2
  6

  9
$DIMTXTDIRECTION
 70
     0
  9
$LUNITS
 70
     2
  9
$LUPREC
 70
     4
  9
$SKETCHINC
 40
1.0
  9
$FILLETRAD
 40
0.0
  9
$AUNITS
 70
     0
  9
$AUPREC
 70
     0
  9
$MENU
  1
.
  9
$ELEVATION
 40
0.0
  9
$PELEVATION
 40
0.0
  9
$THICKNESS
 40
0.0
  9
$LIMCHECK
 70
     0
  9
$CHAMFERA
 40
0.0
  9
$CHAMFERB
 40
0.0
  9
$CHAMFERC
 40
0.0
  9
$CHAMFERD
 40
0.0
  9
$SKPOLY
 70
     0
  9
$TDCREATE
 40
2460760.490787037
  9
$TDUCREATE
 40
2460760.449120370
  9
$TDUPDATE
 40
2460760.490787037
  9
$TDUUPDATE
 40
2460760.449120370
  9
$TDINDWG
 40
0.0000000000
  9
$TDUSRTIMER
 40
0.0000000000
  9
$USRTIMER
 70
     1
  9
$ANGBASE
 50
0.0
  9
$ANGDIR
 70
     0
  9
$PDMODE
 70
     0
  9
$PDSIZE
 40
0.0
  9
$PLINEWID
 40
0.0
  9
$SPLFRAME
 70
     0
  9
$SPLINETYPE
 70
     6
  9
$SPLINESEGS
 70
     8
  9
$HANDSEED
  5
2EA
  9
$SURFTAB1
 70
     6
  9
$SURFTAB2
 70
     6
  9
$SURFTYPE
 70
     6
  9
$SURFU
 70
     6
  9
$SURFV
 70
     6
  9
$UCSBASE
  2

  9
$UCSNAME
  2

  9
$UCSORG
 10
0.0
 20
0.0
 30
0.0
  9
$UCSXDIR
 10
1.0
 20
0.0
 30
0.0
  9
$UCSYDIR
 10
0.0
 20
1.0
 30
0.0
  9
$UCSORTHOREF
  2

  9
$UCSORTHOVIEW
 70
     0
  9
$UCSORGTOP
 10
0.0
 20
0.0
 30
0.0
  9
$UCSORGBOTTOM
 10
0.0
 20
0.0
 30
0.0
  9
$UCSORGLEFT
 10
0.0
 20
0.0
 30
0.0
  9
$UCSORGRIGHT
 10
0.0
 20
0.0
 30
0.0
  9
$UCSORGFRONT
 10
0.0
 20
0.0
 30
0.0
  9
$UCSORGBACK
 10
0.0
 20
0.0
 30
0.0
  9
$PUCSBASE
  2

  9
$PUCSNAME
  2

  9
$PUCSORG
 10
0.0
 20
0.0
 30
0.0
  9
$PUCSXDIR
 10
1.0
 20
0.0
 30
0.0
  9
$PUCSYDIR
 10
0.0
 20
1.0
 30
0.0
  9
$PUCSORTHOREF
  2

  9
$PUCSORTHOVIEW
 70
     0
  9
$PUCSORGTOP
 10
0.0
 20
0.0
 30
0.0
  9
$PUCSORGBOTTOM
 10
0.0
 20
0.0
 30
0.0
  9
$PUCSORGLEFT
 10
0.0
 20
0.0
 30
0.0
  9
$PUCSORGRIGHT
 10
0.0
 20
0.0
 30
0.0
  9
$PUCSORGFRONT
 10
0.0
 20
0.0
 30
0.0
  9
$PUCSORGBACK
 10
0.0
 20
0.0
 30
0.0
  9
$USERI1
 70
     0
  9
$USERI2
 70
     0
  9
$USERI3
 70
     0
  9
$USERI4
 70
     0
  9
$USERI5
 70
     0
  9
$USERR1
 40
0.0
  9
$USERR2
 40
0.0
  9
$USERR3
 40
0.0
  9
$USERR4
 40
0.0
  9
$USERR5
 40
0.0
  9
$WORLDVIEW
 70
     1
  9
$SHADEDGE
 70
     3
  9
$SHADEDIF
 70
    70
  9
$TILEMODE
 70
     1
  9
$MAXACTVP
 70
    64
  9
$PINSBASE
 10
0.0
 20
0.0
 30
0.0
  9
$PLIMCHECK
 70
     0
  9
$PEXTMIN
 10
1.000000E+20
 20
1.000000E+20
 30
1.000000E+20
  9
$PEXTMAX
 10
-1.000000E+20
 20
-1.000000E+20
 30
-1.000000E+20
  9
$PLIMMIN
 10
0.0
 20
0.0
  9
$PLIMMAX
 10
12.0
 20
9.0
  9
$UNITMODE
 70
     0
  9
$VISRETAIN
 70
     1
  9
$PLINEGEN
 70
     0
  9
$PSLTSCALE
 70
     1
  9
$TREEDEPTH
 70
  3020
  9
$CMLSTYLE
  2
Standard
  9
$CMLJUST
 70
     0
  9
$CMLSCALE
 40
20.0
  9
$PROXYGRAPHICS
 70
     1
  9
$MEASUREMENT
 70
     1
  9
$CELWEIGHT
370
    -1
  9
$ENDCAPS
280
     0
  9
$JOINSTYLE
280
     0
  9
$LWDISPLAY
290
     0
  9
$INSUNITS
 70
     4
  9
$HYPERLINKBASE
  1

  9
$STYLESHEET
  1

  9
$XEDIT
290
     1
  9
$CEPSNTYPE
380
     0
  9
$PSTYLEMODE
290
     1
  9
$FINGERPRINTGUID
  2
{04A09C73-45CA-0C43-9CA4-349E5D8DB2E8}
  9
$VERSIONGUID
  2
{9DDD115C-DBEB-F144-8058-54752F5672EA}
  9
$EXTNAMES
290
     1
  9
$PSVPSCALE
 40
0.0
  9
$OLESTARTUP
290
     0
  9
$SORTENTS
280
   127
  9
$INDEXCTL
280
     0
  9
$HIDETEXT
280
     1
  9
$XCLIPFRAME
280
     0
  9
$HALOGAP
280
     0
  9
$OBSCOLOR
 70
   257
  9
$OBSLTYPE
280
     0
  9
$INTERSECTIONDISPLAY
280
     0
  9
$INTERSECTIONCOLOR
 70
   257
  9
$DIMASSOC
280
     2
  9
$PROJECTNAME
  1

  9
$CAMERADISPLAY
290
     0
  9
$LENSLENGTH
 40
50.0
  9
$CAMERAHEIGHT
 40
0.0
  9
$STEPSPERSEC
 40
2.0
  9
$STEPSIZE
 40
6.0
  9
$3DDWFPREC
 40
2.0
  9
$PSOLWIDTH
 40
5.0
  9
$PSOLHEIGHT
 40
80.0
  9
$LOFTANG1
 40
1.570796
  9
$LOFTANG2
 40
1.570796
  9
$LOFTMAG1
 40
0.0
  9
$LOFTMAG2
 40
0.0
  9
$LOFTPARAM
 70
     7
  9
$LOFTNORMALS
280
     1
  9
$LATITUDE
 40
37.795
  9
$LONGITUDE
 40
-122.394
  9
$NORTHDIRECTION
 40
0.0
  9
$TIMEZONE
 70
 -8000
  9
$LIGHTGLYPHDISPLAY
280
     1
  9
$TILEMODELIGHTSYNCH
280
     1
  9
$CMATERIAL
347
11
  9
$SOLIDHIST
280
     0
  9
$SHOWHIST
280
     1
  9
$DWFFRAME
280
     2
  9
$DGNFRAME
280
     0
  9
$REALWORLDSCALE
290
     1
  9
$INTERFERECOLOR
 62
     1
  9
$INTERFEREOBJVS
345
33
  9
$INTERFEREVPVS
346
30
  9
$CSHADOW
280
     0
  9
$SHADOWPLANELOCATION
 40
0.0
  0
ENDSEC
  0
SECTION
  2
CLASSES
  0
CLASS
  1
ACDBDICTIONARYWDFLT
  2
AcDbDictionaryWithDefault
  3
ObjectDBX Classes
 90
        0
 91
        1
280
     0
281
     0
  0
CLASS
  1
MATERIAL
  2
AcDbMaterial
  3
ObjectDBX Classes
 90
     1153
 91
        3
280
     0
281
     0
  0
CLASS
  1
VISUALSTYLE
  2
AcDbVisualStyle
  3
ObjectDBX Classes
 90
     4095
 91
       24
280
     0
281
     0
  0
CLASS
  1
SCALE
  2
AcDbScale
  3
ObjectDBX Classes
 90
     1153
 91
       17
280
     0
281
     0
  0
CLASS
  1
TABLESTYLE
  2
AcDbTableStyle
  3
ObjectDBX Classes
 90
     4095
 91
        1
280
     0
281
     0
  0
CLASS
  1
MLEADERSTYLE
  2
AcDbMLeaderStyle
  3
ACDB_MLEADERSTYLE_CLASS
 90
     4095
 91
        1
280
     0
281
     0
  0
CLASS
  1
ACDBSECTIONVIEWSTYLE
  2
AcDbSectionViewStyle
  3
ObjectDBX Classes
 90
     1025
 91
        1
280
     0
281
     0
  0
CLASS
  1
ACDBDETAILVIEWSTYLE
  2
AcDbDetailViewStyle
  3
ObjectDBX Classes
 90
     1025
 91
        1
280
     0
281
     0
  0
CLASS
  1
ACMESCOPE
  2
AcMeScope
  3
AcMeServices
 90
     1024
 91
        1
280
     0
281
     0
  0
CLASS
  1
ACMECOMMANDHISTORY
  2
AcMeCommandHistory
  3
AcMeServices
 90
     1024
 91
        1
280
     0
281
     0
  0
CLASS
  1
ACIMSYSVARMAN
  2
AcImSysVarManager
  3
AcMeServices
 90
     1024
 91
        1
280
     0
281
     0
  0
CLASS
  1
ACIMINTSYSVAR
  2
AcImIntSysVar
  3
AcMeServices
 90
     1024
 91
        1
280
     0
281
     0
  0
CLASS
  1
ACMESTATEMGR
  2
AcMeStateMgr
  3
AcMeServices
 90
     1024
 91
        1
280
     0
281
     0
  0
CLASS
  1
ACGREFMASTER
  2
AcGrefMaster
  3
AcAttribServices
 90
     1024
 91
        1
280
     0
281
     0
  0
CLASS
  1
SORTENTSTABLE
  2
AcDbSortentsTable
  3
ObjectDBX Classes
 90
        0
 91
        1
280
     0
281
     0
  0
CLASS
  1
DICTIONARYVAR
  2
AcDbDictionaryVar
  3
ObjectDBX Classes
 90
        0
 91
        6
280
     0
281
     0
  0
CLASS
  1
CELLSTYLEMAP
  2
AcDbCellStyleMap
  3
ObjectDBX Classes
 90
     1152
 91
        1
280
     0
281
     0
  0
ENDSEC
  0
SECTION
  2
TABLES
  0
TABLE
  2
VPORT
  5
8
330
0
100
AcDbSymbolTable
 70
     1
1001
ACAD
1000
DbSaveVer
1071
      377
  0
VPORT
  5
57
330
8
100
AcDbSymbolTableRecord
100
AcDbViewportTableRecord
  2
*Active
 70
     0
 10
0.0
 20
0.0
 11
1.0
 21
1.0
 12
206.372057
 22
157.076325
 13
0.0
 23
0.0
 14
0.5
 24
0.5
 15
0.0
 25
0.0
 16
0.0
 26
0.0
 36
1.0
 17
0.0
 27
0.0
 37
0.0
 40
143.776117
 41
1.568627
 42
50.0
 43
0.0
 44
0.0
 50
0.0
 51
0.0
 71
     0
 72
 20000
 73
     1
 74
     0
 75
     0
 76
     0
 77
     0
 78
     0
281
     0
 65
     1
110
0.0
120
0.0
130
0.0
111
1.0
121
0.0
131
0.0
112
0.0
122
1.0
132
0.0
 79
     0
146
0.0
348
2F
 60
     3
 61
     5
292
     1
282
     1
141
0.0
142
0.0
 63
   250
421
  3355443
  0
ENDTAB
  0
TABLE
  2
LTYPE
  5
5
330
0
100
AcDbSymbolTable
 70
    14
  0
LTYPE
  5
5B
330
5
100
AcDbSymbolTableRecord
100
AcDbLinetypeTableRecord
  2
ByBlock
 70
     0
  3

 72
    65
 73
     0
 40
0.0
  0
LTYPE
  5
5C
330
5
100
AcDbSymbolTableRecord
100
AcDbLinetypeTableRecord
  2
ByLayer
 70
     0
  3

 72
    65
 73
     0
 40
0.0
  0
LTYPE
  5
5D
330
5
100
AcDbSymbolTableRecord
100
AcDbLinetypeTableRecord
  2
Continuous
 70
     0
  3
Solid line
 72
    65
 73
     0
 40
0.0
  0
LTYPE
  5
81
330
5
100
AcDbSymbolTableRecord
100
AcDbLinetypeTableRecord
  2
HIDDEN
 70
     0
  3
Hidden __ __ __ __ __ __ __ __ __ __ __ __ __ _
 72
    65
 73
     2
 40
9.525
 49
6.35
 74
     0
 49
-3.175
 74
     0
  0
LTYPE
  5
82
330
5
100
AcDbSymbolTableRecord
100
AcDbLinetypeTableRecord
  2
PHANTOM2
 70
     0
  3
Phantom (.5x) ___ _ _ ___ _ _ ___ _ _ ___ _ _
 72
    65
 73
     6
 40
31.75
 49
15.875
 74
     0
 49
-3.175
 74
     0
 49
3.175
 74
     0
 49
-3.175
 74
     0
 49
3.175
 74
     0
 49
-3.175
 74
     0
  0
LTYPE
  5
83
330
5
100
AcDbSymbolTableRecord
100
AcDbLinetypeTableRecord
  2
CENTER
 70
     0
  3
Center ____ _ ____ _ ____ _ ____ _ ____ _ ____
 72
    65
 73
     4
 40
50.8
 49
31.75
 74
     0
 49
-6.35
 74
     0
 49
6.35
 74
     0
 49
-6.35
 74
     0
  0
LTYPE
  5
96
330
5
100
AcDbSymbolTableRecord
100
AcDbLinetypeTableRecord
  2
AM_ISO02W050
 70
     0
  3
__ __ __ __ __ __ __ __ __ __ __ __ __ __ __
 72
    65
 73
     2
 40
7.5
 49
6.0
 74
     0
 49
-1.5
 74
     0
  0
LTYPE
  5
97
330
5
100
AcDbSymbolTableRecord
100
AcDbLinetypeTableRecord
  2
AM_ISO08W050
 70
     0
  3
____ . ____ . ____ . ____ . ____ . ____ . ____
 72
    65
 73
     4
 40
18.0
 49
12.0
 74
     0
 49
-1.5
 74
     0
 49
3.0
 74
     0
 49
-1.5
 74
     0
  0
LTYPE
  5
98
330
5
100
AcDbSymbolTableRecord
100
AcDbLinetypeTableRecord
  2
AM_ISO09W050
 70
     0
  3
_____ . . _____ . . _____ . . ____ .. ____
 72
    65
 73
     6
 40
22.5
 49
12.0
 74
     0
 49
-1.5
 74
     0
 49
3.0
 74
     0
 49
-1.5
 74
     0
 49
3.0
 74
     0
 49
-1.5
 74
     0
  0
LTYPE
  5
99
330
5
100
AcDbSymbolTableRecord
100
AcDbLinetypeTableRecord
  2
Amconstr
 70
     0
  3
_______________________
 72
    65
 73
     2
 40
9999.0
 49
9999.0
 74
     0
 49
0.0
 74
     0
  0
LTYPE
  5
9A
330
5
100
AcDbSymbolTableRecord
100
AcDbLinetypeTableRecord
  2
AM_ISO08W050x2
 70
     0
  3
__ . __ . __ . __ . __ . __
 72
    65
 73
     4
 40
9.0
 49
6.0
 74
     0
 49
-0.75
 74
     0
 49
1.5
 74
     0
 49
-0.75
 74
     0
  0
LTYPE
  5
9B
330
5
100
AcDbSymbolTableRecord
100
AcDbLinetypeTableRecord
  2
AM_ISO02W050x2
 70
     0
  3
 _ _ _ _ _ _ _ _ _ _ _ _
 72
    65
 73
     2
 40
3.75
 49
3.0
 74
     0
 49
-0.75
 74
     0
  0
LTYPE
  5
9C
330
5
100
AcDbSymbolTableRecord
100
AcDbLinetypeTableRecord
  2
Amzigzag
 70
     0
  3
/\/-/\/-/\/-/\/-/\/-/\/
 72
    65
 73
     2
 40
11.0001
 49
0.0001
 74
     4
 75
   136
340
93
 46
0.04
 50
0.0
 44
0.0
 45
0.0
 49
-11.0
 74
     0
  0
LTYPE
  5
9D
330
5
100
AcDbSymbolTableRecord
100
AcDbLinetypeTableRecord
  2
ACISOWELD
 70
     0
  3
_ _ _ _ _
 72
    65
 73
     2
 40
2.0
 49
2.0
 74
     0
 49
-1.0
 74
     0
  0
LTYPE
  5
9E
330
5
100
AcDbSymbolTableRecord
100
AcDbLinetypeTableRecord
  2
ACISOTGL
 70
     0
  3
_ _ _ _ _
 72
    65
 73
     2
 40
3.0
 49
2.0
 74
     0
 49
-1.0
 74
     0
  0
LTYPE
  5
9F
330
5
100
AcDbSymbolTableRecord
100
AcDbLinetypeTableRecord
  2
ACISOTGB
 70
     0
  3
__ . . __ . .
 72
    65
 73
     6
 40
9.0
 49
4.0
 74
     0
 49
-1.0
 74
     0
 49
1.0
 74
     0
 49
-1.0
 74
     0
 49
1.0
 74
     0
 49
-1.0
 74
     0
  0
ENDTAB
  0
TABLE
  2
LAYER
  5
2
330
0
100
AcDbSymbolTable
 70
     6
  0
LAYER
  5
54
330
2
100
AcDbSymbolTableRecord
100
AcDbLayerTableRecord
  2
0
 70
     0
 62
     7
  6
Continuous
370
    -3
390
F
347
21
348
0
1001
AcAecLayerStandard
1000

1000

  0
LAYER
  5
79
330
2
100
AcDbSymbolTableRecord
100
AcDbLayerTableRecord
  2
Defpoints
 70
     0
 62
     7
  6
Continuous
290
     0
370
    -3
390
F
347
21
348
0
1001
AcAecLayerStandard
1000

1000

  0
LAYER
  5
AB
330
2
100
AcDbSymbolTableRecord
100
AcDbLayerTableRecord
  2
Visible
 70
     0
 62
     7
  6
Continuous
370
    50
390
F
347
21
348
0
  0
LAYER
  5
167
330
2
100
AcDbSymbolTableRecord
100
AcDbLayerTableRecord
  2
FD_Dimensions
 70
     0
 62
     7
  6
Continuous
370
    25
390
F
347
21
348
0
  0
ENDTAB
  0
TABLE
  2
STYLE
  5
3
330
0
100
AcDbSymbolTable
 70
     4
  0
STYLE
  5
55
330
3
100
AcDbSymbolTableRecord
100
AcDbTextStyleTableRecord
  2
Standard
 70
     0
 40
0.0
 41
1.0
 50
0.0
 71
     0
 42
3.5
  3
arial.ttf
  4

1001
ACAD
1000
Arial
1071
       34
  0
STYLE
  5
5A
330
3
100
AcDbSymbolTableRecord
100
AcDbTextStyleTableRecord
  2
Annotative
 70
     0
 40
0.0
 41
1.0
 50
0.0
 71
     0
 42
0.2
  3
txt
  4

1001
AcadAnnotative
1000
AnnotativeData
1002
{
1070
     1
1070
     1
1002
}
  0
STYLE
  5
93
330
3
100
AcDbSymbolTableRecord
100
AcDbTextStyleTableRecord
  2

 70
     1
 40
0.0
 41
1.0
 50
0.0
 71
     0
 42
10.0
  3
genltshp.shx
  4

  0
STYLE
  5
94
330
3
100
AcDbSymbolTableRecord
100
AcDbTextStyleTableRecord
  2
ACISOGDT
 70
     0
 40
0.0
 41
1.0
 50
0.0
 71
     0
 42
10.0
  3
amgdt.shx
  4

  0
ENDTAB
  0
TABLE
  2
VIEW
  5
6
330
0
100
AcDbSymbolTable
 70
     0
  0
ENDTAB
  0
TABLE
  2
UCS
  5
7
330
0
100
AcDbSymbolTable
 70
     0
  0
ENDTAB
  0
TABLE
  2
APPID
  5
9
330
0
100
AcDbSymbolTable
 70
    21
  0
APPID
  5
56
330
9
100
AcDbSymbolTableRecord
100
AcDbRegAppTableRecord
  2
ACAD
 70
     0
  0
APPID
  5
5E
330
9
100
AcDbSymbolTableRecord
100
AcDbRegAppTableRecord
  2
AcadAnnotative
 70
     0
  0
APPID
  5
78
330
9
100
AcDbSymbolTableRecord
100
AcDbRegAppTableRecord
  2
ACAD_PSEXT
 70
     0
  0
APPID
  5
7A
330
9
100
AcDbSymbolTableRecord
100
AcDbRegAppTableRecord
  2
MCAD_NO_VIS
 70
     0
  0
APPID
  5
7B
330
9
100
AcDbSymbolTableRecord
100
AcDbRegAppTableRecord
  2
ACAD_TEMP_GRAPHIC
 70
     0
  0
APPID
  5
84
330
9
100
AcDbSymbolTableRecord
100
AcDbRegAppTableRecord
  2
ACAD_DSTYLE_DIMJAG
 70
     0
  0
APPID
  5
85
330
9
100
AcDbSymbolTableRecord
100
AcDbRegAppTableRecord
  2
ACAD_DSTYLE_DIMTALN
 70
     0
  0
APPID
  5
86
330
9
100
AcDbSymbolTableRecord
100
AcDbRegAppTableRecord
  2
ACAD_NAV_VCDISPLAY
 70
     0
  0
APPID
  5
87
330
9
100
AcDbSymbolTableRecord
100
AcDbRegAppTableRecord
  2
ACAD_DSTYLE_DIMBREAK
 70
     0
  0
APPID
  5
88
330
9
100
AcDbSymbolTableRecord
100
AcDbRegAppTableRecord
  2
ACAD_TC
 70
     0
  0
APPID
  5
89
330
9
100
AcDbSymbolTableRecord
100
AcDbRegAppTableRecord
  2
FUSIONCURRENTTITLEBLOCK
 70
     0
  0
APPID
  5
8A
330
9
100
AcDbSymbolTableRecord
100
AcDbRegAppTableRecord
  2
AcSynergy
 70
     0
  0
APPID
  5
8B
330
9
100
AcDbSymbolTableRecord
100
AcDbRegAppTableRecord
  2
GENIUS_GENSCREG_15
 70
     0
  0
APPID
  5
8C
330
9
100
AcDbSymbolTableRecord
100
AcDbRegAppTableRecord
  2
GENIUS_GENOBJ-N-SDF_13
 70
     0
  0
APPID
  5
8D
330
9
100
AcDbSymbolTableRecord
100
AcDbRegAppTableRecord
  2
GENIUS_GENODEF_13
 70
     0
  0
APPID
  5
8E
330
9
100
AcDbSymbolTableRecord
100
AcDbRegAppTableRecord
  2
ACAD_DIMASSOC_CALC_DIMLFAC
 70
     0
  0
APPID
  5
8F
330
9
100
AcDbSymbolTableRecord
100
AcDbRegAppTableRecord
  2
ACAD_DIMASSOC_DIMLFAC
 70
     0
  0
APPID
  5
90
330
9
100
AcDbSymbolTableRecord
100
AcDbRegAppTableRecord
  2
ACAD_DIMASSOC_OVERRIDDEN_DIMLFAC
 70
     0
  0
APPID
  5
91
330
9
100
AcDbSymbolTableRecord
100
AcDbRegAppTableRecord
  2
ACAD_DSTYLE_DIMJAG_POSITION
 70
     0
  0
APPID
  5
92
330
9
100
AcDbSymbolTableRecord
100
AcDbRegAppTableRecord
  2
ACATTRIBSERVICES
 70
     0
  0
APPID
  5
2A5
330
9
100
AcDbSymbolTableRecord
100
AcDbRegAppTableRecord
  2
AcAecLayerStandard
 70
     0
  0
ENDTAB
  0
TABLE
  2
DIMSTYLE
  5
A
330
0
100
AcDbSymbolTable
 70
     4
100
AcDbDimStyleTable
 71
     1
340
A3
  0
DIMSTYLE
105
58
330
A
100
AcDbSymbolTableRecord
100
AcDbDimStyleTableRecord
  2
Standard
 70
     0
 41
3.5
 42
2.1
 43
10.5
 44
2.1
 78
    12
 79
     3
140
3.5
143
0.03937
146
0.714286
147
1.4
179
     2
271
     2
272
     2
284
    12
340
55
  0
DIMSTYLE
105
59
330
A
100
AcDbSymbolTableRecord
100
AcDbDimStyleTableRecord
  2
Annotative
 70
     0
 40
0.0
 41
3.5
 42
2.1
 43
10.5
 44
2.1
 73
     0
 74
     0
 77
     1
 78
    12
 79
     3
140
3.5
141
2.5
143
0.03937
146
0.714286
147
1.4
171
     3
172
     1
179
     2
271
     2
272
     2
274
     3
278
    44
283
     0
284
    12
340
55
1001
AcadAnnotative
1000
AnnotativeData
1002
{
1070
     1
1070
     1
1002
}
  0
DIMSTYLE
105
A2
330
A
100
AcDbSymbolTableRecord
100
AcDbDimStyleTableRecord
  2
ISO-25
 70
     0
  4
in
 41
3.5
 42
2.1
 43
10.5
 44
2.1
 47
0.1
 48
0.1
 73
     0
 74
     0
 77
     1
 78
    12
 79
     3
140
3.5
141
0.0
143
0.03937
146
0.714286
147
1.4
171
     4
172
     1
176
   256
177
   256
178
   256
179
     2
271
     2
272
     2
274
     4
283
     0
284
    12
285
     8
340
55
1001
ACAD_DSTYLE_DIMJAG
1070
   388
1040
1.5
1001
ACAD_DSTYLE_DIMTALN
1070
   392
1070
     1
1001
ACAD_DSTYLE_DIMBREAK
1070
   391
1040
3.5
  0
DIMSTYLE
105
A3
102
{ACAD_REACTORS
330
166
330
174
330
181
102
}
330
A
100
AcDbSymbolTableRecord
100
AcDbDimStyleTableRecord
  2
Dim-ISO-25
 70
     0
 41
3.5
 42
2.1
 43
10.5
 44
2.1
 47
0.1
 48
0.1
 73
     0
 74
     0
 77
     1
 78
    12
 79
     3
140
3.5
141
0.0
143
0.03937
146
0.714286
147
1.4
172
     1
179
     2
271
     2
272
     2
283
     0
284
    12
285
    12
286
    12
340
55
1001
ACAD_DSTYLE_DIMJAG
1070
   388
1040
1.5
1001
ACAD_DSTYLE_DIMTALN
1070
   392
1070
     1
1001
ACAD_DSTYLE_DIMBREAK
1070
   391
1040
3.5
  0
ENDTAB
  0
TABLE
  2
BLOCK_RECORD
  5
1
330
0
100
AcDbSymbolTable
 70
     9
  0
BLOCK_RECORD
  5
70
102
{ACAD_XDICTIONARY
360
A4
102
}
330
1
100
AcDbSymbolTableRecord
100
AcDbBlockTableRecord
  2
*Model_Space
340
73
 70
     0
280
     1
281
     0
  0
BLOCK_RECORD
  5
6C
330
1
100
AcDbSymbolTableRecord
100
AcDbBlockTableRecord
  2
*Paper_Space
340
6F
 70
     0
280
     1
281
     0
  0
BLOCK_RECORD
  5
74
330
1
100
AcDbSymbolTableRecord
100
AcDbBlockTableRecord
  2
*Paper_Space0
340
77
 70
     0
280
     1
281
     0
  0
BLOCK_RECORD
  5
168
330
1
100
AcDbSymbolTableRecord
100
AcDbBlockTableRecord
  2
*D3
340
0
 70
     0
280
     1
281
     0
  0
BLOCK_RECORD
  5
175
330
1
100
AcDbSymbolTableRecord
100
AcDbBlockTableRecord
  2
*D4
340
0
 70
     0
280
     1
281
     0
  0
BLOCK_RECORD
  5
182
330
1
100
AcDbSymbolTableRecord
100
AcDbBlockTableRecord
  2
*D5
340
0
 70
     0
280
     1
281
     0
  0
BLOCK_RECORD
  5
18F
330
1
100
AcDbSymbolTableRecord
100
AcDbBlockTableRecord
  2
*D6
340
0
 70
     0
280
     1
281
     0
  0
BLOCK_RECORD
  5
19B
330
1
100
AcDbSymbolTableRecord
100
AcDbBlockTableRecord
  2
*D7
340
0
 70
     0
280
     1
281
     0
  0
BLOCK_RECORD
  5
1A7
330
1
100
AcDbSymbolTableRecord
100
AcDbBlockTableRecord
  2
*D8
340
0
 70
     0
280
     1
281
     0
  0
ENDTAB
  0
ENDSEC
  0
SECTION
  2
BLOCKS
  0
BLOCK
  5
71
330
70
100
AcDbEntity
  8
0
100
AcDbBlockBegin
  2
*Model_Space
 70
     0
 10
0.0
 20
0.0
 30
0.0
  3
*Model_Space
  1

  0
ENDBLK
  5
72
330
70
100
AcDbEntity
  8
0
100
AcDbBlockEnd
  0
BLOCK
  5
6D
330
6C
100
AcDbEntity
 67
     1
  8
0
100
AcDbBlockBegin
  2
*Paper_Space
 70
     0
 10
0.0
 20
0.0
 30
0.0
  3
*Paper_Space
  1

  0
ENDBLK
  5
6E
330
6C
100
AcDbEntity
 67
     1
  8
0
100
AcDbBlockEnd
  0
BLOCK
  5
75
330
74
100
AcDbEntity
 67
     1
  8
0
100
AcDbBlockBegin
  2
*Paper_Space0
 70
     0
 10
0.0
 20
0.0
 30
0.0
  3
*Paper_Space0
  1

  0
ENDBLK
  5
76
330
74
100
AcDbEntity
 67
     1
  8
0
100
AcDbBlockEnd
  0
BLOCK
  5
169
330
168
100
AcDbEntity
  8
0
100
AcDbBlockBegin
  2
*D3
 70
     1
 10
0.0
 20
0.0
 30
0.0
  3
*D3
  1

  0
LINE
  5
16A
330
168
100
AcDbEntity
  8
FD_Dimensions
 62
     0
440
 16777216
370
    -2
100
AcDbLine
 10
119.52667
 20
181.991272
 30
0.0
 11
96.480485
 21
181.991272
 31
0.0
  0
LINE
  5
16B
330
168
100
AcDbEntity
  8
FD_Dimensions
 62
     0
440
 16777216
370
    -2
100
AcDbLine
 10
123.344814
 20
101.677811
 30
0.0
 11
96.480485
 21
101.677811
 31
0.0
  0
LINE
  5
16C
330
168
100
AcDbEntity
  8
FD_Dimensions
 62
     0
440
 16777216
370
    -2
100
AcDbLine
 10
98.580485
 20
178.491272
 30
0.0
 11
98.580485
 21
105.177811
 31
0.0
  0
SOLID
  5
16D
330
168
100
AcDbEntity
  8
FD_Dimensions
 62
     0
440
 16777216
100
AcDbTrace
 10
97.997152
 20
178.491272
 30
0.0
 11
99.163819
 21
178.491272
 31
0.0
 12
98.580485
 22
181.991272
 32
0.0
 13
98.580485
 23
181.991272
 33
0.0
  0
SOLID
  5
16E
330
168
100
AcDbEntity
  8
FD_Dimensions
 62
     0
440
 16777216
100
AcDbTrace
 10
97.997152
 20
105.177811
 30
0.0
 11
99.163819
 21
105.177811
 31
0.0
 12
98.580485
 22
101.677811
 32
0.0
 13
98.580485
 23
101.677811
 33
0.0
  0
MTEXT
  5
16F
330
168
100
AcDbEntity
  8
FD_Dimensions
 62
     0
440
 16777216
100
AcDbMText
 10
95.39348
 20
141.834541
 30
0.0
 40
3.5
 41
0.0
 46
0.0
 71
     5
 72
     1
  1
80
 11
0.0
 21
1.0
 31
0.0
 73
     1
 44
1.0
  0
POINT
  5
170
330
168
100
AcDbEntity
  8
Defpoints
 62
     0
440
 16777216
100
AcDbPoint
 10
121.62667
 20
181.991272
 30
0.0
  0
POINT
  5
171
330
168
100
AcDbEntity
  8
Defpoints
 62
     0
440
 16777216
100
AcDbPoint
 10
125.444814
 20
101.677811
 30
0.0
  0
POINT
  5
172
330
168
100
AcDbEntity
  8
Defpoints
 62
     0
440
 16777216
100
AcDbPoint
 10
98.580485
 20
101.677811
 30
0.0
  0
ENDBLK
  5
173
330
168
100
AcDbEntity
  8
0
100
AcDbBlockEnd
  0
BLOCK
  5
176
330
175
100
AcDbEntity
  8
0
100
AcDbBlockBegin
  2
*D4
 70
     1
 10
0.0
 20
0.0
 30
0.0
  3
*D4
  1

  0
LINE
  5
177
330
175
100
AcDbEntity
  8
FD_Dimensions
 62
     0
440
 16777216
370
    -2
100
AcDbLine
 10
121.126689
 20
183.591291
 30
0.0
 11
121.126689
 21
209.605797
 31
0.0
  0
LINE
  5
178
330
175
100
AcDbEntity
  8
FD_Dimensions
 62
     0
440
 16777216
370
    -2
100
AcDbLine
 10
246.763548
 20
183.591291
 30
0.0
 11
246.763548
 21
209.605797
 31
0.0
  0
LINE
  5
179
330
175
100
AcDbEntity
  8
FD_Dimensions
 62
     0
440
 16777216
370
    -2
100
AcDbLine
 10
124.626689
 20
207.505797
 30
0.0
 11
243.263548
 21
207.505797
 31
0.0
  0
SOLID
  5
17A
330
175
100
AcDbEntity
  8
FD_Dimensions
 62
     0
440
 16777216
100
AcDbTrace
 10
124.626689
 20
208.08913
 30
0.0
 11
124.626689
 21
206.922463
 31
0.0
 12
121.126689
 22
207.505797
 32
0.0
 13
121.126689
 23
207.505797
 33
0.0
  0
SOLID
  5
17B
330
175
100
AcDbEntity
  8
FD_Dimensions
 62
     0
440
 16777216
100
AcDbTrace
 10
243.263548
 20
208.08913
 30
0.0
 11
243.263548
 21
206.922463
 31
0.0
 12
246.763548
 22
207.505797
 32
0.0
 13
246.763548
 23
207.505797
 33
0.0
  0
MTEXT
  5
17C
330
175
100
AcDbEntity
  8
FD_Dimensions
 62
     0
440
 16777216
100
AcDbMText
 10
183.945118
 20
210.692802
 30
0.0
 40
3.5
 41
0.0
 46
0.0
 71
     5
 72
     1
  1
125
 73
     1
 44
1.0
  0
POINT
  5
17D
330
175
100
AcDbEntity
  8
Defpoints
 62
     0
440
 16777216
100
AcDbPoint
 10
121.126689
 20
181.491291
 30
0.0
  0
POINT
  5
17E
330
175
100
AcDbEntity
  8
Defpoints
 62
     0
440
 16777216
100
AcDbPoint
 10
246.763548
 20
181.491291
 30
0.0
  0
POINT
  5
17F
330
175
100
AcDbEntity
  8
Defpoints
 62
     0
440
 16777216
100
AcDbPoint
 10
246.763548
 20
207.505797
 30
0.0
  0
ENDBLK
  5
180
330
175
100
AcDbEntity
  8
0
100
AcDbBlockEnd
  0
BLOCK
  5
183
330
182
100
AcDbEntity
  8
0
100
AcDbBlockBegin
  2
*D5
 70
     1
 10
0.0
 20
0.0
 30
0.0
  3
*D5
  1

  0
LINE
  5
184
330
182
100
AcDbEntity
  8
FD_Dimensions
 62
     0
440
 16777216
370
    -2
100
AcDbLine
 10
286.124494
 20
183.591291
 30
0.0
 11
286.120559
 21
207.357895
 31
0.0
  0
LINE
  5
185
330
182
100
AcDbEntity
  8
FD_Dimensions
 62
     0
440
 16777216
370
    -2
100
AcDbLine
 10
318.12454
 20
183.31733
 30
0.0
 11
318.120558
 21
207.363194
 31
0.0
  0
LINE
  5
186
330
182
100
AcDbEntity
  8
FD_Dimensions
 62
     0
440
 16777216
370
    -2
100
AcDbLine
 10
289.620906
 20
205.258475
 30
0.0
 11
314.620906
 21
205.262615
 31
0.0
  0
SOLID
  5
187
330
182
100
AcDbEntity
  8
FD_Dimensions
 62
     0
440
 16777216
100
AcDbTrace
 10
289.62081
 20
205.841808
 30
0.0
 11
289.621003
 21
204.675141
 31
0.0
 12
286.120906
 22
205.257895
 32
0.0
 13
286.120906
 23
205.257895
 33
0.0
  0
SOLID
  5
188
330
182
100
AcDbEntity
  8
FD_Dimensions
 62
     0
440
 16777216
100
AcDbTrace
 10
314.620809
 20
205.845948
 30
0.0
 11
314.621002
 21
204.679282
 31
0.0
 12
318.120906
 22
205.263195
 32
0.0
 13
318.120906
 23
205.263195
 33
0.0
  0
MTEXT
  5
189
330
182
100
AcDbEntity
  8
FD_Dimensions
 62
     0
440
 16777216
100
AcDbMText
 10
302.120378
 20
208.448744
 30
0.0
 40
3.5
 41
0.0
 46
0.0
 71
     5
 72
     1
  1
32
 11
1.0
 21
0.000166
 31
0.0
 73
     1
 44
1.0
  0
POINT
  5
18A
330
182
100
AcDbEntity
  8
Defpoints
 62
     0
440
 16777216
100
AcDbPoint
 10
286.124842
 20
181.491291
 30
0.0
  0
POINT
  5
18B
330
182
100
AcDbEntity
  8
Defpoints
 62
     0
440
 16777216
100
AcDbPoint
 10
318.124888
 20
181.21733
 30
0.0
  0
POINT
  5
18C
330
182
100
AcDbEntity
  8
Defpoints
 62
     0
440
 16777216
100
AcDbPoint
 10
318.120906
 20
205.263195
 30
0.0
  0
ENDBLK
  5
18D
330
182
100
AcDbEntity
  8
0
100
AcDbBlockEnd
  0
BLOCK
  5
190
330
18F
100
AcDbEntity
  8
0
100
AcDbBlockBegin
  2
*D6
 70
     1
 10
0.0
 20
0.0
 30
0.0
  3
*D6
  1

  0
LINE
  5
2C1
330
18F
100
AcDbEntity
  8
FD_Dimensions
 62
     0
440
 16777216
370
    -2
100
AcDbLine
 10
119.52667
 20
181.991272
 30
0.0
 11
96.480485
 21
181.991272
 31
0.0
  0
LINE
  5
2C2
330
18F
100
AcDbEntity
  8
FD_Dimensions
 62
     0
440
 16777216
370
    -2
100
AcDbLine
 10
123.344814
 20
101.677811
 30
0.0
 11
96.480485
 21
101.677811
 31
0.0
  0
LINE
  5
2C3
330
18F
100
AcDbEntity
  8
FD_Dimensions
 62
     0
440
 16777216
370
    -2
100
AcDbLine
 10
98.580485
 20
178.491272
 30
0.0
 11
98.580485
 21
105.177811
 31
0.0
  0
SOLID
  5
2C4
330
18F
100
AcDbEntity
  8
FD_Dimensions
 62
     0
440
 16777216
100
AcDbTrace
 10
97.997152
 20
178.491272
 30
0.0
 11
99.163819
 21
178.491272
 31
0.0
 12
98.580485
 22
181.991272
 32
0.0
 13
98.580485
 23
181.991272
 33
0.0
  0
SOLID
  5
2C5
330
18F
100
AcDbEntity
  8
FD_Dimensions
 62
     0
440
 16777216
100
AcDbTrace
 10
97.997152
 20
105.177811
 30
0.0
 11
99.163819
 21
105.177811
 31
0.0
 12
98.580485
 22
101.677811
 32
0.0
 13
98.580485
 23
101.677811
 33
0.0
  0
MTEXT
  5
2C6
330
18F
100
AcDbEntity
  8
FD_Dimensions
 62
     0
440
 16777216
100
AcDbMText
 10
95.39348
 20
141.834541
 30
0.0
 40
3.5
 41
0.0
 46
0.0
 71
     5
 72
     1
  1
80
 11
0.0
 21
1.0
 31
0.0
 73
     1
 44
1.0
  0
POINT
  5
2C7
330
18F
100
AcDbEntity
  8
Defpoints
 62
     0
440
 16777216
100
AcDbPoint
 10
121.62667
 20
181.991272
 30
0.0
  0
POINT
  5
2C8
330
18F
100
AcDbEntity
  8
Defpoints
 62
     0
440
 16777216
100
AcDbPoint
 10
125.444814
 20
101.677811
 30
0.0
  0
POINT
  5
2C9
330
18F
100
AcDbEntity
  8
Defpoints
 62
     0
440
 16777216
100
AcDbPoint
 10
98.580485
 20
101.677811
 30
0.0
  0
ENDBLK
  5
191
330
18F
100
AcDbEntity
  8
0
100
AcDbBlockEnd
  0
BLOCK
  5
19C
330
19B
100
AcDbEntity
  8
0
100
AcDbBlockBegin
  2
*D7
 70
     1
 10
0.0
 20
0.0
 30
0.0
  3
*D7
  1

  0
LINE
  5
2CA
330
19B
100
AcDbEntity
  8
FD_Dimensions
 62
     0
440
 16777216
370
    -2
100
AcDbLine
 10
121.126689
 20
183.591291
 30
0.0
 11
121.126689
 21
209.605797
 31
0.0
  0
LINE
  5
2CB
330
19B
100
AcDbEntity
  8
FD_Dimensions
 62
     0
440
 16777216
370
    -2
100
AcDbLine
 10
246.763548
 20
183.591291
 30
0.0
 11
246.763548
 21
209.605797
 31
0.0
  0
LINE
  5
2CC
330
19B
100
AcDbEntity
  8
FD_Dimensions
 62
     0
440
 16777216
370
    -2
100
AcDbLine
 10
124.626689
 20
207.505797
 30
0.0
 11
243.263548
 21
207.505797
 31
0.0
  0
SOLID
  5
2CD
330
19B
100
AcDbEntity
  8
FD_Dimensions
 62
     0
440
 16777216
100
AcDbTrace
 10
124.626689
 20
208.08913
 30
0.0
 11
124.626689
 21
206.922463
 31
0.0
 12
121.126689
 22
207.505797
 32
0.0
 13
121.126689
 23
207.505797
 33
0.0
  0
SOLID
  5
2CE
330
19B
100
AcDbEntity
  8
FD_Dimensions
 62
     0
440
 16777216
100
AcDbTrace
 10
243.263548
 20
208.08913
 30
0.0
 11
243.263548
 21
206.922463
 31
0.0
 12
246.763548
 22
207.505797
 32
0.0
 13
246.763548
 23
207.505797
 33
0.0
  0
MTEXT
  5
2CF
330
19B
100
AcDbEntity
  8
FD_Dimensions
 62
     0
440
 16777216
100
AcDbMText
 10
183.945118
 20
210.692802
 30
0.0
 40
3.5
 41
0.0
 46
0.0
 71
     5
 72
     1
  1
125
 73
     1
 44
1.0
  0
POINT
  5
2D0
330
19B
100
AcDbEntity
  8
Defpoints
 62
     0
440
 16777216
100
AcDbPoint
 10
121.126689
 20
181.491291
 30
0.0
  0
POINT
  5
2D1
330
19B
100
AcDbEntity
  8
Defpoints
 62
     0
440
 16777216
100
AcDbPoint
 10
246.763548
 20
181.491291
 30
0.0
  0
POINT
  5
2D2
330
19B
100
AcDbEntity
  8
Defpoints
 62
     0
440
 16777216
100
AcDbPoint
 10
246.763548
 20
207.505797
 30
0.0
  0
ENDBLK
  5
19D
330
19B
100
AcDbEntity
  8
0
100
AcDbBlockEnd
  0
BLOCK
  5
1A8
330
1A7
100
AcDbEntity
  8
0
100
AcDbBlockBegin
  2
*D8
 70
     1
 10
0.0
 20
0.0
 30
0.0
  3
*D8
  1

  0
LINE
  5
2D3
330
1A7
100
AcDbEntity
  8
FD_Dimensions
 62
     0
440
 16777216
370
    -2
100
AcDbLine
 10
286.124494
 20
183.591291
 30
0.0
 11
286.120559
 21
207.357895
 31
0.0
  0
LINE
  5
2D4
330
1A7
100
AcDbEntity
  8
FD_Dimensions
 62
     0
440
 16777216
370
    -2
100
AcDbLine
 10
318.12454
 20
183.31733
 30
0.0
 11
318.120558
 21
207.363194
 31
0.0
  0
LINE
  5
2D5
330
1A7
100
AcDbEntity
  8
FD_Dimensions
 62
     0
440
 16777216
370
    -2
100
AcDbLine
 10
289.620906
 20
205.258475
 30
0.0
 11
314.620906
 21
205.262615
 31
0.0
  0
SOLID
  5
2D6
330
1A7
100
AcDbEntity
  8
FD_Dimensions
 62
     0
440
 16777216
100
AcDbTrace
 10
289.62081
 20
205.841808
 30
0.0
 11
289.621003
 21
204.675141
 31
0.0
 12
286.120906
 22
205.257895
 32
0.0
 13
286.120906
 23
205.257895
 33
0.0
  0
SOLID
  5
2D7
330
1A7
100
AcDbEntity
  8
FD_Dimensions
 62
     0
440
 16777216
100
AcDbTrace
 10
314.620809
 20
205.845948
 30
0.0
 11
314.621002
 21
204.679282
 31
0.0
 12
318.120906
 22
205.263195
 32
0.0
 13
318.120906
 23
205.263195
 33
0.0
  0
MTEXT
  5
2D8
330
1A7
100
AcDbEntity
  8
FD_Dimensions
 62
     0
440
 16777216
100
AcDbMText
 10
302.120378
 20
208.448744
 30
0.0
 40
3.5
 41
0.0
 46
0.0
 71
     5
 72
     1
  1
32
 11
1.0
 21
0.000166
 31
0.0
 73
     1
 44
1.0
  0
POINT
  5
2D9
330
1A7
100
AcDbEntity
  8
Defpoints
 62
     0
440
 16777216
100
AcDbPoint
 10
286.124842
 20
181.491291
 30
0.0
  0
POINT
  5
2DA
330
1A7
100
AcDbEntity
  8
Defpoints
 62
     0
440
 16777216
100
AcDbPoint
 10
318.124888
 20
181.21733
 30
0.0
  0
POINT
  5
2DB
330
1A7
100
AcDbEntity
  8
Defpoints
 62
     0
440
 16777216
100
AcDbPoint
 10
318.120906
 20
205.263195
 30
0.0
  0
ENDBLK
  5
1A9
330
1A7
100
AcDbEntity
  8
0
100
AcDbBlockEnd
  0
ENDSEC
  0
SECTION
  2
ENTITIES
  0
DIMENSION
  5
166
330
70
100
AcDbEntity
  8
FD_Dimensions
100
AcDbDimension
280
     0
  2
*D6
 10
98.580485
 20
101.677811
 30
0.0
 11
98.580485
 21
141.834541
 31
0.0
 70
   160
  1
80
 71
     5
 42
80.313461
 73
     0
 74
     0
 75
     0
  3
Dim-ISO-25
100
AcDbAlignedDimension
 13
121.62667
 23
181.991272
 33
0.0
 14
125.444814
 24
101.677811
 34
0.0
 50
270.0
100
AcDbRotatedDimension
1001
ACAD_DIMASSOC_CALC_DIMLFAC
1040
-1.0
1001
ACAD_DIMASSOC_DIMLFAC
1040
-1.0
1001
ACAD_DIMASSOC_OVERRIDDEN_DIMLFAC
1040
0.0
1001
ACAD_DSTYLE_DIMJAG_POSITION
1070
   387
1070
     0
1070
   389
1010
0.0
1020
0.0
1030
0.0
1001
ACAD
1000
DSTYLE
1002
{
1070
   144
1040
1.0
1002
}
  0
DIMENSION
  5
174
330
70
100
AcDbEntity
  8
FD_Dimensions
100
AcDbDimension
280
     0
  2
*D7
 10
246.763548
 20
207.505797
 30
0.0
 11
183.945118
 21
210.692802
 31
0.0
 70
    32
  1
125
 71
     5
 42
125.63686
 73
     0
 74
     0
 75
     0
  3
Dim-ISO-25
100
AcDbAlignedDimension
 13
121.126689
 23
181.491291
 33
0.0
 14
246.763548
 24
181.491291
 34
0.0
100
AcDbRotatedDimension
1001
ACAD_DIMASSOC_CALC_DIMLFAC
1040
-1.0
1001
ACAD_DIMASSOC_DIMLFAC
1040
-1.0
1001
ACAD_DIMASSOC_OVERRIDDEN_DIMLFAC
1040
0.0
1001
ACAD_TC
1000
DSTYLE_TC
1002
{
1070
   176
1004
18000000020000008C8C8CC2000000000000000000000000
1070
   177
1004
18000000020000008C8C8CC2000000000000000000000000
1002
}
1001
ACAD_DSTYLE_DIMJAG_POSITION
1070
   387
1070
     0
1070
   389
1010
0.0
1020
0.0
1030
0.0
1001
ACAD
1000
DSTYLE
1002
{
1070
   144
1040
1.0
1070
   176
1070
     0
1070
   177
1070
     0
1002
}
  0
DIMENSION
  5
181
330
70
100
AcDbEntity
  8
FD_Dimensions
100
AcDbDimension
280
     0
  2
*D8
 10
318.120906
 20
205.263195
 30
0.0
 11
302.120378
 21
208.448744
 31
0.0
 70
    32
 71
     5
 42
32.0
 73
     0
 74
     0
 75
     0
  3
Dim-ISO-25
100
AcDbAlignedDimension
 13
286.124842
 23
181.491291
 33
0.0
 14
318.124888
 24
181.21733
 34
0.0
 50
0.009488
100
AcDbRotatedDimension
1001
ACAD_DIMASSOC_CALC_DIMLFAC
1040
-1.0
1001
ACAD_DIMASSOC_DIMLFAC
1040
-1.0
1001
ACAD_DIMASSOC_OVERRIDDEN_DIMLFAC
1040
0.0
1001
ACAD_TC
1000
DSTYLE_TC
1002
{
1070
   176
1004
18000000020000008C8C8CC2000000000000000000000000
1070
   177
1004
18000000020000008C8C8CC2000000000000000000000000
1002
}
1001
ACAD_DSTYLE_DIMJAG_POSITION
1070
   387
1070
     0
1070
   389
1010
0.0
1020
0.0
1030
0.0
1001
ACAD
1000
DSTYLE
1002
{
1070
   144
1040
1.0
1070
   176
1070
     0
1070
   177
1070
     0
1002
}
  0
CIRCLE
  5
204
330
70
100
AcDbEntity
  8
Visible
100
AcDbCircle
 10
-132.974621
 20
105.678139
 30
0.0
 40
1.491795126827771
210
0.0000000000005933
220
0.0
230
-1.0
  0
ELLIPSE
  5
205
330
70
100
AcDbEntity
  8
Visible
100
AcDbEllipse
 10
132.974621
 20
105.677796
 30
0.0
 11
-1.491795126582474
 21
0.0000270416800499
 31
0.0
210
0.0
220
0.0
230
0.9999999999999998
 40
0.9999970956635609
 41
3.141725665658702
 42
6.2830885488853
  0
CIRCLE
  5
206
330
70
100
AcDbEntity
  8
Visible
100
AcDbCircle
 10
-235.474621
 20
105.678139
 30
0.0
 40
1.491795126827503
210
0.0000000000005933
220
0.0
230
-1.0
  0
ELLIPSE
  5
207
330
70
100
AcDbEntity
  8
Visible
100
AcDbEllipse
 10
235.474621
 20
105.677796
 30
0.0
 11
1.491795126827237
 21
0.0000010176642888
 31
0.0
210
0.0
220
0.0
230
1.0
 40
0.999997095663549
 41
0.000114203129693
 42
3.141477086116083
  0
ELLIPSE
  5
208
330
70
100
AcDbEntity
  8
Visible
100
AcDbEllipse
 10
241.402126
 20
176.634403
 30
0.0
 11
2.120007794515913
 21
2.120007794515913
 31
0.0
210
0.0
220
0.0
230
1.0
 40
0.9951458157828959
 41
5.500220129340986
 42
7.066150471305682
  0
LINE
  5
209
330
70
100
AcDbEntity
  8
Visible
100
AcDbLine
 10
241.416679
 20
179.625279
 30
0.0
 11
126.474055
 21
179.625279
 31
0.0
210
0.0000000000005933
220
0.0
230
-1.0
  0
ELLIPSE
  5
20A
330
70
100
AcDbEntity
  8
Visible
100
AcDbEllipse
 10
126.488608
 20
176.634403
 30
0.0
 11
-2.120007794515914
 21
2.120007794515914
 31
0.0
210
0.0
220
0.0
230
0.9999999999999998
 40
0.9951458157828959
 41
-0.7829651641260966
 42
0.7829651778385994
  0
LINE
  5
20B
330
70
100
AcDbEntity
  8
Visible
100
AcDbLine
 10
123.497732
 20
176.648957
 30
0.0
 11
123.497732
 21
138.695393
 31
0.0
210
0.0000000000005933
220
0.0
230
-1.0
  0
ELLIPSE
  5
20C
330
70
100
AcDbEntity
  8
Visible
100
AcDbEllipse
 10
126.488608
 20
138.709946
 30
0.0
 11
2.120007794516823
 21
2.120007794516823
 31
0.0
210
0.0
220
0.0
230
0.9999999999999998
 40
0.9951458157832544
 41
2.358627475751978
 42
3.924557817715104
  0
LINE
  5
20D
330
70
100
AcDbEntity
  8
Visible
100
AcDbLine
 10
126.474055
 20
135.71907
 30
0.0
 11
241.416679
 21
135.71907
 31
0.0
210
0.0000000000005933
220
0.0
230
-1.0
  0
ELLIPSE
  5
20E
330
70
100
AcDbEntity
  8
Visible
100
AcDbEllipse
 10
241.402126
 20
138.709946
 30
0.0
 11
-2.120007794516823
 21
2.120007794516823
 31
0.0
210
0.0
220
0.0
230
0.9999999999999998
 40
0.9951458157832544
 41
2.358627489464481
 42
3.924557831427607
  0
LINE
  5
20F
330
70
100
AcDbEntity
  8
Visible
100
AcDbLine
 10
244.393002
 20
138.695393
 30
0.0
 11
244.393002
 21
176.648957
 31
0.0
210
0.0000000000005933
220
0.0
230
-1.0
  0
ELLIPSE
  5
210
330
70
100
AcDbEntity
  8
Visible
100
AcDbEllipse
 10
241.611906
 20
176.844681
 30
0.0
 11
2.12000780774906
 21
2.12000780774906
 31
0.0
210
0.0
220
0.0
230
-0.9999999999999998
 40
0.9951458207779786
 41
-0.7829651579246628
 42
0.7829651716371658
  0
LINE
  5
211
330
70
100
AcDbEntity
  8
Visible
100
AcDbLine
 10
244.602782
 20
176.859234
 30
0.0
 11
244.602782
 21
138.486109
 31
0.0
210
0.0000000000005933
220
0.0
230
-1.0
  0
ELLIPSE
  5
212
330
70
100
AcDbEntity
  8
Visible
100
AcDbEllipse
 10
241.611906
 20
138.500663
 30
0.0
 11
-2.120007807749971
 21
2.120007807749971
 31
0.0
210
0.0
220
0.0
230
-0.9999999999999998
 40
0.9951458207771203
 41
2.358627481952196
 42
3.924557811514887
  0
LINE
  5
213
330
70
100
AcDbEntity
  8
Visible
100
AcDbLine
 10
241.62646
 20
135.509787
 30
0.0
 11
126.264274
 21
135.509787
 31
0.0
210
0.0000000000005933
220
0.0
230
-1.0
  0
ELLIPSE
  5
214
330
70
100
AcDbEntity
  8
Visible
100
AcDbEllipse
 10
126.278828
 20
138.500663
 30
0.0
 11
2.120007801133396
 21
2.120007801133396
 31
0.0
210
0.0
220
0.0
230
-0.9999999999999998
 40
0.9951458182801873
 41
2.358627497077401
 42
3.924557813226896
  0
LINE
  5
215
330
70
100
AcDbEntity
  8
Visible
100
AcDbLine
 10
123.287952
 20
138.486109
 30
0.0
 11
123.287952
 21
176.859234
 31
0.0
210
0.0000000000005933
220
0.0
230
-1.0
  0
ELLIPSE
  5
216
330
70
100
AcDbEntity
  8
Visible
100
AcDbEllipse
 10
126.278828
 20
176.844681
 30
0.0
 11
-2.120007801132487
 21
2.120007801132487
 31
0.0
210
0.0
220
0.0
230
-1.0
 40
0.9951458182810455
 41
5.500220127930109
 42
7.066150463691546
  0
LINE
  5
217
330
70
100
AcDbEntity
  8
Visible
100
AcDbLine
 10
126.264274
 20
179.835556
 30
0.0
 11
241.62646
 21
179.835556
 31
0.0
210
0.0000000000005933
220
0.0
230
-1.0
  0
ARC
  5
218
330
70
100
AcDbEntity
  8
Visible
100
AcDbCircle
 10
245.984315
 20
181.217338
 30
0.0
 40
0.4999730710071261
100
AcDbArc
 50
359.999095
 51
90.000904
  0
ARC
  5
219
330
70
100
AcDbEntity
  8
Visible
100
AcDbCircle
 10
246.263575
 20
181.491299
 30
0.0
 40
0.4999730764777214
100
AcDbArc
 50
359.999096
 51
90.000904
  0
ARC
  5
21A
330
70
100
AcDbEntity
  8
Visible
100
AcDbCircle
 10
121.905921
 20
181.217338
 30
0.0
 40
0.4999730710070169
100
AcDbArc
 50
89.999096
 51
180.000905
  0
ARC
  5
21B
330
70
100
AcDbEntity
  8
Visible
100
AcDbCircle
 10
121.626662
 20
181.491299
 30
0.0
 40
0.4999730764776772
100
AcDbArc
 50
89.999096
 51
180.000904
  0
SPLINE
  5
21C
330
70
100
AcDbEntity
  8
Visible
100
AcDbSpline
210
0.0
220
0.0
230
1.0
 70
     8
 71
     3
 72
     8
 73
     4
 74
     0
 42
0.000000001
 43
0.0000000001
 40
0.000000331123273
 40
0.000000331123273
 40
0.000000331123273
 40
0.000000331123273
 40
0.011133503776306
 40
0.011133503776306
 40
0.011133503776306
 40
0.011133503776306
 10
244.4451184249992
 20
101.6732609831961
 30
0.0000000000000036
 10
244.4451178728595
 20
101.6732672160924
 30
0.0000000000000036
 10
244.4450918687508
 20
101.6747401633583
 30
0.0000000000000036
 10
244.4450437300329
 20
101.6774880044595
 30
0.0000000000000036
  0
LINE
  5
21D
330
70
100
AcDbEntity
  8
Visible
100
AcDbLine
 10
244.445118
 20
101.67748
 30
0.0
 11
244.445118
 21
101.673261
 31
0.0
210
0.0000000000005933
220
0.0
230
-1.0
  0
SPLINE
  5
21E
330
70
100
AcDbEntity
  8
Visible
100
AcDbSpline
210
0.0
220
0.0
230
1.0
 70
     8
 71
     3
 72
     8
 73
     4
 74
     0
 42
0.000000001
 43
0.0000000001
 40
0.1364058079346521
 40
0.1364058079346521
 40
0.1364058079346521
 40
0.1364058079346521
 40
0.1463203559215028
 40
0.1463203559215028
 40
0.1463203559215028
 40
0.1463203559215028
 10
123.4451931199655
 20
101.6774880044595
 30
0.0
 10
123.4451449812495
 20
101.6747401633583
 30
0.0
 10
123.4451189771389
 20
101.6732672160924
 30
0.0
 10
123.4451184249992
 20
101.6732609831961
 30
0.0
  0
LINE
  5
21F
330
70
100
AcDbEntity
  8
Visible
100
AcDbLine
 10
123.445118
 20
101.673261
 30
0.0
 11
123.445118
 21
101.67748
 31
0.0
210
0.0000000000005933
220
0.0
230
-1.0
  0
LINE
  5
220
330
70
100
AcDbEntity
  8
Visible
100
AcDbLine
 10
125.444814
 20
101.677811
 30
0.0
 11
242.445423
 21
101.677811
 31
0.0
210
0.0000000000005933
220
0.0
230
-1.0
  0
ARC
  5
221
330
70
100
AcDbEntity
  8
Visible
100
AcDbCircle
 10
245.987014
 20
102.175417
 30
0.0
 40
0.4972745045921014
100
AcDbArc
 50
269.998909
 51
359.99891
  0
ARC
  5
222
330
70
100
AcDbEntity
  8
Visible
100
AcDbCircle
 10
246.266274
 20
102.170117
 30
0.0
 40
0.4972745100628606
100
AcDbArc
 50
269.998909
 51
359.998909
  0
LINE
  5
223
330
70
100
AcDbEntity
  8
Visible
100
AcDbLine
 10
121.405948
 20
181.21733
 30
0.0
 11
121.405948
 21
102.175407
 31
0.0
210
0.0000000000005933
220
0.0
230
-1.0
  0
ARC
  5
224
330
70
100
AcDbEntity
  8
Visible
100
AcDbCircle
 10
-121.903223
 20
102.175417
 30
0.0
 40
0.4972745045920659
210
0.0000000000005933
220
0.0
230
-1.0
100
AcDbArc
 50
269.998909
 51
359.99891
  0
LINE
  5
225
330
70
100
AcDbEntity
  8
Visible
100
AcDbLine
 10
245.987004
 20
101.678142
 30
0.0
 11
121.903232
 21
101.678142
 31
0.0
210
0.0000000000005933
220
0.0
230
-1.0
  0
LINE
  5
226
330
70
100
AcDbEntity
  8
Visible
100
AcDbLine
 10
246.484288
 20
102.175407
 30
0.0
 11
246.484288
 21
181.21733
 31
0.0
210
0.0000000000005933
220
0.0
230
-1.0
  0
LINE
  5
227
330
70
100
AcDbEntity
  8
Visible
100
AcDbLine
 10
245.984307
 20
181.717311
 30
0.0
 11
121.905929
 21
181.717311
 31
0.0
210
0.0000000000005933
220
0.0
230
-1.0
  0
ARC
  5
228
330
70
100
AcDbEntity
  8
Visible
100
AcDbCircle
 10
121.623963
 20
102.170117
 30
0.0
 40
0.4972745100630157
100
AcDbArc
 50
180.001091
 51
270.001091
  0
LINE
  5
229
330
70
100
AcDbEntity
  8
Visible
100
AcDbLine
 10
246.763548
 20
102.170108
 30
0.0
 11
246.763548
 21
181.491291
 31
0.0
210
0.0000000000005933
220
0.0
230
-1.0
  0
LINE
  5
22A
330
70
100
AcDbEntity
  8
Visible
100
AcDbLine
 10
246.263567
 20
181.991272
 30
0.0
 11
121.62667
 21
181.991272
 31
0.0
210
0.0000000000005933
220
0.0
230
-1.0
  0
LINE
  5
22B
330
70
100
AcDbEntity
  8
Visible
100
AcDbLine
 10
121.126689
 20
181.491291
 30
0.0
 11
121.126689
 21
102.170108
 31
0.0
210
0.0000000000005933
220
0.0
230
-1.0
  0
LINE
  5
22C
330
70
100
AcDbEntity
  8
Visible
100
AcDbLine
 10
121.623973
 20
101.672843
 30
0.0
 11
246.266264
 21
101.672843
 31
0.0
210
0.0000000000005933
220
0.0
230
-1.0
  0
ELLIPSE
  5
22D
330
70
100
AcDbEntity
  8
Visible
100
AcDbEllipse
 10
235.945118
 20
101.675493
 30
0.0
 11
2.989060169069489
 21
0.0000000000030957
 31
0.0
210
0.0
220
0.0
230
-1.0
 40
0.0001656037304569
 41
0.0000000062532095
 42
6.283185313432795
  0
ELLIPSE
  5
22E
330
70
100
AcDbEntity
  8
Visible
100
AcDbEllipse
 10
131.945118
 20
101.675493
 30
0.0
 11
2.989060169069489
 21
0.0000000000030957
 31
0.0
210
0.0
220
0.0
230
-1.0
 40
0.0001656037304569
 41
0.0000000062532095
 42
6.283185313432795
  0
ARC
  5
22F
330
70
100
AcDbEntity
  8
Visible
100
AcDbCircle
 10
-129.706457
 20
102.170892
 30
0.0
 40
0.4972650422675967
210
0.0000000000005933
220
0.0
230
-1.0
100
AcDbArc
 50
266.483035
 51
270.0
  0
ARC
  5
230
330
70
100
AcDbEntity
  8
Visible
100
AcDbCircle
 10
129.706457
 20
102.171752
 30
0.0
 40
0.4972650422676101
100
AcDbArc
 50
270.0
 51
270.659953
  0
ARC
  5
231
330
70
100
AcDbEntity
  8
Visible
100
AcDbCircle
 10
135.68378
 20
102.171752
 30
0.0
 40
0.4972650422676958
100
AcDbArc
 50
269.340102
 51
270.0
  0
ARC
  5
232
330
70
100
AcDbEntity
  8
Visible
100
AcDbCircle
 10
-135.68378
 20
102.170892
 30
0.0
 40
0.4972650422676894
210
0.0000000000005933
220
0.0
230
-1.0
100
AcDbArc
 50
270.0
 51
273.516955
  0
ARC
  5
233
330
70
100
AcDbEntity
  8
Visible
100
AcDbCircle
 10
232.206457
 20
102.171752
 30
0.0
 40
0.4972650422672129
100
AcDbArc
 50
270.0
 51
270.659953
  0
ARC
  5
234
330
70
100
AcDbEntity
  8
Visible
100
AcDbCircle
 10
-232.206457
 20
102.170892
 30
0.0
 40
0.4972650422672415
210
0.0000000000005933
220
0.0
230
-1.0
100
AcDbArc
 50
266.483035
 51
270.0
  0
ARC
  5
235
330
70
100
AcDbEntity
  8
Visible
100
AcDbCircle
 10
-238.183779
 20
102.170892
 30
0.0
 40
0.497265042267699
210
0.0000000000005933
220
0.0
230
-1.0
100
AcDbArc
 50
270.0
 51
273.516955
  0
ARC
  5
236
330
70
100
AcDbEntity
  8
Visible
100
AcDbCircle
 10
238.183779
 20
102.171752
 30
0.0
 40
0.4972650422676654
100
AcDbArc
 50
269.340102
 51
270.0
  0
SPLINE
  5
237
330
70
100
AcDbEntity
  8
Visible
100
AcDbSpline
210
-0.0000000000000057
220
0.0000000000347171
230
-1.0
 70
     8
 71
     3
 72
    41
 73
    37
 74
     0
 42
0.000000001
 43
0.0000000001
 40
0.0
 40
0.0
 40
0.0
 40
0.0
 40
0.1301895239728278
 40
0.1301895239728278
 40
0.1301895239728278
 40
0.218750000000025
 40
0.218750000000025
 40
0.218750000000025
 40
0.2500000000000289
 40
0.2500000000000289
 40
0.2500000000000289
 40
0.2595255888233443
 40
0.2595255888233443
 40
0.2595255888233443
 40
0.379845300371251
 40
0.379845300371251
 40
0.379845300371251
 40
0.5000000000000203
 40
0.5000000000000203
 40
0.5000000000000203
 40
0.6202633699179705
 40
0.6202633699179705
 40
0.6202633699179705
 40
0.718750000000015
 40
0.718750000000015
 40
0.718750000000015
 40
0.7401195091697142
 40
0.7401195091697142
 40
0.7401195091697142
 40
0.7500000000000152
 40
0.7500000000000152
 40
0.7500000000000152
 40
0.8699272137871785
 40
0.8699272137871785
 40
0.8699272137871785
 40
1.0
 40
1.0
 40
1.0
 40
1.0
 10
128.2148895097416
 20
101.6733798374625
 30
0.0000000000000036
 10
128.3137593717965
 20
101.6733798374625
 30
0.0
 10
128.4107497629666
 20
101.6733814426388
 30
0.0
 10
128.505918593517
 20
101.6733845767739
 30
0.0
 10
128.5706564977608
 20
101.6733867087478
 30
0.0
 10
128.634555590279
 20
101.6733895481284
 30
0.0000000000000036
 10
128.6975766727391
 20
101.6733931230283
 30
0.0
 10
128.7198146835908
 20
101.6733943844883
 30
0.0
 10
128.7400755142771
 20
101.6733956133648
 30
0.0
 10
128.7639729422189
 20
101.6733971786507
 30
0.0
 10
128.7712573285371
 20
101.6733976557789
 30
0.0000000000000036
 10
128.7785087247848
 20
101.6733981417983
 30
0.0000000000000036
 10
128.7857271644898
 20
101.6733986366271
 30
0.0
 10
128.8769047913174
 20
101.6734048869111
 30
0.0
 10
128.9628525412281
 20
101.6734125235925
 30
0.0000000000000036
 10
129.0436102749008
 20
101.6734214599164
 30
0.0
 10
129.1242572537503
 20
101.6734303839839
 30
0.0
 10
129.1997604220505
 20
101.6734406079013
 30
0.0
 10
129.2696393475708
 20
101.6734521773724
 30
0.0000000000000036
 10
129.3395814729756
 20
101.6734637573081
 30
0.0
 10
129.4013192669681
 20
101.6734762578089
 30
0.0000000000000036
 10
129.4552262948764
 20
101.6734896190191
 30
0.0000000000000036
 10
129.4993720852362
 20
101.6735005608443
 30
0.0
 10
129.5382539500333
 20
101.6735120670764
 30
0.0000000000000036
 10
129.5716109839522
 20
101.6735241894584
 30
0.0
 10
129.578848752586
 20
101.673526819759
 30
0.0
 10
129.5862312406061
 20
101.6735296328461
 30
0.0000000000000036
 10
129.5929337288144
 20
101.6735323142711
 30
0.0000000000000036
 10
129.5960327177872
 20
101.6735335540652
 30
0.0
 10
129.5989902061701
 20
101.6735347654758
 30
0.0000000000000036
 10
129.601743773801
 20
101.6735359164104
 30
0.0
 10
129.6351659690645
 20
101.6735498862035
 30
0.0
 10
129.6604050302649
 20
101.6735641381274
 30
0.0
 10
129.6778289012345
 20
101.6735786534882
 30
0.0
 10
129.6967267924792
 20
101.6735943968178
 30
0.0
 10
129.7064574289124
 20
101.6736104574011
 30
0.0000000000000036
 10
129.7064574289197
 20
101.6736268466738
 30
0.0000000000000036
  0
SPLINE
  5
238
330
70
100
AcDbEntity
  8
Visible
100
AcDbSpline
210
-0.0000000000000058
220
0.0000000000228435
230
1.0
 70
     8
 71
     3
 72
    41
 73
    37
 74
     0
 42
0.000000001
 43
0.0000000001
 40
0.0
 40
0.0
 40
0.0
 40
0.0
 40
0.1301161365843801
 40
0.1301161365843801
 40
0.1301161365843801
 40
0.2343749999999974
 40
0.2343749999999974
 40
0.2343749999999974
 40
0.2499999999999977
 40
0.2499999999999977
 40
0.2499999999999977
 40
0.2593675969790841
 40
0.2593675969790841
 40
0.2593675969790841
 40
0.3797630511237205
 40
0.3797630511237205
 40
0.3797630511237205
 40
0.4999999999999925
 40
0.4999999999999925
 40
0.4999999999999925
 40
0.6203118556712958
 40
0.6203118556712958
 40
0.6203118556712958
 40
0.7343749999999849
 40
0.7343749999999849
 40
0.7343749999999849
 40
0.7405353590492476
 40
0.7405353590492476
 40
0.7405353590492476
 40
0.7499999999999822
 40
0.7499999999999822
 40
0.7499999999999822
 40
0.8700071497464394
 40
0.8700071497464394
 40
0.8700071497464394
 40
1.0
 40
1.0
 40
1.0
 40
1.0
 10
129.7064574289161
 20
101.6744873775369
 30
0.0000000000000036
 10
129.7065033269718
 20
101.6745122773336
 30
0.0000000000000036
 10
129.716097911265
 20
101.6745366840077
 30
0.0
 10
129.7347762045119
 20
101.6745606110798
 30
0.0
 10
129.7497426619829
 20
101.6745797832554
 30
0.0
 10
129.7705716666933
 20
101.6745986523128
 30
0.0
 10
129.7974907790849
 20
101.6746172032144
 30
0.0
 10
129.8015250752341
 20
101.6746199833887
 30
0.0000000000000036
 10
129.8053390804343
 20
101.6746225253136
 30
0.0
 10
129.8100106845813
 20
101.6746255221987
 30
0.0
 10
129.8128114336941
 20
101.674627318911
 30
0.0
 10
129.8156632673745
 20
101.6746291074687
 30
0.0
 10
129.818565769523
 20
101.6746308878882
 30
0.0
 10
129.8558696869495
 20
101.6746537704312
 30
0.0000000000000036
 10
129.9014328502526
 20
101.6746753167863
 30
0.0
 10
129.9547585445307
 20
101.6746955518047
 30
0.0
 10
130.0080140334703
 20
101.6747157601839
 30
0.0
 10
130.0690326771673
 20
101.6747346677202
 30
0.0
 10
130.1381239604052
 20
101.6747521602719
 30
0.0
 10
130.2072582870387
 20
101.6747696637194
 30
0.0
 10
130.2819144285367
 20
101.6747850989941
 30
0.0
 10
130.3617460361056
 20
101.6747985761794
 30
0.0
 10
130.4374313800399
 20
101.6748113533922
 30
0.0000000000000036
 10
130.5178036295747
 20
101.6748223734121
 30
0.0
 10
130.6030831765401
 20
101.6748315441782
 30
0.0
 10
130.6076889817886
 20
101.6748320394763
 30
0.0
 10
130.6124587769245
 20
101.6748325450935
 30
0.0
 10
130.6172169244255
 20
101.6748330419032
 30
0.0
 10
130.6245272382111
 20
101.6748338051893
 30
0.0
 10
130.6318107075112
 20
101.6748345472297
 30
0.0
 10
130.6384166700863
 20
101.6748352070408
 30
0.0
 10
130.7221771364438
 20
101.6748435731297
 30
0.0
 10
130.8077056711554
 20
101.6748498881206
 30
0.0000000000000036
 10
130.8948806622247
 20
101.6748542505502
 30
0.0
 10
130.9893094157105
 20
101.6748589759736
 30
0.0
 10
131.0857002495722
 20
101.6748614014304
 30
0.0
 10
131.1841831021302
 20
101.6748614184907
 30
0.0000000000000036
  0
SPLINE
  5
239
330
70
100
AcDbEntity
  8
Visible
100
AcDbSpline
210
0.0
220
0.0
230
1.0
 70
     8
 71
     3
 72
    41
 73
    37
 74
     0
 42
0.000000001
 43
0.0000000001
 40
0.0
 40
0.0
 40
0.0
 40
0.0
 40
0.1301062923425081
 40
0.1301062923425081
 40
0.1301062923425081
 40
0.2187500000000379
 40
0.2187500000000379
 40
0.2187500000000379
 40
0.2500000000000419
 40
0.2500000000000419
 40
0.2500000000000419
 40
0.2593704338635778
 40
0.2593704338635778
 40
0.2593704338635778
 40
0.3797712804007618
 40
0.3797712804007618
 40
0.3797712804007618
 40
0.5000000000000391
 40
0.5000000000000391
 40
0.5000000000000391
 40
0.6203220576034423
 40
0.6203220576034423
 40
0.6203220576034423
 40
0.7343750000000357
 40
0.7343750000000357
 40
0.7343750000000357
 40
0.7405353827877319
 40
0.7405353827877319
 40
0.7405353827877319
 40
0.750000000000034
 40
0.750000000000034
 40
0.750000000000034
 40
0.8699653978803183
 40
0.8699653978803183
 40
0.8699653978803183
 40
1.0
 40
1.0
 40
1.0
 40
1.0
 10
134.2060539117719
 20
101.6748614184907
 30
0.0
 10
134.3044538641115
 20
101.674861401445
 30
0.0000000000000036
 10
134.4008422767438
 20
101.674858979677
 30
0.0000000000000036
 10
134.4953626244078
 20
101.674854251245
 30
0.0
 10
134.559761001421
 20
101.674851029682
 30
0.0
 10
134.6232945793781
 20
101.6748467356228
 30
0.0
 10
134.6859318097504
 20
101.6748413346813
 30
0.0
 10
134.7080136190616
 20
101.6748394306614
 30
0.0
 10
134.7281460829472
 20
101.6748375707411
 30
0.0
 10
134.7518185914632
 20
101.6748352066042
 30
0.0
 10
134.7589168850772
 20
101.6748344977077
 30
0.0000000000000036
 10
134.7659831150831
 20
101.6748337758836
 30
0.0000000000000036
 10
134.7730173335185
 20
101.6748330412319
 30
0.0
 10
134.8634001126502
 20
101.674823601681
 30
0.0
 10
134.9485272322654
 20
101.6748120716802
 30
0.0
 10
135.0284733706266
 20
101.674798574104
 30
0.0000000000000036
 10
135.108305216736
 20
101.6747850958236
 30
0.0
 10
135.1830019207591
 20
101.6747696500024
 30
0.0
 10
135.2521130487202
 20
101.6747521602701
 30
0.0
 10
135.3212778302095
 20
101.6747346569609
 30
0.0
 10
135.3822576582952
 20
101.674715760495
 30
0.0000000000000036
 10
135.4355058747569
 20
101.6746955526378
 30
0.0000000000000036
 10
135.4859797104436
 20
101.6746763976662
 30
0.0
 10
135.529517006722
 20
101.6746560555075
 30
0.0
 10
135.5657557409704
 20
101.6746344651947
 30
0.0
 10
135.5677131168159
 20
101.6746332990296
 30
0.0000000000000036
 10
135.5697102363319
 20
101.6746320919665
 30
0.0
 10
135.5716724250487
 20
101.6746308879374
 30
0.0
 10
135.5746870697094
 20
101.6746290381034
 30
0.0000000000000036
 10
135.5776174588936
 20
101.674627195267
 30
0.0
 10
135.5802256887436
 20
101.6746255221751
 30
0.0000000000000036
 10
135.6132853809322
 20
101.6746043155035
 30
0.0
 10
135.6382351674037
 20
101.6745826699116
 30
0.0
 10
135.6554562829787
 20
101.6745606112344
 30
0.0
 10
135.6741228397659
 20
101.6745367010808
 30
0.0
 10
135.6837336544522
 20
101.6745122949542
 30
0.0
 10
135.6837795849878
 20
101.6744873775369
 30
0.0
  0
SPLINE
  5
23A
330
70
100
AcDbEntity
  8
Visible
100
AcDbSpline
210
-0.0000000000000057
220
0.0000000000347171
230
-1.0
 70
     8
 71
     3
 72
    41
 73
    37
 74
     0
 42
0.000000001
 43
0.0000000001
 40
0.0
 40
0.0
 40
0.0
 40
0.0
 40
0.1301895239746081
 40
0.1301895239746081
 40
0.1301895239746081
 40
0.2187499999999941
 40
0.2187499999999941
 40
0.2187499999999941
 40
0.2499999999999968
 40
0.2499999999999968
 40
0.2499999999999968
 40
0.2595255888233531
 40
0.2595255888233531
 40
0.2595255888233531
 40
0.3798453003726006
 40
0.3798453003726006
 40
0.3798453003726006
 40
0.4999999999999965
 40
0.4999999999999965
 40
0.4999999999999965
 40
0.620263369915835
 40
0.620263369915835
 40
0.620263369915835
 40
0.7187499999999938
 40
0.7187499999999938
 40
0.7187499999999938
 40
0.7401195091693977
 40
0.7401195091693977
 40
0.7401195091693977
 40
0.7499999999999926
 40
0.7499999999999926
 40
0.7499999999999926
 40
0.869927213787507
 40
0.869927213787507
 40
0.869927213787507
 40
1.0
 40
1.0
 40
1.0
 40
1.0
 10
230.7148895097416
 20
101.6733798374625
 30
0.0000000000000036
 10
230.8137593717929
 20
101.6733798374625
 30
0.0
 10
230.9107497629666
 20
101.6733814426388
 30
0.0
 10
231.005918593517
 20
101.6733845767739
 30
0.0
 10
231.0706564977572
 20
101.6733867087478
 30
0.0
 10
231.1345555902753
 20
101.6733895481284
 30
0.0000000000000036
 10
231.1975766727373
 20
101.6733931230283
 30
0.0
 10
231.219814683589
 20
101.6733943844883
 30
0.0
 10
231.2400755142771
 20
101.6733956133648
 30
0.0
 10
231.263972942219
 20
101.6733971786507
 30
0.0
 10
231.2712573285371
 20
101.6733976557789
 30
0.0
 10
231.2785087247848
 20
101.6733981417983
 30
0.0000000000000036
 10
231.2857271644898
 20
101.6733986366253
 30
0.0
 10
231.3769047913193
 20
101.6734048869111
 30
0.0
 10
231.4628525412281
 20
101.6734125235925
 30
0.0
 10
231.5436102749027
 20
101.6734214599164
 30
0.0
 10
231.6242572537485
 20
101.6734303839839
 30
0.0
 10
231.6997604220505
 20
101.6734406079013
 30
0.0
 10
231.7696393475708
 20
101.6734521773724
 30
0.0000000000000036
 10
231.8395814729738
 20
101.6734637573081
 30
0.0
 10
231.90131926697
 20
101.6734762578089
 30
0.0000000000000036
 10
231.9552262948764
 20
101.6734896190191
 30
0.0000000000000036
 10
231.9993720852362
 20
101.6735005608443
 30
0.0
 10
232.0382539500351
 20
101.6735120670764
 30
0.0000000000000036
 10
232.0716109839523
 20
101.6735241894584
 30
0.0
 10
232.0788487525879
 20
101.673526819759
 30
0.0
 10
232.0862312406061
 20
101.6735296328461
 30
0.0000000000000036
 10
232.0929337288144
 20
101.6735323142711
 30
0.0000000000000036
 10
232.0960327177872
 20
101.6735335540652
 30
0.0
 10
232.0989902061701
 20
101.6735347654758
 30
0.0000000000000036
 10
232.101743773801
 20
101.6735359164104
 30
0.0
 10
232.1351659690645
 20
101.6735498862035
 30
0.0000000000000036
 10
232.1604050302649
 20
101.6735641381274
 30
0.0
 10
232.1778289012327
 20
101.6735786534882
 30
0.0
 10
232.1967267924792
 20
101.6735943968178
 30
0.0
 10
232.206457428907
 20
101.6736104574011
 30
0.0000000000000036
 10
232.2064574289198
 20
101.6736268466738
 30
0.0000000000000036
  0
SPLINE
  5
23B
330
70
100
AcDbEntity
  8
Visible
100
AcDbSpline
210
-0.0000000000000057
220
-0.0000000000347171
230
-1.0
 70
     8
 71
     3
 72
    41
 73
    37
 74
     0
 42
0.000000001
 43
0.0000000001
 40
0.0
 40
0.0
 40
0.0
 40
0.0
 40
0.130189523971528
 40
0.130189523971528
 40
0.130189523971528
 40
0.2187499999999838
 40
0.2187499999999838
 40
0.2187499999999838
 40
0.2499999999999815
 40
0.2499999999999815
 40
0.2499999999999815
 40
0.2595255888231347
 40
0.2595255888231347
 40
0.2595255888231347
 40
0.3798453003712421
 40
0.3798453003712421
 40
0.3798453003712421
 40
0.499999999999976
 40
0.499999999999976
 40
0.499999999999976
 40
0.620263369916952
 40
0.620263369916952
 40
0.620263369916952
 40
0.7187499999999729
 40
0.7187499999999729
 40
0.7187499999999729
 40
0.7401195091696713
 40
0.7401195091696713
 40
0.7401195091696713
 40
0.7499999999999729
 40
0.7499999999999729
 40
0.7499999999999729
 40
0.8699272137878489
 40
0.8699272137878489
 40
0.8699272137878489
 40
1.0
 40
1.0
 40
1.0
 40
1.0
 10
135.6837795849915
 20
101.6736268466738
 30
0.0
 10
135.6837795849969
 20
101.6736104734573
 30
0.0
 10
135.6934549344387
 20
101.6735944143893
 30
0.0000000000000036
 10
135.7123648083652
 20
101.6735786566641
 30
0.0000000000000036
 10
135.7252281124583
 20
101.673567937587
 30
0.0
 10
135.7423969753417
 20
101.6735573518126
 30
0.0000000000000036
 10
135.7640007219361
 20
101.6735469125251
 30
0.0
 10
135.7716239542333
 20
101.6735432288533
 30
0.0000000000000036
 10
135.7790428541811
 20
101.6735398738619
 30
0.0
 10
135.7884942409055
 20
101.6735359164595
 30
0.0
 10
135.7913752016647
 20
101.6735347101694
 30
0.0
 10
135.7943097739717
 20
101.6735335093526
 30
0.0
 10
135.7972975145694
 20
101.6735323140001
 30
0.0
 10
135.835036293085
 20
101.6735172152475
 30
0.0
 10
135.8811486475806
 20
101.673502982283
 30
0.0
 10
135.9351122973203
 20
101.6734896082434
 30
0.0
 10
135.9890019388585
 20
101.6734762525448
 30
0.0
 10
136.0507422845585
 20
101.6734637484242
 30
0.0
 10
136.1205976663405
 20
101.6734521773724
 30
0.0
 10
136.1905162267121
 20
101.6734405958577
 30
0.0000000000000036
 10
136.2659213931511
 20
101.6734303849716
 30
0.0
 10
136.3465588695399
 20
101.6734214651114
 30
0.0000000000000036
 10
136.4125948812816
 20
101.6734141604174
 30
0.0000000000000036
 10
136.4821731343236
 20
101.6734077052497
 30
0.0
 10
136.5554370290156
 20
101.6734021708089
 30
0.0000000000000036
 10
136.5713337397483
 20
101.6734009699539
 30
0.0
 10
136.5883201281358
 20
101.6733997474639
 30
0.0
 10
136.6045122394389
 20
101.6733986374565
 30
0.0000000000000036
 10
136.6119988881019
 20
101.6733981242305
 30
0.0
 10
136.6193139977367
 20
101.6733976344603
 30
0.0
 10
136.6262636755182
 20
101.6733971785015
 30
0.0
 10
136.7106173283136
 20
101.6733916441735
 30
0.0
 10
136.79667257254
 20
101.6733874653455
 30
0.0
 10
136.8843270329653
 20
101.6733845793442
 30
0.0
 10
136.9793968635022
 20
101.6733814491926
 30
0.0
 10
137.0763806937721
 20
101.6733798374625
 30
0.0000000000000036
 10
137.1753475041714
 20
101.6733798374625
 30
0.0
  0
SPLINE
  5
23C
330
70
100
AcDbEntity
  8
Visible
100
AcDbSpline
210
-0.0000000000000014
220
0.0000000000151019
230
1.0
 70
     8
 71
     3
 72
    41
 73
    37
 74
     0
 42
0.000000001
 43
0.0000000001
 40
0.0
 40
0.0
 40
0.0
 40
0.0
 40
0.130116136564401
 40
0.130116136564401
 40
0.130116136564401
 40
0.2343750000000161
 40
0.2343750000000161
 40
0.2343750000000161
 40
0.2500000000000165
 40
0.2500000000000165
 40
0.2500000000000165
 40
0.2593675969515835
 40
0.2593675969515835
 40
0.2593675969515835
 40
0.3797630511075881
 40
0.3797630511075881
 40
0.3797630511075881
 40
0.5000000000000342
 40
0.5000000000000342
 40
0.5000000000000342
 40
0.6203118556843924
 40
0.6203118556843924
 40
0.6203118556843924
 40
0.7343750000000476
 40
0.7343750000000476
 40
0.7343750000000476
 40
0.7405353590756656
 40
0.7405353590756656
 40
0.7405353590756656
 40
0.7500000000000448
 40
0.7500000000000448
 40
0.7500000000000448
 40
0.8700071497618655
 40
0.8700071497618655
 40
0.8700071497618655
 40
1.0
 40
1.0
 40
1.0
 40
1.0
 10
232.2064574289161
 20
101.6744873775587
 30
0.0000000000000036
 10
232.2065033269701
 20
101.6745122773554
 30
0.0000000000000036
 10
232.2160979112396
 20
101.6745366840296
 30
0.0
 10
232.2347762044319
 20
101.6745606111017
 30
0.0
 10
232.2497426618629
 20
101.6745797832773
 30
0.0
 10
232.2705716665223
 20
101.6745986523365
 30
0.0
 10
232.2974907788466
 20
101.6746172032362
 30
0.0
 10
232.301525074985
 20
101.6746199834124
 30
0.0000000000000036
 10
232.3053390801742
 20
101.6746225253355
 30
0.0
 10
232.3100106843085
 20
101.6746255222224
 30
0.0
 10
232.3128114334049
 20
101.6746273189346
 30
0.0
 10
232.3156632670689
 20
101.6746291074923
 30
0.0
 10
232.3185657691993
 20
101.6746308879119
 30
0.0
 10
232.355869686522
 20
101.6746537704548
 30
0.0000000000000036
 10
232.4014328496978
 20
101.6746753168099
 30
0.0
 10
232.4547585438286
 20
101.6746955518283
 30
0.0
 10
232.5080140326245
 20
101.6747157602076
 30
0.0
 10
232.569032676156
 20
101.6747346677457
 30
0.0
 10
232.6381239592138
 20
101.6747521602956
 30
0.0000000000000036
 10
232.7072582856636
 20
101.6747696637449
 30
0.0
 10
232.7819144269743
 20
101.6747850990195
 30
0.0000000000000036
 10
232.8617460343503
 20
101.6747985762049
 30
0.0
 10
232.9374313780881
 20
101.6748113534177
 30
0.0000000000000036
 10
233.0178036274156
 20
101.6748223734375
 30
0.0
 10
233.10308317417
 20
101.6748315442055
 30
0.0
 10
233.1076889794276
 20
101.6748320395036
 30
0.0
 10
233.1124587745744
 20
101.674832545119
 30
0.0
 10
233.1172169220827
 20
101.6748330419286
 30
0.0000000000000036
 10
233.1245272358301
 20
101.6748338052166
 30
0.0
 10
233.1318107050902
 20
101.6748345472551
 30
0.0
 10
233.1384166676344
 20
101.6748352070663
 30
0.0
 10
233.2221771338282
 20
101.6748435731551
 30
0.0
 10
233.3077056683869
 20
101.6748498881461
 30
0.0000000000000036
 10
233.394880659318
 20
101.6748542505756
 30
0.0
 10
233.4893094126292
 20
101.6748589759991
 30
0.0
 10
233.5857002463272
 20
101.6748614014577
 30
0.0
 10
233.6841830987359
 20
101.6748614185162
 30
0.0
  0
SPLINE
  5
23D
330
70
100
AcDbEntity
  8
Visible
100
AcDbSpline
210
0.0
220
0.0
230
1.0
 70
     8
 71
     3
 72
    41
 73
    37
 74
     0
 42
0.000000001
 43
0.0000000001
 40
0.0
 40
0.0
 40
0.0
 40
0.0
 40
0.1301062923589896
 40
0.1301062923589896
 40
0.1301062923589896
 40
0.2187499999999987
 40
0.2187499999999987
 40
0.2187499999999987
 40
0.2499999999999986
 40
0.2499999999999986
 40
0.2499999999999986
 40
0.2593704338875526
 40
0.2593704338875526
 40
0.2593704338875526
 40
0.3797712804157584
 40
0.3797712804157584
 40
0.3797712804157584
 40
0.5000000000000041
 40
0.5000000000000041
 40
0.5000000000000041
 40
0.6203220575851591
 40
0.6203220575851591
 40
0.6203220575851591
 40
0.7343750000000099
 40
0.7343750000000099
 40
0.7343750000000099
 40
0.7405353827635244
 40
0.7405353827635244
 40
0.7405353827635244
 40
0.7500000000000105
 40
0.7500000000000105
 40
0.7500000000000105
 40
0.8699653978605665
 40
0.8699653978605665
 40
0.8699653978605665
 40
1.0
 40
1.0
 40
1.0
 40
1.0
 10
236.706053744816
 20
101.674861418518
 30
0.0
 10
236.8044536972902
 20
101.6748614014723
 30
0.0000000000000036
 10
236.900842110068
 20
101.6748589797043
 30
0.0000000000000036
 10
236.9953624578902
 20
101.6748542512741
 30
0.0
 10
237.0597608349926
 20
101.6748510297111
 30
0.0
 10
237.1232944130424
 20
101.6748467356519
 30
0.0000000000000036
 10
237.1859316435184
 20
101.6748413347086
 30
0.0
 10
237.2080134528697
 20
101.6748394306887
 30
0.0
 10
237.2281459167862
 20
101.6748375707684
 30
0.0
 10
237.2518184253513
 20
101.6748352066315
 30
0.0
 10
237.2589167189999
 20
101.6748344977368
 30
0.0
 10
237.2659829490385
 20
101.6748337759109
 30
0.0000000000000036
 10
237.2730171675066
 20
101.6748330412592
 30
0.0000000000000036
 10
237.363399946822
 20
101.6748236017083
 30
0.0
 10
237.4485270666101
 20
101.6748120717075
 30
0.0
 10
237.5284732051441
 20
101.6747985741312
 30
0.0
 10
237.6083050514189
 20
101.6747850958509
 30
0.0000000000000036
 10
237.6830017556094
 20
101.6747696500297
 30
0.0
 10
237.7521128837397
 20
101.6747521602974
 30
0.0000000000000036
 10
237.8212776653963
 20
101.6747346569882
 30
0.0
 10
237.8822574936275
 20
101.6747157605223
 30
0.0000000000000036
 10
237.9355057102166
 20
101.6746955526632
 30
0.0
 10
237.9859795460379
 20
101.6746763976916
 30
0.0
 10
238.0295168424327
 20
101.674656055533
 30
0.0
 10
238.0657555767757
 20
101.6746344652201
 30
0.0
 10
238.0677129526211
 20
101.6746332990551
 30
0.0000000000000036
 10
238.0697100721336
 20
101.6746320919919
 30
0.0
 10
238.0716722608468
 20
101.6746308879628
 30
0.0
 10
238.0746869055238
 20
101.6746290381288
 30
0.0000000000000036
 10
238.0776172947226
 20
101.6746271952925
 30
0.0
 10
238.0802255245872
 20
101.6746255222006
 30
0.0000000000000036
 10
238.1132852168503
 20
101.674604315529
 30
0.0
 10
238.1382350033764
 20
101.6745826699352
 30
0.0
 10
238.1554561189914
 20
101.6745606112599
 30
0.0
 10
238.1741226758259
 20
101.6745367011044
 30
0.0
 10
238.1837334905394
 20
101.6745122949778
 30
0.0
 10
238.1837794210751
 20
101.6744873775605
 30
0.0
  0
SPLINE
  5
23E
330
70
100
AcDbEntity
  8
Visible
100
AcDbSpline
210
-0.0000000000000057
220
-0.0000000000347171
230
-1.0
 70
     8
 71
     3
 72
    41
 73
    37
 74
     0
 42
0.000000001
 43
0.0000000001
 40
0.0
 40
0.0
 40
0.0
 40
0.0
 40
0.1301895239751942
 40
0.1301895239751942
 40
0.1301895239751942
 40
0.2187500000000025
 40
0.2187500000000025
 40
0.2187500000000025
 40
0.2500000000000049
 40
0.2500000000000049
 40
0.2500000000000049
 40
0.2595255888233417
 40
0.2595255888233417
 40
0.2595255888233417
 40
0.3798453003724989
 40
0.3798453003724989
 40
0.3798453003724989
 40
0.5000000000000232
 40
0.5000000000000232
 40
0.5000000000000232
 40
0.6202633699157826
 40
0.6202633699157826
 40
0.6202633699157826
 40
0.7187500000000351
 40
0.7187500000000351
 40
0.7187500000000351
 40
0.7401195091698255
 40
0.7401195091698255
 40
0.7401195091698255
 40
0.7500000000000357
 40
0.7500000000000357
 40
0.7500000000000357
 40
0.86992721378846
 40
0.86992721378846
 40
0.86992721378846
 40
1.0
 40
1.0
 40
1.0
 40
1.0
 10
238.1837794210787
 20
101.6736268466738
 30
0.0
 10
238.1837794210897
 20
101.6736104734555
 30
0.0
 10
238.193454770526
 20
101.6735944143893
 30
0.0000000000000036
 10
238.2123646444543
 20
101.6735786566641
 30
0.0000000000000036
 10
238.2252279485474
 20
101.673567937587
 30
0.0
 10
238.242396811429
 20
101.6735573518126
 30
0.0000000000000036
 10
238.2640005580233
 20
101.6735469125251
 30
0.0
 10
238.2716237903205
 20
101.6735432288533
 30
0.0000000000000036
 10
238.2790426902684
 20
101.6735398738619
 30
0.0000000000000036
 10
238.2884940769909
 20
101.6735359164595
 30
0.0
 10
238.291375037752
 20
101.6735347101694
 30
0.0
 10
238.2943096100571
 20
101.6735335093526
 30
0.0
 10
238.2972973506548
 20
101.6735323140001
 30
0.0
 10
238.3350361291686
 20
101.6735172152457
 30
0.0
 10
238.381148483666
 20
101.673502982283
 30
0.0
 10
238.4351121334057
 20
101.6734896082434
 30
0.0
 10
238.489001774944
 20
101.6734762525448
 30
0.0
 10
238.5507421206439
 20
101.6734637484242
 30
0.0
 10
238.6205975024277
 20
101.6734521773724
 30
0.0
 10
238.6905160628012
 20
101.6734405958559
 30
0.0000000000000036
 10
238.7659212292383
 20
101.6734303849716
 30
0.0
 10
238.8465587056271
 20
101.6734214651114
 30
0.0000000000000036
 10
238.9125947173688
 20
101.6734141604174
 30
0.0000000000000036
 10
238.9821729704126
 20
101.6734077052497
 30
0.0
 10
239.0554368651046
 20
101.6734021708089
 30
0.0
 10
239.0713335758373
 20
101.6734009699521
 30
0.0
 10
239.088319964223
 20
101.6733997474639
 30
0.0
 10
239.1045120755261
 20
101.6733986374565
 30
0.0000000000000036
 10
239.1119987241891
 20
101.6733981242305
 30
0.0
 10
239.119313833824
 20
101.6733976344603
 30
0.0
 10
239.1262635116036
 20
101.6733971785015
 30
0.0
 10
239.2106171644009
 20
101.6733916441735
 30
0.0
 10
239.2966724086273
 20
101.6733874653455
 30
0.0000000000000036
 10
239.3843268690525
 20
101.6733845793442
 30
0.0
 10
239.4793966995876
 20
101.6733814491926
 30
0.0
 10
239.5763805298593
 20
101.6733798374625
 30
0.0
 10
239.6753473402569
 20
101.6733798374625
 30
0.0
  0
LINE
  5
23F
330
70
100
AcDbEntity
  8
Visible
100
AcDbLine
 10
230.195271
 20
101.67363
 30
0.0
 11
137.694966
 21
101.67363
 31
0.0
210
0.0000000000005933
220
0.0
230
-1.0
  0
LINE
  5
240
330
70
100
AcDbEntity
  8
Visible
100
AcDbLine
 10
136.695118
 20
101.673796
 30
0.0
 11
136.695118
 21
101.677191
 31
0.0
210
0.0000000000005933
220
0.0
230
-1.0
  0
LINE
  5
241
330
70
100
AcDbEntity
  8
Visible
100
AcDbLine
 10
137.694966
 20
101.677356
 30
0.0
 11
230.195271
 21
101.677356
 31
0.0
210
0.0000000000005933
220
0.0
230
-1.0
  0
LINE
  5
242
330
70
100
AcDbEntity
  8
Visible
100
AcDbLine
 10
231.195118
 20
101.677191
 30
0.0
 11
231.195118
 21
101.673796
 31
0.0
210
0.0000000000005933
220
0.0
230
-1.0
  0
ARC
  5
243
330
70
100
AcDbEntity
  8
Visible
100
AcDbCircle
 10
-243.206457
 20
102.170894
 30
0.0
 40
0.497265042267206
210
0.0000000000005933
220
0.0
230
-1.0
100
AcDbArc
 50
262.589947
 51
270.0
  0
ARC
  5
244
330
70
100
AcDbEntity
  8
Visible
100
AcDbCircle
 10
-124.683779
 20
102.170894
 30
0.0
 40
0.4972650422675545
210
0.0000000000005933
220
0.0
230
-1.0
100
AcDbArc
 50
270.0
 51
277.410053
  0
LINE
  5
245
330
70
100
AcDbEntity
  8
Visible
100
AcDbLine
 10
128.21489
 20
101.67338
 30
0.0
 11
126.186286
 21
101.67338
 31
0.0
210
0.0000000000005933
220
0.0
230
-1.0
  0
LINE
  5
246
330
70
100
AcDbEntity
  8
Visible
100
AcDbLine
 10
131.184183
 20
101.674861
 30
0.0
 11
134.206054
 21
101.674861
 31
0.0
210
0.0000000000005933
220
0.0
230
-1.0
  0
LINE
  5
247
330
70
100
AcDbEntity
  8
Visible
100
AcDbLine
 10
230.71489
 20
101.67338
 30
0.0
 11
137.175348
 21
101.67338
 31
0.0
210
0.0000000000005933
220
0.0
230
-1.0
  0
LINE
  5
248
330
70
100
AcDbEntity
  8
Visible
100
AcDbLine
 10
236.706054
 20
101.674861
 30
0.0
 11
233.684183
 21
101.674861
 31
0.0
210
0.0000000000005933
220
0.0
230
-1.0
  0
LINE
  5
249
330
70
100
AcDbEntity
  8
Visible
100
AcDbLine
 10
241.703951
 20
101.67338
 30
0.0
 11
239.675347
 21
101.67338
 31
0.0
210
0.0000000000005933
220
0.0
230
-1.0
  0
LINE
  5
24A
330
70
100
AcDbEntity
  8
Visible
100
AcDbLine
 10
242.893002
 20
138.695889
 30
0.0
 11
242.893002
 21
176.649454
 31
0.0
210
0.0000000000005933
220
0.0
230
-1.0
  0
LINE
  5
24B
330
70
100
AcDbEntity
  8
Visible
100
AcDbLine
 10
242.893002
 20
138.695393
 30
0.0
 11
242.893002
 21
138.695889
 31
0.0
210
0.0000000000005933
220
0.0
230
-1.0
  0
SPLINE
  5
24C
330
70
100
AcDbEntity
  8
Visible
100
AcDbSpline
210
0.0000000000000033
220
-0.000000000000001
230
1.0
 70
     8
 71
     3
 72
    11
 73
     7
 74
     0
 42
0.000000001
 43
0.0000000001
 40
-0.7829651709815572
 40
-0.7829651709815572
 40
-0.7829651709815572
 40
-0.7829651709815572
 40
0.454053371517054
 40
0.454053371517054
 40
0.454053371517054
 40
0.7829651709815524
 40
0.7829651709815524
 40
0.7829651709815524
 40
0.7829651709815524
 10
241.416679475551
 20
137.219070318677
 30
0.0000000000000036
 10
242.0314045874038
 20
137.219070318677
 30
0.0
 10
242.6156575264867
 20
137.6371454281543
 30
0.0
 10
242.8133308717188
 20
138.2153383477653
 30
0.0
 10
242.8658903875639
 20
138.3690745021504
 30
0.0
 10
242.8930018532537
 20
138.5319429516603
 30
0.0
 10
242.8930018532537
 20
138.6953926761361
 30
0.0
  0
SPLINE
  5
24D
330
70
100
AcDbEntity
  8
Visible
100
AcDbSpline
210
0.0000000000000033
220
-0.000000000000001
230
1.0
 70
     8
 71
     3
 72
    11
 73
     7
 74
     0
 42
0.000000001
 43
0.0000000001
 40
-0.7829651709815572
 40
-0.7829651709815572
 40
-0.7829651709815572
 40
-0.7829651709815572
 40
0.454053371517054
 40
0.454053371517054
 40
0.454053371517054
 40
0.7829651709815524
 40
0.7829651709815524
 40
0.7829651709815524
 40
0.7829651709815524
 10
241.4166794755492
 20
137.2195671298686
 30
0.0000000000000036
 10
242.031404587402
 20
137.2195671298686
 30
0.0
 10
242.6156575264849
 20
137.6376422393441
 30
0.0
 10
242.813330871717
 20
138.2158351589551
 30
0.0
 10
242.8658903875621
 20
138.3695713133402
 30
0.0
 10
242.8930018532519
 20
138.5324397628501
 30
0.0
 10
242.8930018532519
 20
138.695889487326
 30
0.0
  0
LINE
  5
24E
330
70
100
AcDbEntity
  8
Visible
100
AcDbLine
 10
126.474055
 20
137.21907
 30
0.0
 11
241.416679
 21
137.21907
 31
0.0
210
0.0000000000005933
220
0.0
230
-1.0
  0
LINE
  5
24F
330
70
100
AcDbEntity
  8
Visible
100
AcDbLine
 10
126.474055
 20
137.219567
 30
0.0
 11
241.416679
 21
137.219567
 31
0.0
210
0.0000000000005933
220
0.0
230
-1.0
  0
SPLINE
  5
250
330
70
100
AcDbEntity
  8
Visible
100
AcDbSpline
210
0.0
220
0.0
230
1.0
 70
     8
 71
     3
 72
    11
 73
     7
 74
     0
 42
0.000000001
 43
0.0000000001
 40
-0.7829651709815795
 40
-0.7829651709815795
 40
-0.7829651709815795
 40
-0.7829651709815795
 40
0.4540533715171336
 40
0.4540533715171336
 40
0.4540533715171336
 40
0.7829651709815632
 40
0.7829651709815632
 40
0.7829651709815632
 40
0.7829651709815632
 10
124.9977322428222
 20
138.6953926761361
 30
0.0
 10
124.9977322428222
 20
138.0806675727126
 30
0.0
 10
125.4158073580311
 20
137.4964146416405
 30
0.0
 10
125.994000285571
 20
137.2987412991206
 30
0.0000000000000036
 10
126.1477364420643
 20
137.2461817839939
 30
0.0
 10
126.310604893808
 20
137.219070318677
 30
0.0000000000000036
 10
126.4740546205248
 20
137.219070318677
 30
0.0
  0
SPLINE
  5
251
330
70
100
AcDbEntity
  8
Visible
100
AcDbSpline
210
0.0
220
0.0
230
1.0
 70
     8
 71
     3
 72
    11
 73
     7
 74
     0
 42
0.000000001
 43
0.0000000001
 40
-0.7829651709815795
 40
-0.7829651709815795
 40
-0.7829651709815795
 40
-0.7829651709815795
 40
0.4540533715171336
 40
0.4540533715171336
 40
0.4540533715171336
 40
0.7829651709815632
 40
0.7829651709815632
 40
0.7829651709815632
 40
0.7829651709815632
 10
124.9977322428203
 20
138.6958894873278
 30
0.0
 10
124.9977322428203
 20
138.0811643839042
 30
0.0
 10
125.4158073580292
 20
137.4969114528321
 30
0.0
 10
125.9940002855692
 20
137.2992381103104
 30
0.0000000000000036
 10
126.1477364420625
 20
137.2466785951856
 30
0.0
 10
126.3106048938061
 20
137.2195671298686
 30
0.0000000000000036
 10
126.474054620523
 20
137.2195671298686
 30
0.0
  0
LINE
  5
252
330
70
100
AcDbEntity
  8
Visible
100
AcDbLine
 10
124.997732
 20
138.695393
 30
0.0
 11
124.997732
 21
138.695889
 31
0.0
210
0.0000000000005933
220
0.0
230
-1.0
  0
LINE
  5
253
330
70
100
AcDbEntity
  8
Visible
100
AcDbLine
 10
124.997732
 20
176.649454
 30
0.0
 11
124.997732
 21
138.695889
 31
0.0
210
0.0000000000005933
220
0.0
230
-1.0
  0
SPLINE
  5
254
330
70
100
AcDbEntity
  8
Visible
100
AcDbSpline
210
0.0000000000000049
220
-0.0000000000000055
230
1.0
 70
     8
 71
     3
 72
    11
 73
     7
 74
     0
 42
0.000000001
 43
0.0000000001
 40
2.358627482607996
 40
2.358627482607996
 40
2.358627482607996
 40
2.358627482607996
 40
3.595646025105965
 40
3.595646025105965
 40
3.595646025105965
 40
3.924557824571581
 40
3.924557824571581
 40
3.924557824571581
 40
3.924557824571581
 10
126.474054620523
 20
178.1257760103108
 30
0.0
 10
125.8593295086702
 20
178.1257760103108
 30
0.0
 10
125.2750765695873
 20
177.7077009008353
 30
0.0000000000000036
 10
125.0774032243553
 20
177.1295079812262
 30
0.0000000000000036
 10
125.0248437085101
 20
176.9757718268392
 30
0.0
 10
124.9977322428203
 20
176.8129033773293
 30
0.0
 10
124.9977322428203
 20
176.6494536528535
 30
0.0
  0
LINE
  5
255
330
70
100
AcDbEntity
  8
Visible
100
AcDbLine
 10
241.416679
 20
178.125776
 30
0.0
 11
126.474055
 21
178.125776
 31
0.0
210
0.0000000000005933
220
0.0
230
-1.0
  0
SPLINE
  5
256
330
70
100
AcDbEntity
  8
Visible
100
AcDbSpline
210
-0.0000000000000009
220
-0.0000000000000033
230
1.0
 70
     8
 71
     3
 72
    11
 73
     7
 74
     0
 42
0.000000001
 43
0.0000000001
 40
2.358627482608048
 40
2.358627482608048
 40
2.358627482608048
 40
2.358627482608048
 40
3.595646025105938
 40
3.595646025105938
 40
3.595646025105938
 40
3.924557824571545
 40
3.924557824571545
 40
3.924557824571545
 40
3.924557824571545
 10
242.8930018532519
 20
176.6494536528535
 30
0.0
 10
242.8930018532519
 20
177.2641787562752
 30
0.0
 10
242.474926738043
 20
177.8484316873473
 30
0.0000000000000036
 10
241.8967338105049
 20
178.046105029869
 30
0.0
 10
241.7429976540116
 20
178.0986645449939
 30
0.0
 10
241.5801292022679
 20
178.1257760103108
 30
0.0
 10
241.4166794755492
 20
178.1257760103108
 30
0.0000000000000036
  0
SPLINE
  5
257
330
70
100
AcDbEntity
  8
Visible
100
AcDbSpline
210
-0.0000000000016369
220
-0.0000000000030617
230
-1.0
 70
     8
 71
     3
 72
     8
 73
     4
 74
     0
 42
0.000000001
 43
0.0000000001
 40
0.0829179599752948
 40
0.0829179599752948
 40
0.0829179599752948
 40
0.0829179599752948
 40
0.0919774944194825
 40
0.0919774944194825
 40
0.0919774944194825
 40
0.0919774944194825
 10
234.8270527795758
 20
104.3658686450017
 30
0.0
 10
234.7999714557864
 20
104.3792308367174
 30
0.0000000000000036
 10
234.7700622914508
 20
104.3951769095256
 30
0.0000000000000036
 10
234.7428714145099
 20
104.4108742591361
 30
0.0
  0
SPLINE
  5
258
330
70
100
AcDbEntity
  8
Visible
100
AcDbSpline
210
-0.0000000000016369
220
0.0000000000030617
230
-1.0
 70
     8
 71
     3
 72
     8
 73
     4
 74
     0
 42
0.000000001
 43
0.0000000001
 40
0.0139843921531097
 40
0.0139843921531097
 40
0.0139843921531097
 40
0.0139843921531097
 40
0.0230439265972961
 40
0.0230439265972961
 40
0.0230439265972961
 40
0.0230439265972961
 10
236.2063714145006
 20
104.4108742591361
 30
0.0000000000000036
 10
236.1791805375597
 20
104.3951769095256
 30
0.0
 10
236.1492713732241
 20
104.3792308367174
 30
0.0
 10
236.1221900494347
 20
104.3658686450017
 30
0.0000000000000036
  0
ARC
  5
259
330
70
100
AcDbEntity
  8
Visible
100
AcDbCircle
 10
235.47413
 20
105.679051
 30
0.0
 40
1.464393807229142
100
AcDbArc
 50
300.002026
 51
303.737595
  0
ARC
  5
25A
330
70
100
AcDbEntity
  8
Visible
100
AcDbCircle
 10
-235.47467
 20
105.678303
 30
0.0
 40
1.46345188267616
210
0.0000000000005933
220
0.0
230
-1.0
100
AcDbArc
 50
180.000008
 51
183.737876
  0
LINE
  5
25B
330
70
100
AcDbEntity
  8
Visible
100
AcDbLine
 10
236.874621
 20
105.678288
 30
0.0
 11
236.174621
 21
104.465852
 31
0.0
210
0.0000000000005933
220
0.0
230
-1.0
  0
SPLINE
  5
25C
330
70
100
AcDbEntity
  8
Visible
100
AcDbSpline
210
0.0
220
0.0
230
1.0
 70
     8
 71
     3
 72
     8
 73
     4
 74
     0
 42
0.000000001
 43
0.0000000001
 40
0.0829179599752936
 40
0.0829179599752936
 40
0.0829179599752936
 40
0.0829179599752936
 40
0.0919774944194798
 40
0.0919774944194798
 40
0.0919774944194798
 40
0.0919774944194798
 10
236.9350082723467
 20
105.7737110850976
 30
0.0
 10
236.9369769366076
 20
105.7435768751929
 30
0.0000000000000036
 10
236.9381214145051
 20
105.7097010503112
 30
0.0
 10
236.9381214145051
 20
105.6783024202031
 30
0.0
  0
SPLINE
  5
25D
330
70
100
AcDbEntity
  8
Visible
100
AcDbSpline
210
0.0000000000012605
220
0.0000000000019571
230
1.0
 70
     8
 71
     3
 72
     8
 73
     4
 74
     0
 42
0.000000001
 43
0.0000000001
 40
0.0139843921531102
 40
0.0139843921531102
 40
0.0139843921531102
 40
0.0139843921531102
 40
0.0230439265972955
 40
0.0230439265972955
 40
0.0230439265972955
 40
0.0230439265972955
 10
236.2063714145097
 20
106.9457305812539
 30
0.0000000000000036
 10
236.2335622914525
 20
106.9300332316434
 30
0.0
 10
236.2623269778887
 20
106.912104864994
 30
0.0
 10
236.2874396374173
 20
106.8953328468051
 30
0.0
  0
SPLINE
  5
25E
330
70
100
AcDbEntity
  8
Visible
100
AcDbSpline
210
0.0000000000016349
220
0.0000000000030578
230
1.0
 70
     8
 71
     3
 72
     8
 73
     4
 74
     0
 42
0.000000001
 43
0.0000000001
 40
0.0829179599752923
 40
0.0829179599752923
 40
0.0829179599752923
 40
0.0829179599752923
 40
0.091977494419481
 40
0.091977494419481
 40
0.091977494419481
 40
0.091977494419481
 10
236.1221900494347
 20
106.9907397396018
 30
0.0000000000000036
 10
236.1492713732241
 20
106.9773775478861
 30
0.0
 10
236.1791805375597
 20
106.9614305514606
 30
0.0
 10
236.2063714145006
 20
106.9457305812593
 30
0.0000000000000036
  0
SPLINE
  5
25F
330
70
100
AcDbEntity
  8
Visible
100
AcDbSpline
210
0.0000000000016349
220
-0.0000000000030578
230
1.0
 70
     8
 71
     3
 72
     8
 73
     4
 74
     0
 42
0.000000001
 43
0.0000000001
 40
0.0139843921531104
 40
0.0139843921531104
 40
0.0139843921531104
 40
0.0139843921531104
 40
0.0230439265972961
 40
0.0230439265972961
 40
0.0230439265972961
 40
0.0230439265972961
 10
234.7428714145099
 20
106.9457305812593
 30
0.0
 10
234.7700622914526
 20
106.9614305514624
 30
0.0000000000000036
 10
234.7999714557864
 20
106.9773775478861
 30
0.0000000000000036
 10
234.8270527795758
 20
106.9907397396018
 30
0.0
  0
ARC
  5
260
330
70
100
AcDbEntity
  8
Visible
100
AcDbCircle
 10
235.474667
 20
105.678303
 30
0.0
 40
1.463545140347217
100
AcDbArc
 50
176.262243
 51
180.000012
  0
ARC
  5
261
330
70
100
AcDbEntity
  8
Visible
100
AcDbCircle
 10
-235.474129
 20
105.679052
 30
0.0
 40
1.462604332800373
210
0.0000000000005933
220
0.0
230
-1.0
100
AcDbArc
 50
56.261963
 51
60.00203
  0
ARC
  5
262
330
70
100
AcDbEntity
  8
Visible
100
AcDbCircle
 10
235.475113
 20
105.679051
 30
0.0
 40
1.464393807216636
100
AcDbArc
 50
236.262405
 51
239.997974
  0
LINE
  5
263
330
70
100
AcDbEntity
  8
Visible
100
AcDbLine
 10
234.774621
 20
104.465852
 30
0.0
 11
234.074621
 21
105.678288
 31
0.0
210
0.0000000000005933
220
0.0
230
-1.0
  0
ARC
  5
264
330
70
100
AcDbEntity
  8
Visible
100
AcDbCircle
 10
235.474573
 20
105.678303
 30
0.0
 40
1.463451882584199
100
AcDbArc
 50
180.000008
 51
183.737876
  0
LINE
  5
265
330
70
100
AcDbEntity
  8
Visible
100
AcDbLine
 10
234.774621
 20
106.889912
 30
0.0
 11
234.074856
 21
105.677882
 31
0.0
210
0.0000000000005933
220
0.0
230
-1.0
  0
LINE
  5
266
330
70
100
AcDbEntity
  8
Visible
100
AcDbLine
 10
234.774621
 20
106.889912
 30
0.0
 11
234.774621
 21
106.890723
 31
0.0
210
0.0000000000005933
220
0.0
230
-1.0
  0
ARC
  5
267
330
70
100
AcDbEntity
  8
Visible
100
AcDbCircle
 10
-235.474621
 20
105.677476
 30
0.0
 40
1.463499999999999
210
0.0000000000005933
220
0.0
230
-1.0
100
AcDbArc
 50
180.0
 51
0.0
  0
ARC
  5
268
330
70
100
AcDbEntity
  8
Visible
100
AcDbCircle
 10
-235.474621
 20
105.678304
 30
0.0
 40
1.463499999999999
210
0.0000000000005933
220
0.0
230
-1.0
100
AcDbArc
 50
183.737815
 51
236.262185
  0
ARC
  5
269
330
70
100
AcDbEntity
  8
Visible
100
AcDbCircle
 10
-235.474621
 20
105.678304
 30
0.0
 40
1.4635
210
0.0000000000005933
220
0.0
230
-1.0
100
AcDbArc
 50
243.737815
 51
296.262185
  0
ARC
  5
26A
330
70
100
AcDbEntity
  8
Visible
100
AcDbCircle
 10
-235.474621
 20
105.678304
 30
0.0
 40
1.463499999999999
210
0.0000000000005933
220
0.0
230
-1.0
100
AcDbArc
 50
303.737815
 51
356.262185
  0
ARC
  5
26B
330
70
100
AcDbEntity
  8
Visible
100
AcDbCircle
 10
-235.474621
 20
105.678304
 30
0.0
 40
1.4635
210
0.0000000000005933
220
0.0
230
-1.0
100
AcDbArc
 50
3.737815
 51
56.262185
  0
ARC
  5
26C
330
70
100
AcDbEntity
  8
Visible
100
AcDbCircle
 10
-235.474621
 20
105.678304
 30
0.0
 40
1.4635
210
0.0000000000005933
220
0.0
230
-1.0
100
AcDbArc
 50
63.737815
 51
116.262185
  0
ARC
  5
26D
330
70
100
AcDbEntity
  8
Visible
100
AcDbCircle
 10
-235.474621
 20
105.678304
 30
0.0
 40
1.463499999999999
210
0.0000000000005933
220
0.0
230
-1.0
100
AcDbArc
 50
123.737815
 51
176.262185
  0
LINE
  5
26E
330
70
100
AcDbEntity
  8
Visible
100
AcDbLine
 10
236.174621
 20
106.889912
 30
0.0
 11
234.774621
 21
106.889912
 31
0.0
210
0.0000000000005933
220
0.0
230
-1.0
  0
LINE
  5
26F
330
70
100
AcDbEntity
  8
Visible
100
AcDbLine
 10
236.174621
 20
106.889912
 30
0.0
 11
236.174621
 21
106.890723
 31
0.0
210
0.0000000000005933
220
0.0
230
-1.0
  0
LINE
  5
270
330
70
100
AcDbEntity
  8
Visible
100
AcDbLine
 10
236.874387
 20
105.677882
 30
0.0
 11
236.174621
 21
106.889912
 31
0.0
210
0.0000000000005933
220
0.0
230
-1.0
  0
LINE
  5
271
330
70
100
AcDbEntity
  8
Visible
100
AcDbLine
 10
236.174621
 20
104.465852
 30
0.0
 11
234.774621
 21
104.465852
 31
0.0
210
0.0000000000005933
220
0.0
230
-1.0
  0
LINE
  5
272
330
70
100
AcDbEntity
  8
Visible
100
AcDbLine
 10
236.938121
 20
105.678302
 30
0.0
 11
236.938121
 21
105.677476
 31
0.0
210
0.0000000000005933
220
0.0
230
-1.0
  0
LINE
  5
273
330
70
100
AcDbEntity
  8
Visible
100
AcDbLine
 10
234.011121
 20
105.678302
 30
0.0
 11
234.011121
 21
105.677476
 31
0.0
210
0.0000000000005933
220
0.0
230
-1.0
  0
ARC
  5
274
330
70
100
AcDbEntity
  8
Visible
100
AcDbCircle
 10
132.974573
 20
105.678303
 30
0.0
 40
1.463451882615616
100
AcDbArc
 50
180.000008
 51
183.737876
  0
ARC
  5
275
330
70
100
AcDbEntity
  8
Visible
100
AcDbCircle
 10
132.975113
 20
105.679051
 30
0.0
 40
1.464393807178011
100
AcDbArc
 50
236.262405
 51
239.997974
  0
LINE
  5
276
330
70
100
AcDbEntity
  8
Visible
100
AcDbLine
 10
132.274621
 20
104.465852
 30
0.0
 11
131.574621
 21
105.678288
 31
0.0
210
0.0000000000005933
220
0.0
230
-1.0
  0
ARC
  5
277
330
70
100
AcDbEntity
  8
Visible
100
AcDbCircle
 10
132.975
 20
105.679062
 30
0.0
 40
1.464347188825938
100
AcDbArc
 50
240.002036
 51
243.737655
  0
ARC
  5
278
330
70
100
AcDbEntity
  8
Visible
100
AcDbCircle
 10
132.974243
 20
105.679062
 30
0.0
 40
1.46434718882435
100
AcDbArc
 50
296.262345
 51
299.997964
  0
SPLINE
  5
279
330
70
100
AcDbEntity
  8
Visible
100
AcDbSpline
210
-0.000000000001262
220
0.0000000000019594
230
-1.0
 70
     8
 71
     3
 72
     8
 73
     4
 74
     0
 42
0.000000001
 43
0.0000000001
 40
0.0297706592277698
 40
0.0297706592277698
 40
0.0297706592277698
 40
0.0297706592277698
 40
0.0388301936719572
 40
0.0388301936719572
 40
0.0388301936719572
 40
0.0388301936719572
 10
133.7874396374172
 20
104.4612755377984
 30
0.0
 10
133.7623269778887
 20
104.4445035196077
 30
0.0
 10
133.7335622914506
 20
104.4265742293428
 30
0.0
 10
133.7063714145097
 20
104.4108742591415
 30
0.0000000000000036
  0
SPLINE
  5
27A
330
70
100
AcDbEntity
  8
Visible
100
AcDbSpline
210
0.0
220
0.0
230
1.0
 70
     8
 71
     3
 72
     8
 73
     4
 74
     0
 42
0.000000001
 43
0.0000000001
 40
0.0671316929006296
 40
0.0671316929006296
 40
0.0671316929006296
 40
0.0671316929006296
 40
0.076191227344817
 40
0.076191227344817
 40
0.076191227344817
 40
0.076191227344817
 10
134.4381214145051
 20
105.6783024201922
 30
0.0
 10
134.4381214145051
 20
105.646906410675
 30
0.0
 10
134.4369769366076
 20
105.6130315094105
 30
0.0000000000000036
 10
134.4350082723467
 20
105.5828972995041
 30
0.0
  0
LINE
  5
27B
330
70
100
AcDbEntity
  8
Visible
100
AcDbLine
 10
134.374621
 20
105.678288
 30
0.0
 11
133.674621
 21
104.465852
 31
0.0
210
0.0000000000005933
220
0.0
230
-1.0
  0
ARC
  5
27C
330
70
100
AcDbEntity
  8
Visible
100
AcDbCircle
 10
-132.974576
 20
105.678303
 30
0.0
 40
1.463545140404233
210
0.0000000000005933
220
0.0
230
-1.0
100
AcDbArc
 50
176.262243
 51
180.000012
  0
ARC
  5
27D
330
70
100
AcDbEntity
  8
Visible
100
AcDbCircle
 10
-132.975114
 20
105.679052
 30
0.0
 40
1.462604332742698
210
0.0000000000005933
220
0.0
230
-1.0
100
AcDbArc
 50
119.99797
 51
123.738037
  0
SPLINE
  5
27E
330
70
100
AcDbEntity
  8
Visible
100
AcDbSpline
210
0.0
220
0.0
230
1.0
 70
     8
 71
     3
 72
     8
 73
     4
 74
     0
 42
0.000000001
 43
0.0000000001
 40
0.0671316929006287
 40
0.0671316929006287
 40
0.0671316929006287
 40
0.0671316929006287
 40
0.0761912273448171
 40
0.0761912273448171
 40
0.0761912273448171
 40
0.0761912273448171
 10
132.2428714145098
 20
106.9457305812593
 30
0.0
 10
132.2700622914526
 20
106.9614305514606
 30
0.0
 10
132.2999714557863
 20
106.9773775478861
 30
0.0
 10
132.3270527795757
 20
106.9907397396018
 30
0.0
  0
SPLINE
  5
27F
330
70
100
AcDbEntity
  8
Visible
100
AcDbSpline
210
0.0000000000016349
220
0.0000000000030578
230
1.0
 70
     8
 71
     3
 72
     8
 73
     4
 74
     0
 42
0.000000001
 43
0.0000000001
 40
0.0297706592277733
 40
0.0297706592277733
 40
0.0297706592277733
 40
0.0297706592277733
 40
0.0388301936719599
 40
0.0388301936719599
 40
0.0388301936719599
 40
0.0388301936719599
 10
133.6221900494347
 20
106.9907397396018
 30
0.0000000000000036
 10
133.6492713732241
 20
106.9773775478861
 30
0.0
 10
133.6791805375596
 20
106.9614305514606
 30
0.0
 10
133.7063714145006
 20
106.9457305812593
 30
0.0000000000000036
  0
ARC
  5
280
330
70
100
AcDbEntity
  8
Visible
100
AcDbCircle
 10
132.974667
 20
105.678303
 30
0.0
 40
1.463545140379377
100
AcDbArc
 50
176.262243
 51
180.000012
  0
ARC
  5
281
330
70
100
AcDbEntity
  8
Visible
100
AcDbCircle
 10
-132.974129
 20
105.679052
 30
0.0
 40
1.462604332737311
210
0.0000000000005933
220
0.0
230
-1.0
100
AcDbArc
 50
56.261963
 51
60.00203
  0
LINE
  5
282
330
70
100
AcDbEntity
  8
Visible
100
AcDbLine
 10
132.274621
 20
106.889912
 30
0.0
 11
132.274621
 21
106.890723
 31
0.0
210
0.0000000000005933
220
0.0
230
-1.0
  0
LINE
  5
283
330
70
100
AcDbEntity
  8
Visible
100
AcDbLine
 10
133.674621
 20
106.889912
 30
0.0
 11
132.274621
 21
106.889912
 31
0.0
210
0.0000000000005933
220
0.0
230
-1.0
  0
LINE
  5
284
330
70
100
AcDbEntity
  8
Visible
100
AcDbLine
 10
133.674621
 20
106.889912
 30
0.0
 11
133.674621
 21
106.890723
 31
0.0
210
0.0000000000005933
220
0.0
230
-1.0
  0
LINE
  5
285
330
70
100
AcDbEntity
  8
Visible
100
AcDbLine
 10
132.274621
 20
106.889912
 30
0.0
 11
131.574856
 21
105.677882
 31
0.0
210
0.0000000000005933
220
0.0
230
-1.0
  0
ARC
  5
286
330
70
100
AcDbEntity
  8
Visible
100
AcDbCircle
 10
-132.974621
 20
105.678304
 30
0.0
 40
1.463499999999999
210
0.0000000000005933
220
0.0
230
-1.0
100
AcDbArc
 50
303.737815
 51
356.262185
  0
ARC
  5
287
330
70
100
AcDbEntity
  8
Visible
100
AcDbCircle
 10
-132.974621
 20
105.678304
 30
0.0
 40
1.4635
210
0.0000000000005933
220
0.0
230
-1.0
100
AcDbArc
 50
3.737815
 51
56.262185
  0
ARC
  5
288
330
70
100
AcDbEntity
  8
Visible
100
AcDbCircle
 10
-132.974621
 20
105.678304
 30
0.0
 40
1.4635
210
0.0000000000005933
220
0.0
230
-1.0
100
AcDbArc
 50
63.737815
 51
116.262185
  0
ARC
  5
289
330
70
100
AcDbEntity
  8
Visible
100
AcDbCircle
 10
-132.974621
 20
105.678304
 30
0.0
 40
1.4635
210
0.0000000000005933
220
0.0
230
-1.0
100
AcDbArc
 50
123.737815
 51
176.262185
  0
ARC
  5
28A
330
70
100
AcDbEntity
  8
Visible
100
AcDbCircle
 10
-132.974621
 20
105.678304
 30
0.0
 40
1.463499999999999
210
0.0000000000005933
220
0.0
230
-1.0
100
AcDbArc
 50
183.737815
 51
236.262185
  0
ARC
  5
28B
330
70
100
AcDbEntity
  8
Visible
100
AcDbCircle
 10
-132.974621
 20
105.678304
 30
0.0
 40
1.463499999999999
210
0.0000000000005933
220
0.0
230
-1.0
100
AcDbArc
 50
243.737815
 51
296.262185
  0
ARC
  5
28C
330
70
100
AcDbEntity
  8
Visible
100
AcDbCircle
 10
-132.974621
 20
105.677476
 30
0.0
 40
1.463499999999999
210
0.0000000000005933
220
0.0
230
-1.0
100
AcDbArc
 50
180.0
 51
0.0
  0
LINE
  5
28D
330
70
100
AcDbEntity
  8
Visible
100
AcDbLine
 10
134.374387
 20
105.677882
 30
0.0
 11
133.674621
 21
106.889912
 31
0.0
210
0.0000000000005933
220
0.0
230
-1.0
  0
LINE
  5
28E
330
70
100
AcDbEntity
  8
Visible
100
AcDbLine
 10
133.674621
 20
104.465852
 30
0.0
 11
132.274621
 21
104.465852
 31
0.0
210
0.0000000000005933
220
0.0
230
-1.0
  0
LINE
  5
28F
330
70
100
AcDbEntity
  8
Visible
100
AcDbLine
 10
131.511121
 20
105.677476
 30
0.0
 11
131.511121
 21
105.678302
 31
0.0
210
0.0000000000005933
220
0.0
230
-1.0
  0
LINE
  5
290
330
70
100
AcDbEntity
  8
Visible
100
AcDbLine
 10
134.438121
 20
105.677476
 30
0.0
 11
134.438121
 21
105.678302
 31
0.0
210
0.0000000000005933
220
0.0
230
-1.0
  0
LINE
  5
291
330
70
100
AcDbEntity
  8
Visible
100
AcDbLine
 10
318.124887
 20
181.21733
 30
0.0
 11
318.124804
 21
181.717311
 31
0.0
210
-1.0
220
-0.0000000000000002
230
-0.00000000000089
  0
LINE
  5
292
330
70
100
AcDbEntity
  8
Visible
100
AcDbLine
 10
318.124804
 20
181.717311
 30
0.0
 11
286.124759
 21
181.991272
 31
0.0
210
-1.0
220
-0.0000000000000002
230
-0.00000000000089
  0
LINE
  5
293
330
70
100
AcDbEntity
  8
Visible
100
AcDbLine
 10
286.124842
 20
181.491291
 30
0.0
 11
286.124759
 21
181.991272
 31
0.0
210
-1.0
220
-0.0000000000000002
230
-0.00000000000089
  0
LINE
  5
294
330
70
100
AcDbEntity
  8
Visible
100
AcDbLine
 10
318.124887
 20
181.21733
 30
0.0
 11
318.137977
 21
102.175407
 31
0.0
210
-1.0
220
-0.0000000000000002
230
-0.00000000000089
  0
LINE
  5
295
330
70
100
AcDbEntity
  8
Visible
100
AcDbLine
 10
318.137977
 20
102.175407
 30
0.0
 11
318.138059
 21
101.678142
 31
0.0
210
-1.0
220
-0.0000000000000002
230
-0.00000000000089
  0
LINE
  5
296
330
70
100
AcDbEntity
  8
Visible
100
AcDbLine
 10
286.13806
 20
101.672843
 30
0.0
 11
286.137978
 21
102.170108
 31
0.0
210
-1.0
220
-0.0000000000000002
230
-0.00000000000089
  0
LINE
  5
297
330
70
100
AcDbEntity
  8
Visible
100
AcDbLine
 10
318.138059
 20
101.678142
 30
0.0
 11
286.13806
 21
101.672843
 31
0.0
210
-1.0
220
-0.0000000000000002
230
-0.00000000000089
  0
LINE
  5
298
330
70
100
AcDbEntity
  8
Visible
100
AcDbLine
 10
286.124842
 20
181.491291
 30
0.0
 11
286.137978
 21
102.170108
 31
0.0
210
-1.0
220
-0.0000000000000002
230
-0.00000000000089
  0
ARC
  5
299
330
70
100
AcDbEntity
  8
Visible
100
AcDbCircle
 10
318.771436
 20
105.590092
 30
0.0
 40
0.3660467470405173
100
AcDbArc
 50
358.873709
 51
13.944401
  0
SPLINE
  5
29A
330
70
100
AcDbEntity
  8
Visible
100
AcDbSpline
210
0.0
220
0.0
230
1.0
 70
     8
 71
     3
 72
    10
 73
     6
 74
     0
 42
0.000000001
 43
0.0000000001
 40
0.0670580404032724
 40
0.0670580404032724
 40
0.0670580404032724
 40
0.0670580404032724
 40
0.0681310090352305
 40
0.0681310090352305
 40
0.0761785340845892
 40
0.0761785340845892
 40
0.0761785340845892
 40
0.0761785340845892
 10
319.1269056510642
 20
104.4108742591379
 30
0.0
 10
319.1278377026243
 20
104.4127243043822
 30
0.0
 10
319.1286966804995
 20
104.4146018785814
 30
0.0
 10
319.1354698081538
 20
104.4307529105372
 30
0.0
 10
319.1376006389607
 20
104.4463770639995
 30
0.0
 10
319.137598171718
 20
104.4612755377948
 30
0.0
  0
ARC
  5
29B
330
70
100
AcDbEntity
  8
Visible
100
AcDbCircle
 10
319.03762
 20
104.365853
 30
0.0
 40
0.0999944508531055
100
AcDbArc
 50
0.008732
 51
26.758668
  0
SPLINE
  5
29C
330
70
100
AcDbEntity
  8
Visible
100
AcDbSpline
210
0.0
220
0.0
230
1.0
 70
     8
 71
     3
 72
     8
 73
     4
 74
     0
 42
0.000000001
 43
0.0000000001
 40
0.0671316929006287
 40
0.0671316929006287
 40
0.0671316929006287
 40
0.0671316929006287
 40
0.0761912273448171
 40
0.0761912273448171
 40
0.0761912273448171
 40
0.0761912273448171
 10
319.1264858693957
 20
106.9457305812557
 30
0.0
 10
319.1343955039126
 20
106.9614305514569
 30
0.0
 10
319.1371814958336
 20
106.9773775478825
 30
0.0
 10
319.137179283005
 20
106.9907397395982
 30
0.0
  0
ARC
  5
29D
330
70
100
AcDbEntity
  8
Visible
100
AcDbCircle
 10
318.771407
 20
105.766395
 30
0.0
 40
0.3660467470409896
100
AcDbArc
 50
346.074576
 51
1.145268
  0
SPLINE
  5
29E
330
70
100
AcDbEntity
  8
Visible
100
AcDbSpline
210
0.0
220
0.0
230
1.0
 70
     8
 71
     3
 72
    10
 73
     6
 74
     0
 42
0.000000001
 43
0.0000000001
 40
0.0297833524879972
 40
0.0297833524879972
 40
0.0297833524879972
 40
0.0297833524879972
 40
0.0378308775373564
 40
0.0378308775373564
 40
0.0389038461693139
 40
0.0389038461693139
 40
0.0389038461693139
 40
0.0389038461693139
 10
319.1371950827424
 20
106.8953328468014
 30
0.0
 10
319.1371926154993
 20
106.9102313205967
 30
0.0
 10
319.1350566099732
 20
106.9258547674526
 30
0.0
 10
319.1282781333481
 20
106.942003555212
 30
0.0
 10
319.1274185336535
 20
106.9438808448103
 30
0.0
 10
319.1264858693957
 20
106.9457305812502
 30
0.0
  0
LINE
  5
29F
330
70
100
AcDbEntity
  8
Visible
100
AcDbLine
 10
319.137412
 20
105.582897
 30
0.0
 11
319.137598
 21
104.461276
 31
0.0
210
-1.0
220
-0.0000000000000002
230
-0.00000000000089
  0
LINE
  5
2A0
330
70
100
AcDbEntity
  8
Visible
100
AcDbLine
 10
319.137195
 20
106.895333
 30
0.0
 11
319.137381
 21
105.773711
 31
0.0
210
-1.0
220
-0.0000000000000002
230
-0.00000000000089
  0
LINE
  5
2A1
330
70
100
AcDbEntity
  8
Visible
100
AcDbLine
 10
319.137154
 20
107.141804
 30
0.0
 11
319.137179
 21
106.99074
 31
0.0
210
-1.0
220
-0.0000000000000002
230
-0.00000000000089
  0
LINE
  5
2A2
330
70
100
AcDbEntity
  8
Visible
100
AcDbLine
 10
319.137614
 20
104.365869
 30
0.0
 11
319.137639
 21
104.214804
 31
0.0
210
-1.0
220
-0.0000000000000002
230
-0.00000000000089
  0
LINE
  5
2A3
330
70
100
AcDbEntity
  8
Visible
100
AcDbLine
 10
318.137155
 20
107.141639
 30
0.0
 11
319.137154
 21
107.141804
 31
0.0
210
-1.0
220
-0.0000000000000002
230
-0.00000000000089
  0
LINE
  5
2A4
330
70
100
AcDbEntity
  8
Visible
100
AcDbLine
 10
318.137639
 20
104.214639
 30
0.0
 11
319.137639
 21
104.214804
 31
0.0
210
-1.0
220
-0.0000000000000002
230
-0.00000000000089
  0
ENDSEC
  0
SECTION
  2
OBJECTS
  0
DICTIONARY
  5
C
330
0
100
AcDbDictionary
281
     1
  3
ACAD_COLOR
350
63
  3
ACAD_DETAILVIEWSTYLE
350
6A
  3
ACAD_GROUP
350
D
  3
ACAD_LAYOUT
350
62
  3
ACAD_MATERIAL
350
10
  3
ACAD_MLEADERSTYLE
350
66
  3
ACAD_MLINESTYLE
350
5F
  3
ACAD_PLOTSETTINGS
350
61
  3
ACAD_PLOTSTYLENAME
350
E
  3
ACAD_SCALELIST
350
42
  3
ACAD_SECTIONVIEWSTYLE
350
68
  3
ACAD_TABLESTYLE
350
64
  3
ACAD_VISUALSTYLE
350
29
  3
ACDB_RECOMPOSE_DATA
350
2E5
  3
AcDbVariableDictionary
350
2DC
  0
DICTIONARY
  5
A4
330
70
100
AcDbDictionary
280
     1
281
     1
  3
ACAD_SORTENTS
360
A5
  0
DICTIONARY
  5
63
102
{ACAD_REACTORS
330
C
102
}
330
C
100
AcDbDictionary
281
     1
  0
DICTIONARY
  5
6A
102
{ACAD_REACTORS
330
C
102
}
330
C
100
AcDbDictionary
281
     1
  3
Imperial24
350
6B
  0
DICTIONARY
  5
D
102
{ACAD_REACTORS
330
C
102
}
330
C
100
AcDbDictionary
281
     1
  0
DICTIONARY
  5
62
102
{ACAD_REACTORS
330
C
102
}
330
C
100
AcDbDictionary
281
     1
  3
Foglio1
350
6F
  3
Foglio2
350
77
  3
Model
350
73
  0
DICTIONARY
  5
10
102
{ACAD_REACTORS
330
C
102
}
330
C
100
AcDbDictionary
281
     1
  3
ByBlock
350
19
  3
ByLayer
350
11
  3
Global
350
21
  0
DICTIONARY
  5
66
102
{ACAD_REACTORS
330
C
102
}
330
C
100
AcDbDictionary
281
     1
  3
Standard
350
67
  0
DICTIONARY
  5
5F
102
{ACAD_REACTORS
330
C
102
}
330
C
100
AcDbDictionary
281
     1
  3
Standard
350
60
  0
DICTIONARY
  5
61
102
{ACAD_REACTORS
330
C
102
}
330
C
100
AcDbDictionary
281
     1
  0
ACDBDICTIONARYWDFLT
  5
E
102
{ACAD_REACTORS
330
C
102
}
330
C
100
AcDbDictionary
281
     1
  3
Normal
350
F
100
AcDbDictionaryWithDefault
340
F
  0
DICTIONARY
  5
42
102
{ACAD_REACTORS
330
C
102
}
330
C
100
AcDbDictionary
281
     1
  3
A0
350
43
  3
A1
350
44
  3
A2
350
45
  3
A3
350
46
  3
A4
350
47
  3
A5
350
48
  3
A6
350
49
  3
A7
350
4A
  3
A8
350
4B
  3
A9
350
4C
  3
B0
350
4D
  3
B1
350
4E
  3
B2
350
4F
  3
B3
350
50
  3
B4
350
51
  3
B5
350
52
  3
B6
350
53
  0
DICTIONARY
  5
68
102
{ACAD_REACTORS
330
C
102
}
330
C
100
AcDbDictionary
281
     1
  3
Imperial24
350
69
  0
DICTIONARY
  5
64
102
{ACAD_REACTORS
330
C
102
}
330
C
100
AcDbDictionary
281
     1
  3
Standard
350
65
  0
DICTIONARY
  5
29
102
{ACAD_REACTORS
330
C
102
}
330
C
100
AcDbDictionary
281
     1
  3
2dWireframe
350
2F
  3
Basic
350
2E
  3
Brighten
350
35
  3
ColorChange
350
39
  3
Conceptual
350
32
  3
Dim
350
34
  3
EdgeColorOff
350
41
  3
Facepattern
350
38
  3
Flat
350
2A
  3
FlatWithEdges
350
2B
  3
Gouraud
350
2C
  3
GouraudWithEdges
350
2D
  3
Hidden
350
31
  3
JitterOff
350
3F
  3
Linepattern
350
37
  3
OverhangOff
350
40
  3
Realistic
350
33
  3
Shaded
350
3E
  3
Shaded with edges
350
3D
  3
Shades of Gray
350
3A
  3
Sketchy
350
3B
  3
Thicken
350
36
  3
Wireframe
350
30
  3
X-Ray
350
3C
  0
XRECORD
  5
2E5
102
{ACAD_REACTORS
330
C
102
}
330
C
100
AcDbXrecord
280
     1
 90
        1
330
65
  0
DICTIONARY
  5
2DC
102
{ACAD_REACTORS
330
C
102
}
330
C
100
AcDbDictionary
281
     1
  3
ANNOALLVISIBLE
350
2E1
  3
CANNOSCALE
350
2E2
  3
CMLEADERSTYLE
350
2DE
  3
CTABLESTYLE
350
2DD
  3
CVIEWDETAILSTYLE
350
2DF
  3
CVIEWSECTIONSTYLE
350
2E0
  0
SORTENTSTABLE
  5
A5
102
{ACAD_REACTORS
330
A4
102
}
330
A4
100
AcDbSortentsTable
330
70
  0
ACDBDETAILVIEWSTYLE
  5
6B
102
{ACAD_XDICTIONARY
360
2E8
102
}
102
{ACAD_REACTORS
330
6A
102
}
330
6A
100
AcDbModelDocViewStyle
 70
     0
  3
Imperial24
290
     0
100
AcDbDetailViewStyle
 70
     0
 71
     0
 90
        3
 71
     1
340
55
 62
   256
 40
0.24
340
0
 62
   256
 40
0.24
300

 40
0.36
280
     3
 71
     2
340
5D
 90
       25
 62
   256
 71
     3
340
55
 62
   256
 40
0.24
 90
        1
 40
0.75
 90
        1
300
%<\AcVar ViewType \f "%tc1">% %<\AcVar ViewDetailId>%\PSCALA %<\AcVar ViewScale \f "%sn">%
 71
     4
340
5D
 90
       25
 62
   256
340
5D
 90
       25
 62
   256
280
     0
  0
LAYOUT
  5
6F
102
{ACAD_REACTORS
330
62
102
}
330
62
100
AcDbPlotSettings
  1

  2
None
  4

  6

 40
0.0
 41
0.0
 42
0.0
 43
0.0
 44
0.0
 45
0.0
 46
0.0
 47
0.0
 48
0.0
 49
0.0
140
0.0
141
0.0
142
1.0
143
1.0
 70
   688
 72
     0
 73
     0
 74
     5
  7

 75
    16
147
1.0
 76
     0
 77
     2
 78
   300
148
0.0
149
0.0
100
AcDbLayout
  1
Foglio1
 70
     1
 71
     1
 10
0.0
 20
0.0
 11
12.0
 21
9.0
 12
0.0
 22
0.0
 32
0.0
 14
0.0
 24
0.0
 34
0.0
 15
0.0
 25
0.0
 35
0.0
146
0.0
 13
0.0
 23
0.0
 33
0.0
 16
1.0
 26
0.0
 36
0.0
 17
0.0
 27
1.0
 37
0.0
 76
     0
330
6C
  0
LAYOUT
  5
77
102
{ACAD_REACTORS
330
62
102
}
330
62
100
AcDbPlotSettings
  1

  2
None
  4

  6

 40
0.0
 41
0.0
 42
0.0
 43
0.0
 44
0.0
 45
0.0
 46
0.0
 47
0.0
 48
0.0
 49
0.0
140
0.0
141
0.0
142
1.0
143
1.0
 70
   688
 72
     0
 73
     0
 74
     5
  7

 75
    16
147
1.0
 76
     0
 77
     2
 78
   300
148
0.0
149
0.0
100
AcDbLayout
  1
Foglio2
 70
     1
 71
     2
 10
0.0
 20
0.0
 11
12.0
 21
9.0
 12
0.0
 22
0.0
 32
0.0
 14
0.0
 24
0.0
 34
0.0
 15
0.0
 25
0.0
 35
0.0
146
0.0
 13
0.0
 23
0.0
 33
0.0
 16
1.0
 26
0.0
 36
0.0
 17
0.0
 27
1.0
 37
0.0
 76
     0
330
74
  0
LAYOUT
  5
73
102
{ACAD_REACTORS
330
62
102
}
330
62
100
AcDbPlotSettings
  1

  2
AutoCAD PDF (High Quality Print).pc3
  4
ISO_full_bleed_A3_(420.00_x_297.00_MM)
  6

 40
0.0
 41
0.0
 42
0.0
 43
0.0
 44
420.0
 45
297.0
 46
0.0
 47
0.0
 48
0.0
 49
0.0
140
0.0
141
0.0
142
1.0
143
1.615635
 70
 11952
 72
     1
 73
     0
 74
     0
  7

 75
     0
147
0.618952
 76
     0
 77
     2
 78
   300
148
132.144051
149
106.643665
100
AcDbLayout
  1
Model
 70
     1
 71
     0
 10
0.0
 20
0.0
 11
12.0
 21
9.0
 12
0.0
 22
0.0
 32
0.0
 14
0.0
 24
0.0
 34
0.0
 15
0.0
 25
0.0
 35
0.0
146
0.0
 13
0.0
 23
0.0
 33
0.0
 16
1.0
 26
0.0
 36
0.0
 17
0.0
 27
1.0
 37
0.0
 76
     0
330
70
1001
ACAD_PSEXT
1000
AutoCAD PDF (High Quality Print).pc3
1000
DWG To PDF
1000
File
1000

1070
     0
  0
MATERIAL
  5
19
102
{ACAD_XDICTIONARY
360
1A
102
}
102
{ACAD_REACTORS
330
10
102
}
330
10
100
AcDbMaterial
  1
ByBlock
 72
     0
 43
0.020833
 43
0.0
 43
0.0
 43
0.0
 43
0.0
 43
0.020833
 43
0.0
 43
0.0
 43
0.0
 43
0.0
 43
1.0
 43
0.0
 43
0.0
 43
0.0
 43
0.0
 43
1.0
 77
     0
 47
0.020833
 47
0.0
 47
0.0
 47
0.0
 47
0.0
 47
0.020833
 47
0.0
 47
0.0
 47
0.0
 47
0.0
 47
1.0
 47
0.0
 47
0.0
 47
0.0
 47
0.0
 47
1.0
171
     0
 49
0.020833
 49
0.0
 49
0.0
 49
0.0
 49
0.0
 49
0.020833
 49
0.0
 49
0.0
 49
0.0
 49
0.0
 49
1.0
 49
0.0
 49
0.0
 49
0.0
 49
0.0
 49
1.0
175
     0
142
0.020833
142
0.0
142
0.0
142
0.0
142
0.0
142
0.020833
142
0.0
142
0.0
142
0.0
142
0.0
142
1.0
142
0.0
142
0.0
142
0.0
142
0.0
142
1.0
179
     0
144
0.020833
144
0.0
144
0.0
144
0.0
144
0.0
144
0.020833
144
0.0
144
0.0
144
0.0
144
0.0
144
1.0
144
0.0
144
0.0
144
0.0
144
0.0
144
1.0
147
0.020833
147
0.0
147
0.0
147
0.0
147
0.0
147
0.020833
147
0.0
147
0.0
147
0.0
147
0.0
147
1.0
147
0.0
147
0.0
147
0.0
147
0.0
147
1.0
  0
MATERIAL
  5
11
102
{ACAD_XDICTIONARY
360
12
102
}
102
{ACAD_REACTORS
330
10
102
}
330
10
100
AcDbMaterial
  1
ByLayer
 72
     0
 43
0.020833
 43
0.0
 43
0.0
 43
0.0
 43
0.0
 43
0.020833
 43
0.0
 43
0.0
 43
0.0
 43
0.0
 43
1.0
 43
0.0
 43
0.0
 43
0.0
 43
0.0
 43
1.0
 77
     0
 47
0.020833
 47
0.0
 47
0.0
 47
0.0
 47
0.0
 47
0.020833
 47
0.0
 47
0.0
 47
0.0
 47
0.0
 47
1.0
 47
0.0
 47
0.0
 47
0.0
 47
0.0
 47
1.0
171
     0
 49
0.020833
 49
0.0
 49
0.0
 49
0.0
 49
0.0
 49
0.020833
 49
0.0
 49
0.0
 49
0.0
 49
0.0
 49
1.0
 49
0.0
 49
0.0
 49
0.0
 49
0.0
 49
1.0
175
     0
142
0.020833
142
0.0
142
0.0
142
0.0
142
0.0
142
0.020833
142
0.0
142
0.0
142
0.0
142
0.0
142
1.0
142
0.0
142
0.0
142
0.0
142
0.0
142
1.0
179
     0
144
0.020833
144
0.0
144
0.0
144
0.0
144
0.0
144
0.020833
144
0.0
144
0.0
144
0.0
144
0.0
144
1.0
144
0.0
144
0.0
144
0.0
144
0.0
144
1.0
147
0.020833
147
0.0
147
0.0
147
0.0
147
0.0
147
0.020833
147
0.0
147
0.0
147
0.0
147
0.0
147
1.0
147
0.0
147
0.0
147
0.0
147
0.0
147
1.0
  0
MATERIAL
  5
21
102
{ACAD_XDICTIONARY
360
22
102
}
102
{ACAD_REACTORS
330
10
102
}
330
10
100
AcDbMaterial
  1
Global
 72
     0
 43
0.020833
 43
0.0
 43
0.0
 43
0.0
 43
0.0
 43
0.020833
 43
0.0
 43
0.0
 43
0.0
 43
0.0
 43
1.0
 43
0.0
 43
0.0
 43
0.0
 43
0.0
 43
1.0
 77
     0
 47
0.020833
 47
0.0
 47
0.0
 47
0.0
 47
0.0
 47
0.020833
 47
0.0
 47
0.0
 47
0.0
 47
0.0
 47
1.0
 47
0.0
 47
0.0
 47
0.0
 47
0.0
 47
1.0
171
     0
 49
0.020833
 49
0.0
 49
0.0
 49
0.0
 49
0.0
 49
0.020833
 49
0.0
 49
0.0
 49
0.0
 49
0.0
 49
1.0
 49
0.0
 49
0.0
 49
0.0
 49
0.0
 49
1.0
175
     0
142
0.020833
142
0.0
142
0.0
142
0.0
142
0.0
142
0.020833
142
0.0
142
0.0
142
0.0
142
0.0
142
1.0
142
0.0
142
0.0
142
0.0
142
0.0
142
1.0
179
     0
144
0.020833
144
0.0
144
0.0
144
0.0
144
0.0
144
0.020833
144
0.0
144
0.0
144
0.0
144
0.0
144
1.0
144
0.0
144
0.0
144
0.0
144
0.0
144
1.0
147
0.020833
147
0.0
147
0.0
147
0.0
147
0.0
147
0.020833
147
0.0
147
0.0
147
0.0
147
0.0
147
1.0
147
0.0
147
0.0
147
0.0
147
0.0
147
1.0
  0
MLEADERSTYLE
  5
67
102
{ACAD_REACTORS
330
66
102
}
330
66
100
AcDbMLeaderStyle
179
     2
170
     2
171
     1
172
     0
 90
        2
 40
0.0
 41
0.0
173
     1
 91
-1056964608
340
5B
 92
       -2
290
     1
 42
0.09
291
     1
 43
0.36
  3
Standard
 44
0.18
300

342
55
174
     1
178
     6
175
     1
176
     0
 93
-1056964608
 45
0.18
292
     0
297
     0
 46
0.18
 94
-1056964608
 47
1.0
 49
1.0
140
1.0
293
     1
141
0.0
294
     1
177
     0
142
1.0
295
     0
296
     0
143
0.125
271
     0
272
     9
273
     9
298
     1
  0
MLINESTYLE
  5
60
102
{ACAD_REACTORS
330
5F
102
}
330
5F
100
AcDbMlineStyle
  2
STANDARD
 70
     0
  3

 62
   256
 51
90.0
 52
90.0
 71
     0
  0
ACDBPLACEHOLDER
  5
F
102
{ACAD_REACTORS
330
E
102
}
330
E
  0
SCALE
  5
43
102
{ACAD_REACTORS
330
42
102
}
330
42
100
AcDbScale
 70
     0
300
1:1
140
1.0
141
1.0
290
     1
  0
SCALE
  5
44
102
{ACAD_REACTORS
330
42
102
}
330
42
100
AcDbScale
 70
     0
300
1:2
140
1.0
141
2.0
290
     0
  0
SCALE
  5
45
102
{ACAD_REACTORS
330
42
102
}
330
42
100
AcDbScale
 70
     0
300
1:4
140
1.0
141
4.0
290
     0
  0
SCALE
  5
46
102
{ACAD_REACTORS
330
42
102
}
330
42
100
AcDbScale
 70
     0
300
1:5
140
1.0
141
5.0
290
     0
  0
SCALE
  5
47
102
{ACAD_REACTORS
330
42
102
}
330
42
100
AcDbScale
 70
     0
300
1:8
140
1.0
141
8.0
290
     0
  0
SCALE
  5
48
102
{ACAD_REACTORS
330
42
102
}
330
42
100
AcDbScale
 70
     0
300
1:10
140
1.0
141
10.0
290
     0
  0
SCALE
  5
49
102
{ACAD_REACTORS
330
42
102
}
330
42
100
AcDbScale
 70
     0
300
1:16
140
1.0
141
16.0
290
     0
  0
SCALE
  5
4A
102
{ACAD_REACTORS
330
42
102
}
330
42
100
AcDbScale
 70
     0
300
1:20
140
1.0
141
20.0
290
     0
  0
SCALE
  5
4B
102
{ACAD_REACTORS
330
42
102
}
330
42
100
AcDbScale
 70
     0
300
1:30
140
1.0
141
30.0
290
     0
  0
SCALE
  5
4C
102
{ACAD_REACTORS
330
42
102
}
330
42
100
AcDbScale
 70
     0
300
1:40
140
1.0
141
40.0
290
     0
  0
SCALE
  5
4D
102
{ACAD_REACTORS
330
42
102
}
330
42
100
AcDbScale
 70
     0
300
1:50
140
1.0
141
50.0
290
     0
  0
SCALE
  5
4E
102
{ACAD_REACTORS
330
42
102
}
330
42
100
AcDbScale
 70
     0
300
1:100
140
1.0
141
100.0
290
     0
  0
SCALE
  5
4F
102
{ACAD_REACTORS
330
42
102
}
330
42
100
AcDbScale
 70
     0
300
2:1
140
2.0
141
1.0
290
     0
  0
SCALE
  5
50
102
{ACAD_REACTORS
330
42
102
}
330
42
100
AcDbScale
 70
     0
300
4:1
140
4.0
141
1.0
290
     0
  0
SCALE
  5
51
102
{ACAD_REACTORS
330
42
102
}
330
42
100
AcDbScale
 70
     0
300
8:1
140
8.0
141
1.0
290
     0
  0
SCALE
  5
52
102
{ACAD_REACTORS
330
42
102
}
330
42
100
AcDbScale
 70
     0
300
10:1
140
10.0
141
1.0
290
     0
  0
SCALE
  5
53
102
{ACAD_REACTORS
330
42
102
}
330
42
100
AcDbScale
 70
     0
300
100:1
140
100.0
141
1.0
290
     0
  0
ACDBSECTIONVIEWSTYLE
  5
69
102
{ACAD_XDICTIONARY
360
2E6
102
}
102
{ACAD_REACTORS
330
68
102
}
330
68
100
AcDbModelDocViewStyle
 70
     0
  3
Imperial24
290
     0
100
AcDbSectionViewStyle
 70
     0
 71
     0
 90
       78
 71
     1
340
55
 62
   256
 40
0.24
340
0
340
0
 62
   256
 40
0.24
300
I, O, Q, S, X, Z
 40
0.48
 90
        3
 40
0.18
 90
        1
 71
     2
340
5D
 90
       25
 62
   256
340
5D
 90
       50
 62
   256
 40
0.24
 40
0.0
 40
0.24
 71
     3
340
55
 62
   256
 40
0.24
 90
        1
 40
0.75
 90
        1
300
%<\AcVar ViewType \f "%tc1">% %<\AcVar ViewSectionStartId>%-%<\AcVar ViewSectionEndId>%\PSCALA %<\AcVar ViewScale \f "%sn">%
 71
     4
 62
   256
 62
   257
300
ANSI31
 40
1.0
 90
        0
290
     0
290
     0
 90
        6
 40
0.0
 40
1.570796
 40
0.261799
 40
1.308997
 40
-0.261799
 40
1.832596
  0
TABLESTYLE
  5
65
102
{ACAD_XDICTIONARY
360
2E3
102
}
102
{ACAD_REACTORS
330
64
102
}
330
64
100
AcDbTableStyle
280
     0
  3
Standard
 70
     0
 71
     0
 40
1.5
 41
1.5
280
     0
281
     0
  7
Standard
140
0.18
170
     2
 62
     0
 63
     7
283
     0
 90
      512
 91
        0
  1

274
    -2
284
     1
 64
     0
275
    -2
285
     1
 65
     0
276
    -2
286
     1
 66
     0
277
    -2
287
     1
 67
     0
278
    -2
288
     1
 68
     0
279
    -2
289
     1
 69
     0
  7
Standard
140
0.25
170
     5
 62
     0
 63
     7
283
     0
 90
      512
 91
        0
  1

274
    -2
284
     1
 64
     0
275
    -2
285
     1
 65
     0
276
    -2
286
     1
 66
     0
277
    -2
287
     1
 67
     0
278
    -2
288
     1
 68
     0
279
    -2
289
     1
 69
     0
  7
Standard
140
0.18
170
     5
 62
     0
 63
     7
283
     0
 90
      512
 91
        0
  1

274
    -2
284
     1
 64
     0
275
    -2
285
     1
 65
     0
276
    -2
286
     1
 66
     0
277
    -2
287
     1
 67
     0
278
    -2
288
     1
 68
     0
279
    -2
289
     1
 69
     0
  0
VISUALSTYLE
  5
2F
102
{ACAD_REACTORS
330
29
102
}
330
29
100
AcDbVisualStyle
  2
2dWireframe
 70
     4
177
     3
291
     0
 70
    58
 90
        0
176
     1
 90
        2
176
     1
 90
        0
176
     1
 90
        0
176
     1
 40
0.6
176
     1
 40
30.0
176
     1
 62
     7
420
 16777215
176
     1
 90
        1
176
     1
 90
        4
176
     1
 62
     7
176
     1
 62
   257
176
     1
 90
        1
176
     1
 90
        1
176
     1
 40
1.0
176
     1
 90
        0
176
     1
 62
   257
176
     1
 40
1.0
176
     1
 90
        1
176
     1
 90
        6
176
     1
 90
        2
176
     1
 62
     7
176
     1
 90
        5
176
     1
 90
        0
176
     1
 90
        0
176
     1
290
     0
176
     1
 90
        1
176
     1
 40
0.0
176
     1
 90
        0
176
     1
290
     1
176
     1
290
     1
176
     1
290
     0
176
     1
290
     0
176
     1
290
     0
176
     1
290
     0
176
     1
290
     0
176
     1
290
     0
176
     1
290
     0
176
     1
 90
       50
176
     1
 40
0.0
176
     1
 40
1.0
176
     1
 90
        0
176
     1
 62
    18
420
        0
176
     1
 90
       50
176
     1
 90
        3
176
     1
 62
     5
420
      255
176
     1
290
     0
176
     1
 90
       50
176
     1
 90
       50
176
     1
 90
       50
176
     1
290
     0
176
     1
 90
       50
176
     1
 62
   256
176
     0
 40
1.0
176
     0
 90
        2
176
     1
  1
strokes_ogs.tif
176
     1
290
     0
176
     1
 40
1.0
176
     1
 40
1.0
176
     1
1001
ACAD
1000
AcDbSavedByObjectVersion
1070
     0
  0
VISUALSTYLE
  5
2E
102
{ACAD_REACTORS
330
29
102
}
330
29
100
AcDbVisualStyle
  2
Basic
 70
     7
177
     3
291
     1
 70
    58
 90
        1
176
     1
 90
        0
176
     1
 90
        1
176
     1
 90
        0
176
     1
 40
0.6
176
     1
 40
30.0
176
     1
 62
     7
420
 16777215
176
     1
 90
        0
176
     1
 90
        4
176
     1
 62
     7
176
     1
 62
   257
176
     1
 90
        1
176
     1
 90
        1
176
     1
 40
1.0
176
     1
 90
        8
176
     1
 62
     7
176
     1
 40
1.0
176
     1
 90
        1
176
     1
 90
        6
176
     1
 90
        2
176
     1
 62
     7
176
     1
 90
        5
176
     1
 90
        0
176
     1
 90
        0
176
     1
290
     0
176
     1
 90
        1
176
     1
 40
0.0
176
     1
 90
        0
176
     1
290
     0
176
     1
290
     1
176
     1
290
     1
176
     1
290
     0
176
     1
290
     0
176
     1
290
     0
176
     1
290
     0
176
     1
290
     0
176
     1
290
     0
176
     1
 90
       50
176
     1
 40
0.0
176
     1
 40
1.0
176
     1
 90
        0
176
     1
 62
    18
420
        0
176
     1
 90
       50
176
     1
 90
        3
176
     1
 62
     5
420
      255
176
     1
290
     0
176
     1
 90
       50
176
     1
 90
       50
176
     1
 90
       50
176
     1
290
     0
176
     1
 90
       50
176
     1
 62
   256
176
     0
 40
1.0
176
     0
 90
        2
176
     1
  1
strokes_ogs.tif
176
     1
290
     0
176
     1
 40
1.0
176
     1
 40
1.0
176
     1
1001
ACAD
1000
AcDbSavedByObjectVersion
1070
     0
  0
VISUALSTYLE
  5
35
102
{ACAD_REACTORS
330
29
102
}
330
29
100
AcDbVisualStyle
  2
Brighten
 70
    12
177
     3
291
     1
 70
    58
 90
        2
176
     1
 90
        2
176
     1
 90
        0
176
     1
 90
        0
176
     1
 40
0.6
176
     1
 40
30.0
176
     1
 62
     7
420
 16777215
176
     1
 90
        1
176
     1
 90
        4
176
     1
 62
     7
176
     1
 62
   257
176
     1
 90
        1
176
     1
 90
        1
176
     1
 40
1.0
176
     1
 90
        8
176
     1
 62
     7
176
     1
 40
1.0
176
     1
 90
        1
176
     1
 90
        6
176
     1
 90
        2
176
     1
 62
     7
176
     1
 90
        5
176
     1
 90
        0
176
     1
 90
        0
176
     1
290
     0
176
     1
 90
        1
176
     1
 40
50.0
176
     1
 90
        0
176
     1
290
     0
176
     1
290
     1
176
     1
290
     1
176
     1
290
     0
176
     1
290
     0
176
     1
290
     0
176
     1
290
     0
176
     1
290
     0
176
     1
290
     0
176
     1
 90
       50
176
     1
 40
0.0
176
     1
 40
1.0
176
     1
 90
        0
176
     1
 62
    18
420
        0
176
     1
 90
       50
176
     1
 90
        3
176
     1
 62
     5
420
      255
176
     1
290
     0
176
     1
 90
       50
176
     1
 90
       50
176
     1
 90
       50
176
     1
290
     0
176
     1
 90
       50
176
     1
 62
   256
176
     0
 40
1.0
176
     0
 90
        2
176
     1
  1
strokes_ogs.tif
176
     1
290
     0
176
     1
 40
1.0
176
     1
 40
1.0
176
     1
1001
ACAD
1000
AcDbSavedByObjectVersion
1070
     0
  0
VISUALSTYLE
  5
39
102
{ACAD_REACTORS
330
29
102
}
330
29
100
AcDbVisualStyle
  2
ColorChange
 70
    16
177
     3
291
     1
 70
    58
 90
        2
176
     1
 90
        2
176
     1
 90
        3
176
     1
 90
        0
176
     1
 40
0.6
176
     1
 40
30.0
176
     1
 62
     8
420
  8421504
176
     1
 90
        1
176
     1
 90
        4
176
     1
 62
     7
176
     1
 62
   257
176
     1
 90
        1
176
     1
 90
        1
176
     1
 40
1.0
176
     1
 90
        8
176
     1
 62
     8
420
  8421504
176
     1
 40
1.0
176
     1
 90
        1
176
     1
 90
        6
176
     1
 90
        2
176
     1
 62
     7
176
     1
 90
        5
176
     1
 90
        0
176
     1
 90
        0
176
     1
290
     0
176
     1
 90
        1
176
     1
 40
0.0
176
     1
 90
        0
176
     1
290
     0
176
     1
290
     1
176
     1
290
     1
176
     1
290
     0
176
     1
290
     0
176
     1
290
     0
176
     1
290
     0
176
     1
290
     0
176
     1
290
     0
176
     1
 90
       50
176
     1
 40
0.0
176
     1
 40
1.0
176
     1
 90
        0
176
     1
 62
    18
420
        0
176
     1
 90
       50
176
     1
 90
        3
176
     1
 62
     5
420
      255
176
     1
290
     0
176
     1
 90
       50
176
     1
 90
       50
176
     1
 90
       50
176
     1
290
     0
176
     1
 90
       50
176
     1
 62
   256
176
     0
 40
1.0
176
     0
 90
        2
176
     1
  1
strokes_ogs.tif
176
     1
290
     0
176
     1
 40
1.0
176
     1
 40
1.0
176
     1
1001
ACAD
1000
AcDbSavedByObjectVersion
1070
     0
  0
VISUALSTYLE
  5
32
102
{ACAD_REACTORS
330
29
102
}
330
29
100
AcDbVisualStyle
  2
Conceptual
 70
     9
177
     3
291
     0
 70
    58
 90
        3
176
     1
 90
        2
176
     1
 90
        0
176
     1
 90
        0
176
     1
 40
0.6
176
     1
 40
30.0
176
     1
 62
     7
420
 16777215
176
     1
 90
        2
176
     1
 90
        2
176
     1
 62
     7
176
     1
 62
   257
176
     1
 90
        1
176
     1
 90
        1
176
     1
 40
179.0
176
     1
 90
        8
176
     1
 62
     7
176
     1
 40
1.0
176
     1
 90
        1
176
     1
 90
        6
176
     1
 90
        2
176
     1
 62
     7
176
     1
 90
        3
176
     1
 90
        0
176
     1
 90
        0
176
     1
290
     0
176
     1
 90
        1
176
     1
 40
0.0
176
     1
 90
        0
176
     1
290
     0
176
     1
290
     1
176
     1
290
     1
176
     1
290
     0
176
     1
290
     0
176
     1
290
     0
176
     1
290
     0
176
     1
290
     0
176
     1
290
     0
176
     1
 90
       50
176
     1
 40
0.0
176
     1
 40
1.0
176
     1
 90
        0
176
     1
 62
    18
420
        0
176
     1
 90
       50
176
     1
 90
        3
176
     1
 62
     5
420
      255
176
     1
290
     0
176
     1
 90
       50
176
     1
 90
       50
176
     1
 90
       50
176
     1
290
     0
176
     1
 90
       50
176
     1
 62
   256
176
     0
 40
1.0
176
     0
 90
        2
176
     1
  1
strokes_ogs.tif
176
     1
290
     0
176
     1
 40
1.0
176
     1
 40
1.0
176
     1
1001
ACAD
1000
AcDbSavedByObjectVersion
1070
     0
  0
VISUALSTYLE
  5
34
102
{ACAD_REACTORS
330
29
102
}
330
29
100
AcDbVisualStyle
  2
Dim
 70
    11
177
     3
291
     1
 70
    58
 90
        2
176
     1
 90
        2
176
     1
 90
        0
176
     1
 90
        0
176
     1
 40
0.6
176
     1
 40
30.0
176
     1
 62
     7
420
 16777215
176
     1
 90
        1
176
     1
 90
        4
176
     1
 62
     7
176
     1
 62
   257
176
     1
 90
        1
176
     1
 90
        1
176
     1
 40
1.0
176
     1
 90
        8
176
     1
 62
     7
176
     1
 40
1.0
176
     1
 90
        1
176
     1
 90
        6
176
     1
 90
        2
176
     1
 62
     7
176
     1
 90
        5
176
     1
 90
        0
176
     1
 90
        0
176
     1
290
     0
176
     1
 90
        1
176
     1
 40
-50.0
176
     1
 90
        0
176
     1
290
     0
176
     1
290
     1
176
     1
290
     1
176
     1
290
     0
176
     1
290
     0
176
     1
290
     0
176
     1
290
     0
176
     1
290
     0
176
     1
290
     0
176
     1
 90
       50
176
     1
 40
0.0
176
     1
 40
1.0
176
     1
 90
        0
176
     1
 62
    18
420
        0
176
     1
 90
       50
176
     1
 90
        3
176
     1
 62
     5
420
      255
176
     1
290
     0
176
     1
 90
       50
176
     1
 90
       50
176
     1
 90
       50
176
     1
290
     0
176
     1
 90
       50
176
     1
 62
   256
176
     0
 40
1.0
176
     0
 90
        2
176
     1
  1
strokes_ogs.tif
176
     1
290
     0
176
     1
 40
1.0
176
     1
 40
1.0
176
     1
1001
ACAD
1000
AcDbSavedByObjectVersion
1070
     0
  0
VISUALSTYLE
  5
41
102
{ACAD_REACTORS
330
29
102
}
330
29
100
AcDbVisualStyle
  2
EdgeColorOff
 70
    22
177
     3
291
     1
 70
    58
 90
        2
176
     0
 90
        2
176
     0
 90
        0
176
     0
 90
        0
176
     0
 40
0.6
176
     0
 40
30.0
176
     0
 62
     7
420
 16777215
176
     0
 90
        1
176
     0
 90
        4
176
     0
 62
     7
176
     0
 62
   257
176
     0
 90
        1
176
     0
 90
        1
176
     0
 40
1.0
176
     0
 90
        8
176
     2
 62
     7
176
     0
 40
1.0
176
     0
 90
        1
176
     0
 90
        6
176
     0
 90
        2
176
     0
 62
     7
176
     0
 90
        5
176
     0
 90
        0
176
     0
 90
        0
176
     0
290
     0
176
     0
 90
        1
176
     0
 40
0.0
176
     0
 90
        0
176
     0
290
     0
176
     0
290
     1
176
     0
290
     1
176
     0
290
     0
176
     0
290
     0
176
     0
290
     0
176
     0
290
     0
176
     0
290
     0
176
     0
290
     0
176
     0
 90
       50
176
     0
 40
0.0
176
     0
 40
1.0
176
     0
 90
        0
176
     0
 62
    18
420
        0
176
     0
 90
       50
176
     0
 90
        3
176
     0
 62
     5
420
      255
176
     0
290
     0
176
     0
 90
       50
176
     0
 90
       50
176
     0
 90
       50
176
     0
290
     0
176
     0
 90
       50
176
     0
 62
   256
176
     0
 40
1.0
176
     0
 90
        2
176
     0
  1
strokes_ogs.tif
176
     0
290
     0
176
     0
 40
1.0
176
     0
 40
1.0
176
     0
1001
ACAD
1000
AcDbSavedByObjectVersion
1070
     0
  0
VISUALSTYLE
  5
38
102
{ACAD_REACTORS
330
29
102
}
330
29
100
AcDbVisualStyle
  2
Facepattern
 70
    15
177
     3
291
     1
 70
    58
 90
        2
176
     1
 90
        2
176
     1
 90
        0
176
     1
 90
        0
176
     1
 40
0.6
176
     1
 40
30.0
176
     1
 62
     7
420
 16777215
176
     1
 90
        1
176
     1
 90
        4
176
     1
 62
     7
176
     1
 62
   257
176
     1
 90
        1
176
     1
 90
        1
176
     1
 40
1.0
176
     1
 90
        8
176
     1
 62
     7
176
     1
 40
1.0
176
     1
 90
        1
176
     1
 90
        6
176
     1
 90
        2
176
     1
 62
     7
176
     1
 90
        5
176
     1
 90
        0
176
     1
 90
        0
176
     1
290
     0
176
     1
 90
        1
176
     1
 40
0.0
176
     1
 90
        0
176
     1
290
     0
176
     1
290
     1
176
     1
290
     1
176
     1
290
     0
176
     1
290
     0
176
     1
290
     0
176
     1
290
     0
176
     1
290
     0
176
     1
290
     0
176
     1
 90
       50
176
     1
 40
0.0
176
     1
 40
1.0
176
     1
 90
        0
176
     1
 62
    18
420
        0
176
     1
 90
       50
176
     1
 90
        3
176
     1
 62
     5
420
      255
176
     1
290
     0
176
     1
 90
       50
176
     1
 90
       50
176
     1
 90
       50
176
     1
290
     0
176
     1
 90
       50
176
     1
 62
   256
176
     0
 40
1.0
176
     0
 90
        2
176
     1
  1
strokes_ogs.tif
176
     1
290
     0
176
     1
 40
1.0
176
     1
 40
1.0
176
     1
1001
ACAD
1000
AcDbSavedByObjectVersion
1070
     0
  0
VISUALSTYLE
  5
2A
102
{ACAD_REACTORS
330
29
102
}
330
29
100
AcDbVisualStyle
  2
Flat
 70
     0
177
     3
291
     1
 70
    58
 90
        2
176
     1
 90
        1
176
     1
 90
        1
176
     1
 90
        2
176
     1
 40
0.6
176
     1
 40
30.0
176
     1
 62
     7
420
 16777215
176
     1
 90
        0
176
     1
 90
        0
176
     1
 62
     7
176
     1
 62
   257
176
     1
 90
        1
176
     1
 90
        1
176
     1
 40
1.0
176
     1
 90
        8
176
     1
 62
     7
176
     1
 40
1.0
176
     1
 90
        1
176
     1
 90
        6
176
     1
 90
        2
176
     1
 62
     7
176
     1
 90
        5
176
     1
 90
        0
176
     1
 90
        0
176
     1
290
     0
176
     1
 90
       13
176
     1
 40
0.0
176
     1
 90
        0
176
     1
290
     0
176
     1
290
     1
176
     1
290
     1
176
     1
290
     0
176
     1
290
     0
176
     1
290
     0
176
     1
290
     0
176
     1
290
     0
176
     1
290
     0
176
     1
 90
       50
176
     1
 40
0.0
176
     1
 40
1.0
176
     1
 90
        0
176
     1
 62
    18
420
        0
176
     1
 90
       50
176
     1
 90
        3
176
     1
 62
     5
420
      255
176
     1
290
     0
176
     1
 90
       50
176
     1
 90
       50
176
     1
 90
       50
176
     1
290
     0
176
     1
 90
       50
176
     1
 62
   256
176
     0
 40
1.0
176
     0
 90
        2
176
     1
  1
strokes_ogs.tif
176
     1
290
     0
176
     1
 40
1.0
176
     1
 40
1.0
176
     1
1001
ACAD
1000
AcDbSavedByObjectVersion
1070
     0
  0
VISUALSTYLE
  5
2B
102
{ACAD_REACTORS
330
29
102
}
330
29
100
AcDbVisualStyle
  2
FlatWithEdges
 70
     1
177
     3
291
     1
 70
    58
 90
        2
176
     1
 90
        1
176
     1
 90
        1
176
     1
 90
        2
176
     1
 40
0.6
176
     1
 40
30.0
176
     1
 62
     7
420
 16777215
176
     1
 90
        1
176
     1
 90
        0
176
     1
 62
     7
176
     1
 62
   257
176
     1
 90
        1
176
     1
 90
        1
176
     1
 40
1.0
176
     1
 90
        0
176
     1
 62
   257
176
     1
 40
1.0
176
     1
 90
        1
176
     1
 90
        6
176
     1
 90
        2
176
     1
 62
     7
176
     1
 90
        5
176
     1
 90
        0
176
     1
 90
        0
176
     1
290
     0
176
     1
 90
       13
176
     1
 40
0.0
176
     1
 90
        0
176
     1
290
     0
176
     1
290
     1
176
     1
290
     1
176
     1
290
     0
176
     1
290
     0
176
     1
290
     0
176
     1
290
     0
176
     1
290
     0
176
     1
290
     0
176
     1
 90
       50
176
     1
 40
0.0
176
     1
 40
1.0
176
     1
 90
        0
176
     1
 62
    18
420
        0
176
     1
 90
       50
176
     1
 90
        3
176
     1
 62
     5
420
      255
176
     1
290
     0
176
     1
 90
       50
176
     1
 90
       50
176
     1
 90
       50
176
     1
290
     0
176
     1
 90
       50
176
     1
 62
   256
176
     0
 40
1.0
176
     0
 90
        2
176
     1
  1
strokes_ogs.tif
176
     1
290
     0
176
     1
 40
1.0
176
     1
 40
1.0
176
     1
1001
ACAD
1000
AcDbSavedByObjectVersion
1070
     0
  0
VISUALSTYLE
  5
2C
102
{ACAD_REACTORS
330
29
102
}
330
29
100
AcDbVisualStyle
  2
Gouraud
 70
     2
177
     3
291
     1
 70
    58
 90
        2
176
     1
 90
        2
176
     1
 90
        1
176
     1
 90
        2
176
     1
 40
0.6
176
     1
 40
30.0
176
     1
 62
     7
420
 16777215
176
     1
 90
        0
176
     1
 90
        0
176
     1
 62
     7
176
     1
 62
   257
176
     1
 90
        1
176
     1
 90
        1
176
     1
 40
1.0
176
     1
 90
        0
176
     1
 62
     7
176
     1
 40
1.0
176
     1
 90
        1
176
     1
 90
        6
176
     1
 90
        2
176
     1
 62
     7
176
     1
 90
        5
176
     1
 90
        0
176
     1
 90
        0
176
     1
290
     0
176
     1
 90
       13
176
     1
 40
0.0
176
     1
 90
        0
176
     1
290
     0
176
     1
290
     1
176
     1
290
     1
176
     1
290
     0
176
     1
290
     0
176
     1
290
     0
176
     1
290
     0
176
     1
290
     0
176
     1
290
     0
176
     1
 90
       50
176
     1
 40
0.0
176
     1
 40
1.0
176
     1
 90
        0
176
     1
 62
    18
420
        0
176
     1
 90
       50
176
     1
 90
        3
176
     1
 62
     5
420
      255
176
     1
290
     0
176
     1
 90
       50
176
     1
 90
       50
176
     1
 90
       50
176
     1
290
     0
176
     1
 90
       50
176
     1
 62
   256
176
     0
 40
1.0
176
     0
 90
        2
176
     1
  1
strokes_ogs.tif
176
     1
290
     0
176
     1
 40
1.0
176
     1
 40
1.0
176
     1
1001
ACAD
1000
AcDbSavedByObjectVersion
1070
     0
  0
VISUALSTYLE
  5
2D
102
{ACAD_REACTORS
330
29
102
}
330
29
100
AcDbVisualStyle
  2
GouraudWithEdges
 70
     3
177
     3
291
     1
 70
    58
 90
        2
176
     1
 90
        2
176
     1
 90
        1
176
     1
 90
        2
176
     1
 40
0.6
176
     1
 40
30.0
176
     1
 62
     7
420
 16777215
176
     1
 90
        1
176
     1
 90
        0
176
     1
 62
     7
176
     1
 62
   257
176
     1
 90
        1
176
     1
 90
        1
176
     1
 40
1.0
176
     1
 90
        0
176
     1
 62
   257
176
     1
 40
1.0
176
     1
 90
        1
176
     1
 90
        6
176
     1
 90
        2
176
     1
 62
     7
176
     1
 90
        5
176
     1
 90
        0
176
     1
 90
        0
176
     1
290
     0
176
     1
 90
       13
176
     1
 40
0.0
176
     1
 90
        0
176
     1
290
     0
176
     1
290
     1
176
     1
290
     1
176
     1
290
     0
176
     1
290
     0
176
     1
290
     0
176
     1
290
     0
176
     1
290
     0
176
     1
290
     0
176
     1
 90
       50
176
     1
 40
0.0
176
     1
 40
1.0
176
     1
 90
        0
176
     1
 62
    18
420
        0
176
     1
 90
       50
176
     1
 90
        3
176
     1
 62
     5
420
      255
176
     1
290
     0
176
     1
 90
       50
176
     1
 90
       50
176
     1
 90
       50
176
     1
290
     0
176
     1
 90
       50
176
     1
 62
   256
176
     0
 40
1.0
176
     0
 90
        2
176
     1
  1
strokes_ogs.tif
176
     1
290
     0
176
     1
 40
1.0
176
     1
 40
1.0
176
     1
1001
ACAD
1000
AcDbSavedByObjectVersion
1070
     0
  0
VISUALSTYLE
  5
31
102
{ACAD_REACTORS
330
29
102
}
330
29
100
AcDbVisualStyle
  2
Hidden
 70
     6
177
     3
291
     0
 70
    58
 90
        1
176
     1
 90
        2
176
     1
 90
        2
176
     1
 90
        0
176
     1
 40
0.6
176
     1
 40
30.0
176
     1
 62
     7
420
 16777215
176
     1
 90
        2
176
     1
 90
        2
176
     1
 62
     7
176
     1
 62
   257
176
     1
 90
        2
176
     1
 90
        1
176
     1
 40
40.0
176
     1
 90
        0
176
     1
 62
   257
176
     1
 40
1.0
176
     1
 90
        1
176
     1
 90
        6
176
     1
 90
        2
176
     1
 62
     7
176
     1
 90
        3
176
     1
 90
        0
176
     1
 90
        0
176
     1
290
     0
176
     1
 90
        1
176
     1
 40
0.0
176
     1
 90
        0
176
     1
290
     0
176
     1
290
     1
176
     1
290
     1
176
     1
290
     0
176
     1
290
     0
176
     1
290
     0
176
     1
290
     0
176
     1
290
     0
176
     1
290
     0
176
     1
 90
       50
176
     1
 40
0.0
176
     1
 40
1.0
176
     1
 90
        0
176
     1
 62
    18
420
        0
176
     1
 90
       50
176
     1
 90
        3
176
     1
 62
     5
420
      255
176
     1
290
     0
176
     1
 90
       50
176
     1
 90
       50
176
     1
 90
       50
176
     1
290
     0
176
     1
 90
       50
176
     1
 62
   256
176
     0
 40
1.0
176
     0
 90
        2
176
     1
  1
strokes_ogs.tif
176
     1
290
     0
176
     1
 40
1.0
176
     1
 40
1.0
176
     1
1001
ACAD
1000
AcDbSavedByObjectVersion
1070
     0
  0
VISUALSTYLE
  5
3F
102
{ACAD_REACTORS
330
29
102
}
330
29
100
AcDbVisualStyle
  2
JitterOff
 70
    20
177
     3
291
     1
 70
    58
 90
        2
176
     0
 90
        2
176
     0
 90
        0
176
     0
 90
        0
176
     0
 40
0.6
176
     0
 40
30.0
176
     0
 62
     7
420
 16777215
176
     0
 90
        1
176
     0
 90
        4
176
     0
 62
     7
176
     0
 62
   257
176
     0
 90
        1
176
     0
 90
        1
176
     0
 40
1.0
176
     0
 90
       10
176
     2
 62
     7
176
     0
 40
1.0
176
     0
 90
        1
176
     0
 90
        6
176
     0
 90
        2
176
     0
 62
     7
176
     0
 90
        5
176
     0
 90
        0
176
     0
 90
        0
176
     0
290
     0
176
     0
 90
        1
176
     0
 40
0.0
176
     0
 90
        0
176
     0
290
     0
176
     0
290
     1
176
     0
290
     1
176
     0
290
     0
176
     0
290
     0
176
     0
290
     0
176
     0
290
     0
176
     0
290
     0
176
     0
290
     0
176
     0
 90
       50
176
     0
 40
0.0
176
     0
 40
1.0
176
     0
 90
        0
176
     0
 62
    18
420
        0
176
     0
 90
       50
176
     0
 90
        3
176
     0
 62
     5
420
      255
176
     0
290
     0
176
     0
 90
       50
176
     0
 90
       50
176
     0
 90
       50
176
     0
290
     0
176
     0
 90
       50
176
     0
 62
   256
176
     0
 40
1.0
176
     0
 90
        2
176
     0
  1
strokes_ogs.tif
176
     0
290
     0
176
     0
 40
1.0
176
     0
 40
1.0
176
     0
1001
ACAD
1000
AcDbSavedByObjectVersion
1070
     0
  0
VISUALSTYLE
  5
37
102
{ACAD_REACTORS
330
29
102
}
330
29
100
AcDbVisualStyle
  2
Linepattern
 70
    14
177
     3
291
     1
 70
    58
 90
        2
176
     1
 90
        2
176
     1
 90
        0
176
     1
 90
        0
176
     1
 40
0.6
176
     1
 40
30.0
176
     1
 62
     7
420
 16777215
176
     1
 90
        1
176
     1
 90
        4
176
     1
 62
     7
176
     1
 62
   257
176
     1
 90
        7
176
     1
 90
        7
176
     1
 40
1.0
176
     1
 90
        8
176
     1
 62
     7
176
     1
 40
1.0
176
     1
 90
        1
176
     1
 90
        6
176
     1
 90
        2
176
     1
 62
     7
176
     1
 90
        5
176
     1
 90
        0
176
     1
 90
        0
176
     1
290
     0
176
     1
 90
        1
176
     1
 40
0.0
176
     1
 90
        0
176
     1
290
     0
176
     1
290
     1
176
     1
290
     1
176
     1
290
     0
176
     1
290
     0
176
     1
290
     0
176
     1
290
     0
176
     1
290
     0
176
     1
290
     0
176
     1
 90
       50
176
     1
 40
0.0
176
     1
 40
1.0
176
     1
 90
        0
176
     1
 62
    18
420
        0
176
     1
 90
       50
176
     1
 90
        3
176
     1
 62
     5
420
      255
176
     1
290
     0
176
     1
 90
       50
176
     1
 90
       50
176
     1
 90
       50
176
     1
290
     0
176
     1
 90
       50
176
     1
 62
   256
176
     0
 40
1.0
176
     0
 90
        2
176
     1
  1
strokes_ogs.tif
176
     1
290
     0
176
     1
 40
1.0
176
     1
 40
1.0
176
     1
1001
ACAD
1000
AcDbSavedByObjectVersion
1070
     0
  0
VISUALSTYLE
  5
40
102
{ACAD_REACTORS
330
29
102
}
330
29
100
AcDbVisualStyle
  2
OverhangOff
 70
    21
177
     3
291
     1
 70
    58
 90
        2
176
     0
 90
        2
176
     0
 90
        0
176
     0
 90
        0
176
     0
 40
0.6
176
     0
 40
30.0
176
     0
 62
     7
420
 16777215
176
     0
 90
        1
176
     0
 90
        4
176
     0
 62
     7
176
     0
 62
   257
176
     0
 90
        1
176
     0
 90
        1
176
     0
 40
1.0
176
     0
 90
        9
176
     2
 62
     7
176
     0
 40
1.0
176
     0
 90
        1
176
     0
 90
        6
176
     0
 90
        2
176
     0
 62
     7
176
     0
 90
        5
176
     0
 90
        0
176
     0
 90
        0
176
     0
290
     0
176
     0
 90
        1
176
     0
 40
0.0
176
     0
 90
        0
176
     0
290
     0
176
     0
290
     1
176
     0
290
     1
176
     0
290
     0
176
     0
290
     0
176
     0
290
     0
176
     0
290
     0
176
     0
290
     0
176
     0
290
     0
176
     0
 90
       50
176
     0
 40
0.0
176
     0
 40
1.0
176
     0
 90
        0
176
     0
 62
    18
420
        0
176
     0
 90
       50
176
     0
 90
        3
176
     0
 62
     5
420
      255
176
     0
290
     0
176
     0
 90
       50
176
     0
 90
       50
176
     0
 90
       50
176
     0
290
     0
176
     0
 90
       50
176
     0
 62
   256
176
     0
 40
1.0
176
     0
 90
        2
176
     0
  1
strokes_ogs.tif
176
     0
290
     0
176
     0
 40
1.0
176
     0
 40
1.0
176
     0
1001
ACAD
1000
AcDbSavedByObjectVersion
1070
     0
  0
VISUALSTYLE
  5
33
102
{ACAD_REACTORS
330
29
102
}
330
29
100
AcDbVisualStyle
  2
Realistic
 70
     8
177
     3
291
     0
 70
    58
 90
        2
176
     1
 90
        3
176
     1
 90
        0
176
     1
 90
        2
176
     1
 40
0.6
176
     1
 40
30.0
176
     1
 62
     7
420
 16777215
176
     1
 90
        0
176
     1
 90
        0
176
     1
 62
     7
176
     1
 62
   257
176
     1
 90
        1
176
     1
 90
        1
176
     1
 40
1.0
176
     1
 90
        8
176
     1
 62
   257
176
     1
 40
1.0
176
     1
 90
        1
176
     1
 90
        6
176
     1
 90
        2
176
     1
 62
     7
176
     1
 90
        3
176
     1
 90
        0
176
     1
 90
        0
176
     1
290
     0
176
     1
 90
       13
176
     1
 40
0.0
176
     1
 90
        0
176
     1
290
     0
176
     1
290
     1
176
     1
290
     1
176
     1
290
     0
176
     1
290
     0
176
     1
290
     0
176
     1
290
     0
176
     1
290
     0
176
     1
290
     0
176
     1
 90
       50
176
     1
 40
0.0
176
     1
 40
1.0
176
     1
 90
        0
176
     1
 62
    18
420
        0
176
     1
 90
       50
176
     1
 90
        3
176
     1
 62
     5
420
      255
176
     1
290
     0
176
     1
 90
       50
176
     1
 90
       50
176
     1
 90
       50
176
     1
290
     0
176
     1
 90
       50
176
     1
 62
   256
176
     0
 40
1.0
176
     0
 90
        2
176
     1
  1
strokes_ogs.tif
176
     1
290
     0
176
     1
 40
1.0
176
     1
 40
1.0
176
     1
1001
ACAD
1000
AcDbSavedByObjectVersion
1070
     0
  0
VISUALSTYLE
  5
3E
102
{ACAD_REACTORS
330
29
102
}
330
29
100
AcDbVisualStyle
  2
Shaded
 70
    27
177
     3
291
     0
 70
    58
 90
        2
176
     1
 90
        2
176
     1
 90
        1
176
     1
 90
        2
176
     1
 40
0.6
176
     1
 40
30.0
176
     1
 62
     7
420
 16777215
176
     1
 90
        0
176
     1
 90
        4
176
     1
 62
     7
176
     1
 62
   257
176
     1
 90
        1
176
     1
 90
        1
176
     1
 40
1.0
176
     1
 90
        8
176
     1
 62
   257
176
     1
 40
1.0
176
     1
 90
        1
176
     1
 90
        6
176
     1
 90
        2
176
     1
 62
     8
420
  7895160
176
     1
 90
        3
176
     1
 90
        0
176
     1
 90
        0
176
     1
290
     0
176
     1
 90
        5
176
     1
 40
0.0
176
     1
 90
        0
176
     1
290
     0
176
     1
290
     1
176
     1
290
     1
176
     1
290
     0
176
     1
290
     0
176
     1
290
     0
176
     1
290
     0
176
     1
290
     0
176
     1
290
     0
176
     1
 90
       50
176
     1
 40
0.0
176
     1
 40
1.0
176
     1
 90
        0
176
     1
 62
    18
420
        0
176
     1
 90
       50
176
     1
 90
        3
176
     1
 62
     5
420
      255
176
     1
290
     0
176
     1
 90
       50
176
     1
 90
       50
176
     1
 90
       50
176
     1
290
     0
176
     1
 90
       50
176
     1
 62
   256
176
     0
 40
1.0
176
     0
 90
        2
176
     1
  1
strokes_ogs.tif
176
     1
290
     0
176
     1
 40
1.0
176
     1
 40
1.0
176
     1
1001
ACAD
1000
AcDbSavedByObjectVersion
1070
     0
  0
VISUALSTYLE
  5
3D
102
{ACAD_REACTORS
330
29
102
}
330
29
100
AcDbVisualStyle
  2
Shaded with edges
 70
    26
177
     3
291
     0
 70
    58
 90
        2
176
     1
 90
        2
176
     1
 90
        1
176
     1
 90
        2
176
     1
 40
0.6
176
     1
 40
30.0
176
     1
 62
     7
420
 16777215
176
     1
 90
        1
176
     1
 90
        2
176
     1
 62
     7
176
     1
 62
   257
176
     1
 90
        2
176
     1
 90
        1
176
     1
 40
1.0
176
     1
 90
        8
176
     1
 62
   257
176
     1
 40
1.0
176
     1
 90
        1
176
     1
 90
        6
176
     1
 90
        2
176
     1
 62
     7
176
     1
 90
        3
176
     1
 90
        0
176
     1
 90
        0
176
     1
290
     0
176
     1
 90
        5
176
     1
 40
0.0
176
     1
 90
        0
176
     1
290
     0
176
     1
290
     1
176
     1
290
     1
176
     1
290
     0
176
     1
290
     0
176
     1
290
     0
176
     1
290
     0
176
     1
290
     0
176
     1
290
     0
176
     1
 90
       50
176
     1
 40
0.0
176
     1
 40
1.0
176
     1
 90
        0
176
     1
 62
    18
420
        0
176
     1
 90
       50
176
     1
 90
        3
176
     1
 62
     5
420
      255
176
     1
290
     0
176
     1
 90
       50
176
     1
 90
       50
176
     1
 90
       50
176
     1
290
     0
176
     1
 90
       50
176
     1
 62
   256
176
     0
 40
1.0
176
     0
 90
        2
176
     1
  1
strokes_ogs.tif
176
     1
290
     0
176
     1
 40
1.0
176
     1
 40
1.0
176
     1
1001
ACAD
1000
AcDbSavedByObjectVersion
1070
     0
  0
VISUALSTYLE
  5
3A
102
{ACAD_REACTORS
330
29
102
}
330
29
100
AcDbVisualStyle
  2
Shades of Gray
 70
    23
177
     3
291
     0
 70
    58
 90
        2
176
     1
 90
        2
176
     1
 90
        3
176
     1
 90
        0
176
     1
 40
0.6
176
     1
 40
30.0
176
     1
 62
     7
420
 16777215
176
     1
 90
        2
176
     1
 90
        2
176
     1
 62
     7
176
     1
 62
     7
176
     1
 90
        1
176
     1
 90
        1
176
     1
 40
40.0
176
     1
 90
        8
176
     1
 62
     7
176
     1
 40
1.0
176
     1
 90
        1
176
     1
 90
        6
176
     1
 90
        2
176
     1
 62
     7
176
     1
 90
        3
176
     1
 90
        0
176
     1
 90
        0
176
     1
290
     0
176
     1
 90
        1
176
     1
 40
0.0
176
     1
 90
        0
176
     1
290
     0
176
     1
290
     1
176
     1
290
     1
176
     1
290
     0
176
     1
290
     0
176
     1
290
     0
176
     1
290
     0
176
     1
290
     0
176
     1
290
     0
176
     1
 90
       50
176
     1
 40
0.0
176
     1
 40
1.0
176
     1
 90
        0
176
     1
 62
    18
420
        0
176
     1
 90
       50
176
     1
 90
        3
176
     1
 62
     5
420
      255
176
     1
290
     0
176
     1
 90
       50
176
     1
 90
       50
176
     1
 90
       50
176
     1
290
     0
176
     1
 90
       50
176
     1
 62
   256
176
     0
 40
1.0
176
     0
 90
        2
176
     1
  1
strokes_ogs.tif
176
     1
290
     0
176
     1
 40
1.0
176
     1
 40
1.0
176
     1
1001
ACAD
1000
AcDbSavedByObjectVersion
1070
     0
  0
VISUALSTYLE
  5
3B
102
{ACAD_REACTORS
330
29
102
}
330
29
100
AcDbVisualStyle
  2
Sketchy
 70
    24
177
     3
291
     0
 70
    58
 90
        1
176
     1
 90
        2
176
     1
 90
        2
176
     1
 90
        0
176
     1
 40
0.6
176
     1
 40
30.0
176
     1
 62
     7
420
 16777215
176
     1
 90
        2
176
     1
 90
        2
176
     1
 62
     7
176
     1
 62
     7
176
     1
 90
        1
176
     1
 90
        1
176
     1
 40
40.0
176
     1
 90
       11
176
     1
 62
     7
176
     1
 40
1.0
176
     1
 90
        1
176
     1
 90
        6
176
     1
 90
        2
176
     1
 62
     7
176
     1
 90
        6
176
     1
 90
        0
176
     1
 90
        0
176
     1
290
     0
176
     1
 90
        1
176
     1
 40
0.0
176
     1
 90
        0
176
     1
290
     0
176
     1
290
     1
176
     1
290
     1
176
     1
290
     0
176
     1
290
     0
176
     1
290
     0
176
     1
290
     0
176
     1
290
     0
176
     1
290
     0
176
     1
 90
       50
176
     1
 40
0.0
176
     1
 40
1.0
176
     1
 90
        0
176
     1
 62
    18
420
        0
176
     1
 90
       50
176
     1
 90
        3
176
     1
 62
     5
420
      255
176
     1
290
     0
176
     1
 90
       50
176
     1
 90
       50
176
     1
 90
       50
176
     1
290
     0
176
     1
 90
       50
176
     1
 62
   256
176
     0
 40
1.0
176
     0
 90
        2
176
     1
  1
strokes_ogs.tif
176
     1
290
     0
176
     1
 40
1.0
176
     1
 40
1.0
176
     1
1001
ACAD
1000
AcDbSavedByObjectVersion
1070
     0
  0
VISUALSTYLE
  5
36
102
{ACAD_REACTORS
330
29
102
}
330
29
100
AcDbVisualStyle
  2
Thicken
 70
    13
177
     3
291
     1
 70
    58
 90
        2
176
     1
 90
        2
176
     1
 90
        0
176
     1
 90
        0
176
     1
 40
0.6
176
     1
 40
30.0
176
     1
 62
     7
420
 16777215
176
     1
 90
        1
176
     1
 90
        4
176
     1
 62
     7
176
     1
 62
   257
176
     1
 90
        1
176
     1
 90
        1
176
     1
 40
1.0
176
     1
 90
       12
176
     1
 62
     7
176
     1
 40
1.0
176
     1
 90
        1
176
     1
 90
        6
176
     1
 90
        2
176
     1
 62
     7
176
     1
 90
        5
176
     1
 90
        0
176
     1
 90
        0
176
     1
290
     0
176
     1
 90
        1
176
     1
 40
0.0
176
     1
 90
        0
176
     1
290
     0
176
     1
290
     1
176
     1
290
     1
176
     1
290
     0
176
     1
290
     0
176
     1
290
     0
176
     1
290
     0
176
     1
290
     0
176
     1
290
     0
176
     1
 90
       50
176
     1
 40
0.0
176
     1
 40
1.0
176
     1
 90
        0
176
     1
 62
    18
420
        0
176
     1
 90
       50
176
     1
 90
        3
176
     1
 62
     5
420
      255
176
     1
290
     0
176
     1
 90
       50
176
     1
 90
       50
176
     1
 90
       50
176
     1
290
     0
176
     1
 90
       50
176
     1
 62
   256
176
     0
 40
1.0
176
     0
 90
        2
176
     1
  1
strokes_ogs.tif
176
     1
290
     0
176
     1
 40
1.0
176
     1
 40
1.0
176
     1
1001
ACAD
1000
AcDbSavedByObjectVersion
1070
     0
  0
VISUALSTYLE
  5
30
102
{ACAD_REACTORS
330
29
102
}
330
29
100
AcDbVisualStyle
  2
Wireframe
 70
     5
177
     3
291
     0
 70
    58
 90
        0
176
     1
 90
        2
176
     1
 90
        0
176
     1
 90
        0
176
     1
 40
0.6
176
     1
 40
30.0
176
     1
 62
     7
420
 16777215
176
     1
 90
        1
176
     1
 90
        4
176
     1
 62
     7
176
     1
 62
   257
176
     1
 90
        1
176
     1
 90
        1
176
     1
 40
1.0
176
     1
 90
        0
176
     1
 62
   257
176
     1
 40
1.0
176
     1
 90
        1
176
     1
 90
        6
176
     1
 90
        2
176
     1
 62
     7
176
     1
 90
        3
176
     1
 90
        0
176
     1
 90
        0
176
     1
290
     0
176
     1
 90
        1
176
     1
 40
0.0
176
     1
 90
        0
176
     1
290
     0
176
     1
290
     1
176
     1
290
     1
176
     1
290
     0
176
     1
290
     0
176
     1
290
     0
176
     1
290
     0
176
     1
290
     0
176
     1
290
     0
176
     1
 90
       50
176
     1
 40
0.0
176
     1
 40
1.0
176
     1
 90
        0
176
     1
 62
    18
420
        0
176
     1
 90
       50
176
     1
 90
        3
176
     1
 62
     5
420
      255
176
     1
290
     0
176
     1
 90
       50
176
     1
 90
       50
176
     1
 90
       50
176
     1
290
     0
176
     1
 90
       50
176
     1
 62
   256
176
     0
 40
1.0
176
     0
 90
        2
176
     1
  1
strokes_ogs.tif
176
     1
290
     0
176
     1
 40
1.0
176
     1
 40
1.0
176
     1
1001
ACAD
1000
AcDbSavedByObjectVersion
1070
     0
  0
VISUALSTYLE
  5
3C
102
{ACAD_REACTORS
330
29
102
}
330
29
100
AcDbVisualStyle
  2
X-Ray
 70
    25
177
     3
291
     0
 70
    58
 90
        2
176
     1
 90
        2
176
     1
 90
        1
176
     1
 90
        1
176
     1
 40
0.5
176
     1
 40
30.0
176
     1
 62
     7
420
 16777215
176
     1
 90
        1
176
     1
 90
        0
176
     1
 62
     7
176
     1
 62
   257
176
     1
 90
        1
176
     1
 90
        1
176
     1
 40
1.0
176
     1
 90
        8
176
     1
 62
     7
176
     1
 40
1.0
176
     1
 90
        1
176
     1
 90
        6
176
     1
 90
        2
176
     1
 62
     7
176
     1
 90
        3
176
     1
 90
        0
176
     1
 90
        0
176
     1
290
     0
176
     1
 90
       13
176
     1
 40
0.0
176
     1
 90
        0
176
     1
290
     0
176
     1
290
     1
176
     1
290
     1
176
     1
290
     0
176
     1
290
     0
176
     1
290
     0
176
     1
290
     0
176
     1
290
     0
176
     1
290
     0
176
     1
 90
       50
176
     1
 40
0.0
176
     1
 40
1.0
176
     1
 90
        0
176
     1
 62
    18
420
        0
176
     1
 90
       50
176
     1
 90
        3
176
     1
 62
     5
420
      255
176
     1
290
     0
176
     1
 90
       50
176
     1
 90
       50
176
     1
 90
       50
176
     1
290
     0
176
     1
 90
       50
176
     1
 62
   256
176
     0
 40
1.0
176
     0
 90
        2
176
     1
  1
strokes_ogs.tif
176
     1
290
     0
176
     1
 40
1.0
176
     1
 40
1.0
176
     1
1001
ACAD
1000
AcDbSavedByObjectVersion
1070
     0
  0
DICTIONARYVAR
  5
2E1
102
{ACAD_REACTORS
330
2DC
102
}
330
2DC
100
DictionaryVariables
280
     0
  1
0
  0
DICTIONARYVAR
  5
2E2
102
{ACAD_REACTORS
330
2DC
102
}
330
2DC
100
DictionaryVariables
280
     0
  1
1:1
  0
DICTIONARYVAR
  5
2DE
102
{ACAD_REACTORS
330
2DC
102
}
330
2DC
100
DictionaryVariables
280
     0
  1
STANDARD
  0
DICTIONARYVAR
  5
2DD
102
{ACAD_REACTORS
330
2DC
102
}
330
2DC
100
DictionaryVariables
280
     0
  1
STANDARD
  0
DICTIONARYVAR
  5
2DF
102
{ACAD_REACTORS
330
2DC
102
}
330
2DC
100
DictionaryVariables
280
     0
  1
Imperial24
  0
DICTIONARYVAR
  5
2E0
102
{ACAD_REACTORS
330
2DC
102
}
330
2DC
100
DictionaryVariables
280
     0
  1
Imperial24
  0
DICTIONARY
  5
2E8
330
6B
100
AcDbDictionary
280
     1
281
     1
  3
ACAD_XREC_ROUNDTRIP
360
2E9
  0
DICTIONARY
  5
1A
330
19
100
AcDbDictionary
280
     1
281
     1
  3
BUMPTILE
360
1C
  3
DIFFUSETILE
360
1B
  3
OPACITYTILE
360
1F
  3
REFLECTIONTILE
360
1E
  3
REFRACTIONTILE
360
20
  3
SPECULARTILE
360
1D
  0
DICTIONARY
  5
12
330
11
100
AcDbDictionary
280
     1
281
     1
  3
BUMPTILE
360
14
  3
DIFFUSETILE
360
13
  3
OPACITYTILE
360
17
  3
REFLECTIONTILE
360
16
  3
REFRACTIONTILE
360
18
  3
SPECULARTILE
360
15
  0
DICTIONARY
  5
22
330
21
100
AcDbDictionary
280
     1
281
     1
  3
BUMPTILE
360
24
  3
DIFFUSETILE
360
23
  3
OPACITYTILE
360
27
  3
REFLECTIONTILE
360
26
  3
REFRACTIONTILE
360
28
  3
SPECULARTILE
360
25
  0
DICTIONARY
  5
2E6
330
69
100
AcDbDictionary
280
     1
281
     1
  3
ACAD_XREC_ROUNDTRIP
360
2E7
  0
DICTIONARY
  5
2E3
330
65
100
AcDbDictionary
280
     1
281
     1
  3
ACAD_ROUNDTRIP_2008_TABLESTYLE_CELLSTYLEMAP
360
2E4
  0
XRECORD
  5
2E9
102
{ACAD_REACTORS
330
2E8
102
}
330
2E8
100
AcDbXrecord
280
     1
102
DISPLAYNAME
  1
Imperial24
102
FLAGS
 90
        0
  0
XRECORD
  5
1C
102
{ACAD_REACTORS
330
1A
102
}
330
1A
100
AcDbXrecord
280
     1
270
     1
271
     1
  0
XRECORD
  5
1B
102
{ACAD_REACTORS
330
1A
102
}
330
1A
100
AcDbXrecord
280
     1
270
     1
271
     1
  0
XRECORD
  5
1F
102
{ACAD_REACTORS
330
1A
102
}
330
1A
100
AcDbXrecord
280
     1
270
     1
271
     1
  0
XRECORD
  5
1E
102
{ACAD_REACTORS
330
1A
102
}
330
1A
100
AcDbXrecord
280
     1
270
     1
271
     1
  0
XRECORD
  5
20
102
{ACAD_REACTORS
330
1A
102
}
330
1A
100
AcDbXrecord
280
     1
270
     1
271
     1
  0
XRECORD
  5
1D
102
{ACAD_REACTORS
330
1A
102
}
330
1A
100
AcDbXrecord
280
     1
270
     1
271
     1
  0
XRECORD
  5
14
102
{ACAD_REACTORS
330
12
102
}
330
12
100
AcDbXrecord
280
     1
270
     1
271
     1
  0
XRECORD
  5
13
102
{ACAD_REACTORS
330
12
102
}
330
12
100
AcDbXrecord
280
     1
270
     1
271
     1
  0
XRECORD
  5
17
102
{ACAD_REACTORS
330
12
102
}
330
12
100
AcDbXrecord
280
     1
270
     1
271
     1
  0
XRECORD
  5
16
102
{ACAD_REACTORS
330
12
102
}
330
12
100
AcDbXrecord
280
     1
270
     1
271
     1
  0
XRECORD
  5
18
102
{ACAD_REACTORS
330
12
102
}
330
12
100
AcDbXrecord
280
     1
270
     1
271
     1
  0
XRECORD
  5
15
102
{ACAD_REACTORS
330
12
102
}
330
12
100
AcDbXrecord
280
     1
270
     1
271
     1
  0
XRECORD
  5
24
102
{ACAD_REACTORS
330
22
102
}
330
22
100
AcDbXrecord
280
     1
270
     1
271
     1
  0
XRECORD
  5
23
102
{ACAD_REACTORS
330
22
102
}
330
22
100
AcDbXrecord
280
     1
270
     1
271
     1
  0
XRECORD
  5
27
102
{ACAD_REACTORS
330
22
102
}
330
22
100
AcDbXrecord
280
     1
270
     1
271
     1
  0
XRECORD
  5
26
102
{ACAD_REACTORS
330
22
102
}
330
22
100
AcDbXrecord
280
     1
270
     1
271
     1
  0
XRECORD
  5
28
102
{ACAD_REACTORS
330
22
102
}
330
22
100
AcDbXrecord
280
     1
270
     1
271
     1
  0
XRECORD
  5
25
102
{ACAD_REACTORS
330
22
102
}
330
22
100
AcDbXrecord
280
     1
270
     1
271
     1
  0
XRECORD
  5
2E7
102
{ACAD_REACTORS
330
2E6
102
}
330
2E6
100
AcDbXrecord
280
     1
102
DISPLAYNAME
  1
Imperial24
102
FLAGS
 90
        0
  0
CELLSTYLEMAP
  5
2E4
102
{ACAD_REACTORS
330
2E3
102
}
330
2E3
100
AcDbCellStyleMap
 90
        3
300
CELLSTYLE
  1
TABLEFORMAT_BEGIN
 90
        5
170
     1
 91
        0
 92
    32768
 62
   257
 93
        1
300
CONTENTFORMAT
  1
CONTENTFORMAT_BEGIN
 90
        0
 91
        0
 92
      512
 93
        0
300

 40
0.0
140
1.0
 94
        5
 62
     0
340
55
144
0.25
309
CONTENTFORMAT_END
171
     1
301
MARGIN
  1
CELLMARGIN_BEGIN
 40
1.5
 40
1.5
 40
1.5
 40
1.5
 40
0.18
 40
0.18
309
CELLMARGIN_END
 94
        0
309
TABLEFORMAT_END
  1
CELLSTYLE_BEGIN
 90
        1
 91
        1
300
_TITLE
309
CELLSTYLE_END
300
CELLSTYLE
  1
TABLEFORMAT_BEGIN
 90
        5
170
     1
 91
        0
 92
        0
 62
   257
 93
        1
300
CONTENTFORMAT
  1
CONTENTFORMAT_BEGIN
 90
        0
 91
        0
 92
      512
 93
        0
300

 40
0.0
140
1.0
 94
        5
 62
     0
340
55
144
0.18
309
CONTENTFORMAT_END
171
     1
301
MARGIN
  1
CELLMARGIN_BEGIN
 40
1.5
 40
1.5
 40
1.5
 40
1.5
 40
0.18
 40
0.18
309
CELLMARGIN_END
 94
        0
309
TABLEFORMAT_END
  1
CELLSTYLE_BEGIN
 90
        2
 91
        1
300
_HEADER
309
CELLSTYLE_END
300
CELLSTYLE
  1
TABLEFORMAT_BEGIN
 90
        5
170
     1
 91
        0
 92
        0
 62
   257
 93
        1
300
CONTENTFORMAT
  1
CONTENTFORMAT_BEGIN
 90
        0
 91
        0
 92
      512
 93
        0
300

 40
0.0
140
1.0
 94
        2
 62
     0
340
55
144
0.18
309
CONTENTFORMAT_END
171
     1
301
MARGIN
  1
CELLMARGIN_BEGIN
 40
1.5
 40
1.5
 40
1.5
 40
1.5
 40
0.18
 40
0.18
309
CELLMARGIN_END
 94
        0
309
TABLEFORMAT_END
  1
CELLSTYLE_BEGIN
 90
        3
 91
        2
300
_DATA
309
CELLSTYLE_END
  0
ENDSEC
  0
EOF
