  0
SECTION
  2
HEADER
  9
$ACADVER
  1
AC1027
  9
$ACADMAINTVER
 70
   125
  9
$DWGCODEPAGE
  3
ANSI_1252
  9
$LASTSAVEDBY
  1
jaswalh
  9
$REQUIREDVERSIONS
160
                 0
  9
$INSBASE
 10
0.0
 20
0.0
 30
0.0
  9
$EXTMIN
 10
56.890126
 20
88.24766
 30
0.0
  9
$EXTMAX
 10
339.214537
 20
231.537468
 30
0.0
  9
$LIMMIN
 10
0.0
 20
0.0
  9
$LIMMAX
 10
420.0
 20
297.0
  9
$ORTHOMODE
 70
     0
  9
$REGENMODE
 70
     1
  9
$FILLMODE
 70
     1
  9
$QTEXTMODE
 70
     0
  9
$MIRRTEXT
 70
     0
  9
$LTSCALE
 40
0.75
  9
$ATTMODE
 70
     1
  9
$TEXTSIZE
 40
3.5
  9
$TRACEWID
 40
1.0
  9
$TEXTSTYLE
  7
Standard
  9
$CLAYER
  8
0
  9
$CELTYPE
  6
ByLayer
  9
$CECOLOR
 62
   256
  9
$CELTSCALE
 40
1.0
  9
$DISPSILH
 70
     0
  9
$DIMSCALE
 40
1.0
  9
$DIMASZ
 40
3.5
  9
$DIMEXO
 40
2.1
  9
$DIMDLI
 40
10.5
  9
$DIMRND
 40
0.0
  9
$DIMDLE
 40
0.0
  9
$DIMEXE
 40
2.1
  9
$DIMTP
 40
0.1
  9
$DIMTM
 40
0.1
  9
$DIMTXT
 40
3.5
  9
$DIMCEN
 40
0.0
  9
$DIMTSZ
 40
0.0
  9
$DIMTOL
 70
     0
  9
$DIMLIM
 70
     0
  9
$DIMTIH
 70
     0
  9
$DIMTOH
 70
     0
  9
$DIMSE1
 70
     0
  9
$DIMSE2
 70
     0
  9
$DIMTAD
 70
     1
  9
$DIMZIN
 70
    12
  9
$DIMBLK
  1

  9
$DIMASO
 70
     1
  9
$DIMSHO
 70
     1
  9
$DIMPOST
  1

  9
$DIMAPOST
  1

  9
$DIMALT
 70
     0
  9
$DIMALTD
 70
     2
  9
$DIMALTF
 40
0.03937
  9
$DIMLFAC
 40
1.0
  9
$DIMTOFL
 70
     1
  9
$DIMTVP
 40
0.0
  9
$DIMTIX
 70
     0
  9
$DIMSOXD
 70
     0
  9
$DIMSAH
 70
     0
  9
$DIMBLK1
  1

  9
$DIMBLK2
  1

  9
$DIMSTYLE
  2
Dim-ISO-25
  9
$DIMCLRD
 70
     0
  9
$DIMCLRE
 70
     0
  9
$DIMCLRT
 70
     0
  9
$DIMTFAC
 40
0.714286
  9
$DIMGAP
 40
1.4
  9
$DIMJUST
 70
     0
  9
$DIMSD1
 70
     0
  9
$DIMSD2
 70
     0
  9
$DIMTOLJ
 70
     0
  9
$DIMTZIN
 70
    12
  9
$DIMALTZ
 70
    12
  9
$DIMALTTZ
 70
    12
  9
$DIMUPT
 70
     0
  9
$DIMDEC
 70
     2
  9
$DIMTDEC
 70
     2
  9
$DIMALTU
 70
     2
  9
$DIMALTTD
 70
     2
  9
$DIMTXSTY
  7
Standard
  9
$DIMAUNIT
 70
     0
  9
$DIMADEC
 70
     2
  9
$DIMALTRND
 40
0.0
  9
$DIMAZIN
 70
     3
  9
$DIMDSEP
 70
    46
  9
$DIMATFIT
 70
     3
  9
$DIMFRAC
 70
     0
  9
$DIMLDRBLK
  1

  9
$DIMLUNIT
 70
     2
  9
$DIMLWD
 70
    -2
  9
$DIMLWE
 70
    -2
  9
$DIMTMOVE
 70
     0
  9
$DIMFXL
 40
1.0
  9
$DIMFXLON
 70
     0
  9
$DIMJOGANG
 40
0.785398
  9
$DIMTFILL
 70
     0
  9
$DIMTFILLCLR
 70
     0
  9
$DIMARCSYM
 70
     0
  9
$DIMLTYPE
  6

  9
$DIMLTEX1
  6

  9
$DIMLTEX2
  6

  9
$DIMTXTDIRECTION
 70
     0
  9
$LUNITS
 70
     2
  9
$LUPREC
 70
     4
  9
$SKETCHINC
 40
1.0
  9
$FILLETRAD
 40
0.0
  9
$AUNITS
 70
     0
  9
$AUPREC
 70
     0
  9
$MENU
  1
.
  9
$ELEVATION
 40
0.0
  9
$PELEVATION
 40
0.0
  9
$THICKNESS
 40
0.0
  9
$LIMCHECK
 70
     0
  9
$CHAMFERA
 40
0.0
  9
$CHAMFERB
 40
0.0
  9
$CHAMFERC
 40
0.0
  9
$CHAMFERD
 40
0.0
  9
$SKPOLY
 70
     0
  9
$TDCREATE
 40
2460760.469328704
  9
$TDUCREATE
 40
2460760.427662037
  9
$TDUPDATE
 40
2460760.469328704
  9
$TDUUPDATE
 40
2460760.427662037
  9
$TDINDWG
 40
0.0000000000
  9
$TDUSRTIMER
 40
0.0000000000
  9
$USRTIMER
 70
     1
  9
$ANGBASE
 50
0.0
  9
$ANGDIR
 70
     0
  9
$PDMODE
 70
     0
  9
$PDSIZE
 40
0.0
  9
$PLINEWID
 40
0.0
  9
$SPLFRAME
 70
     0
  9
$SPLINETYPE
 70
     6
  9
$SPLINESEGS
 70
     8
  9
$HANDSEED
  5
3D8
  9
$SURFTAB1
 70
     6
  9
$SURFTAB2
 70
     6
  9
$SURFTYPE
 70
     6
  9
$SURFU
 70
     6
  9
$SURFV
 70
     6
  9
$UCSBASE
  2

  9
$UCSNAME
  2

  9
$UCSORG
 10
0.0
 20
0.0
 30
0.0
  9
$UCSXDIR
 10
1.0
 20
0.0
 30
0.0
  9
$UCSYDIR
 10
0.0
 20
1.0
 30
0.0
  9
$UCSORTHOREF
  2

  9
$UCSORTHOVIEW
 70
     0
  9
$UCSORGTOP
 10
0.0
 20
0.0
 30
0.0
  9
$UCSORGBOTTOM
 10
0.0
 20
0.0
 30
0.0
  9
$UCSORGLEFT
 10
0.0
 20
0.0
 30
0.0
  9
$UCSORGRIGHT
 10
0.0
 20
0.0
 30
0.0
  9
$UCSORGFRONT
 10
0.0
 20
0.0
 30
0.0
  9
$UCSORGBACK
 10
0.0
 20
0.0
 30
0.0
  9
$PUCSBASE
  2

  9
$PUCSNAME
  2

  9
$PUCSORG
 10
0.0
 20
0.0
 30
0.0
  9
$PUCSXDIR
 10
1.0
 20
0.0
 30
0.0
  9
$PUCSYDIR
 10
0.0
 20
1.0
 30
0.0
  9
$PUCSORTHOREF
  2

  9
$PUCSORTHOVIEW
 70
     0
  9
$PUCSORGTOP
 10
0.0
 20
0.0
 30
0.0
  9
$PUCSORGBOTTOM
 10
0.0
 20
0.0
 30
0.0
  9
$PUCSORGLEFT
 10
0.0
 20
0.0
 30
0.0
  9
$PUCSORGRIGHT
 10
0.0
 20
0.0
 30
0.0
  9
$PUCSORGFRONT
 10
0.0
 20
0.0
 30
0.0
  9
$PUCSORGBACK
 10
0.0
 20
0.0
 30
0.0
  9
$USERI1
 70
     0
  9
$USERI2
 70
     0
  9
$USERI3
 70
     0
  9
$USERI4
 70
     0
  9
$USERI5
 70
     0
  9
$USERR1
 40
0.0
  9
$USERR2
 40
0.0
  9
$USERR3
 40
0.0
  9
$USERR4
 40
0.0
  9
$USERR5
 40
0.0
  9
$WORLDVIEW
 70
     1
  9
$SHADEDGE
 70
     3
  9
$SHADEDIF
 70
    70
  9
$TILEMODE
 70
     1
  9
$MAXACTVP
 70
    64
  9
$PINSBASE
 10
0.0
 20
0.0
 30
0.0
  9
$PLIMCHECK
 70
     0
  9
$PEXTMIN
 10
1.000000E+20
 20
1.000000E+20
 30
1.000000E+20
  9
$PEXTMAX
 10
-1.000000E+20
 20
-1.000000E+20
 30
-1.000000E+20
  9
$PLIMMIN
 10
0.0
 20
0.0
  9
$PLIMMAX
 10
12.0
 20
9.0
  9
$UNITMODE
 70
     0
  9
$VISRETAIN
 70
     1
  9
$PLINEGEN
 70
     0
  9
$PSLTSCALE
 70
     1
  9
$TREEDEPTH
 70
  3020
  9
$CMLSTYLE
  2
Standard
  9
$CMLJUST
 70
     0
  9
$CMLSCALE
 40
20.0
  9
$PROXYGRAPHICS
 70
     1
  9
$MEASUREMENT
 70
     1
  9
$CELWEIGHT
370
    -1
  9
$ENDCAPS
280
     0
  9
$JOINSTYLE
280
     0
  9
$LWDISPLAY
290
     0
  9
$INSUNITS
 70
     4
  9
$HYPERLINKBASE
  1

  9
$STYLESHEET
  1

  9
$XEDIT
290
     1
  9
$CEPSNTYPE
380
     0
  9
$PSTYLEMODE
290
     1
  9
$FINGERPRINTGUID
  2
{E58CE053-DC81-7C46-9349-33E585BCCDD7}
  9
$VERSIONGUID
  2
{FB8D5081-5BCD-0E43-A81A-74EAB0FDFB17}
  9
$EXTNAMES
290
     1
  9
$PSVPSCALE
 40
0.0
  9
$OLESTARTUP
290
     0
  9
$SORTENTS
280
   127
  9
$INDEXCTL
280
     0
  9
$HIDETEXT
280
     1
  9
$XCLIPFRAME
280
     0
  9
$HALOGAP
280
     0
  9
$OBSCOLOR
 70
   257
  9
$OBSLTYPE
280
     0
  9
$INTERSECTIONDISPLAY
280
     0
  9
$INTERSECTIONCOLOR
 70
   257
  9
$DIMASSOC
280
     2
  9
$PROJECTNAME
  1

  9
$CAMERADISPLAY
290
     0
  9
$LENSLENGTH
 40
50.0
  9
$CAMERAHEIGHT
 40
0.0
  9
$STEPSPERSEC
 40
2.0
  9
$STEPSIZE
 40
6.0
  9
$3DDWFPREC
 40
2.0
  9
$PSOLWIDTH
 40
5.0
  9
$PSOLHEIGHT
 40
80.0
  9
$LOFTANG1
 40
1.570796
  9
$LOFTANG2
 40
1.570796
  9
$LOFTMAG1
 40
0.0
  9
$LOFTMAG2
 40
0.0
  9
$LOFTPARAM
 70
     7
  9
$LOFTNORMALS
280
     1
  9
$LATITUDE
 40
37.795
  9
$LONGITUDE
 40
-122.394
  9
$NORTHDIRECTION
 40
0.0
  9
$TIMEZONE
 70
 -8000
  9
$LIGHTGLYPHDISPLAY
280
     1
  9
$TILEMODELIGHTSYNCH
280
     1
  9
$CMATERIAL
347
11
  9
$SOLIDHIST
280
     0
  9
$SHOWHIST
280
     1
  9
$DWFFRAME
280
     2
  9
$DGNFRAME
280
     0
  9
$REALWORLDSCALE
290
     1
  9
$INTERFERECOLOR
 62
     1
  9
$INTERFEREOBJVS
345
33
  9
$INTERFEREVPVS
346
30
  9
$CSHADOW
280
     0
  9
$SHADOWPLANELOCATION
 40
0.0
  0
ENDSEC
  0
SECTION
  2
CLASSES
  0
CLASS
  1
ACDBDICTIONARYWDFLT
  2
AcDbDictionaryWithDefault
  3
ObjectDBX Classes
 90
        0
 91
        1
280
     0
281
     0
  0
CLASS
  1
MATERIAL
  2
AcDbMaterial
  3
ObjectDBX Classes
 90
     1153
 91
        3
280
     0
281
     0
  0
CLASS
  1
VISUALSTYLE
  2
AcDbVisualStyle
  3
ObjectDBX Classes
 90
     4095
 91
       24
280
     0
281
     0
  0
CLASS
  1
SCALE
  2
AcDbScale
  3
ObjectDBX Classes
 90
     1153
 91
       17
280
     0
281
     0
  0
CLASS
  1
TABLESTYLE
  2
AcDbTableStyle
  3
ObjectDBX Classes
 90
     4095
 91
        1
280
     0
281
     0
  0
CLASS
  1
MLEADERSTYLE
  2
AcDbMLeaderStyle
  3
ACDB_MLEADERSTYLE_CLASS
 90
     4095
 91
        1
280
     0
281
     0
  0
CLASS
  1
ACDBSECTIONVIEWSTYLE
  2
AcDbSectionViewStyle
  3
ObjectDBX Classes
 90
     1025
 91
        1
280
     0
281
     0
  0
CLASS
  1
ACDBDETAILVIEWSTYLE
  2
AcDbDetailViewStyle
  3
ObjectDBX Classes
 90
     1025
 91
        1
280
     0
281
     0
  0
CLASS
  1
ACMESCOPE
  2
AcMeScope
  3
AcMeServices
 90
     1024
 91
        1
280
     0
281
     0
  0
CLASS
  1
ACMECOMMANDHISTORY
  2
AcMeCommandHistory
  3
AcMeServices
 90
     1024
 91
        1
280
     0
281
     0
  0
CLASS
  1
ACIMSYSVARMAN
  2
AcImSysVarManager
  3
AcMeServices
 90
     1024
 91
        1
280
     0
281
     0
  0
CLASS
  1
ACIMINTSYSVAR
  2
AcImIntSysVar
  3
AcMeServices
 90
     1024
 91
        1
280
     0
281
     0
  0
CLASS
  1
ACMESTATEMGR
  2
AcMeStateMgr
  3
AcMeServices
 90
     1024
 91
        1
280
     0
281
     0
  0
CLASS
  1
ACGREFMASTER
  2
AcGrefMaster
  3
AcAttribServices
 90
     1024
 91
        1
280
     0
281
     0
  0
CLASS
  1
SORTENTSTABLE
  2
AcDbSortentsTable
  3
ObjectDBX Classes
 90
        0
 91
        1
280
     0
281
     0
  0
CLASS
  1
DICTIONARYVAR
  2
AcDbDictionaryVar
  3
ObjectDBX Classes
 90
        0
 91
        6
280
     0
281
     0
  0
CLASS
  1
CELLSTYLEMAP
  2
AcDbCellStyleMap
  3
ObjectDBX Classes
 90
     1152
 91
        1
280
     0
281
     0
  0
ENDSEC
  0
SECTION
  2
TABLES
  0
TABLE
  2
VPORT
  5
8
330
0
100
AcDbSymbolTable
 70
     1
1001
ACAD
1000
DbSaveVer
1071
      377
  0
VPORT
  5
57
330
8
100
AcDbSymbolTableRecord
100
AcDbViewportTableRecord
  2
*Active
 70
     0
 10
0.0
 20
0.0
 11
1.0
 21
1.0
 12
198.052331
 22
159.892564
 13
0.0
 23
0.0
 14
0.5
 24
0.5
 15
0.0
 25
0.0
 16
0.0
 26
0.0
 36
1.0
 17
0.0
 27
0.0
 37
0.0
 40
179.981812
 41
1.568627
 42
50.0
 43
0.0
 44
0.0
 50
0.0
 51
0.0
 71
     0
 72
 20000
 73
     1
 74
     0
 75
     0
 76
     0
 77
     0
 78
     0
281
     0
 65
     1
110
0.0
120
0.0
130
0.0
111
1.0
121
0.0
131
0.0
112
0.0
122
1.0
132
0.0
 79
     0
146
0.0
348
2F
 60
     3
 61
     5
292
     1
282
     1
141
0.0
142
0.0
 63
   250
421
  3355443
  0
ENDTAB
  0
TABLE
  2
LTYPE
  5
5
330
0
100
AcDbSymbolTable
 70
    14
  0
LTYPE
  5
5B
330
5
100
AcDbSymbolTableRecord
100
AcDbLinetypeTableRecord
  2
ByBlock
 70
     0
  3

 72
    65
 73
     0
 40
0.0
  0
LTYPE
  5
5C
330
5
100
AcDbSymbolTableRecord
100
AcDbLinetypeTableRecord
  2
ByLayer
 70
     0
  3

 72
    65
 73
     0
 40
0.0
  0
LTYPE
  5
5D
330
5
100
AcDbSymbolTableRecord
100
AcDbLinetypeTableRecord
  2
Continuous
 70
     0
  3
Solid line
 72
    65
 73
     0
 40
0.0
  0
LTYPE
  5
81
330
5
100
AcDbSymbolTableRecord
100
AcDbLinetypeTableRecord
  2
HIDDEN
 70
     0
  3
Hidden __ __ __ __ __ __ __ __ __ __ __ __ __ _
 72
    65
 73
     2
 40
9.525
 49
6.35
 74
     0
 49
-3.175
 74
     0
  0
LTYPE
  5
82
330
5
100
AcDbSymbolTableRecord
100
AcDbLinetypeTableRecord
  2
PHANTOM2
 70
     0
  3
Phantom (.5x) ___ _ _ ___ _ _ ___ _ _ ___ _ _
 72
    65
 73
     6
 40
31.75
 49
15.875
 74
     0
 49
-3.175
 74
     0
 49
3.175
 74
     0
 49
-3.175
 74
     0
 49
3.175
 74
     0
 49
-3.175
 74
     0
  0
LTYPE
  5
83
330
5
100
AcDbSymbolTableRecord
100
AcDbLinetypeTableRecord
  2
CENTER
 70
     0
  3
Center ____ _ ____ _ ____ _ ____ _ ____ _ ____
 72
    65
 73
     4
 40
50.8
 49
31.75
 74
     0
 49
-6.35
 74
     0
 49
6.35
 74
     0
 49
-6.35
 74
     0
  0
LTYPE
  5
96
330
5
100
AcDbSymbolTableRecord
100
AcDbLinetypeTableRecord
  2
AM_ISO02W050
 70
     0
  3
__ __ __ __ __ __ __ __ __ __ __ __ __ __ __
 72
    65
 73
     2
 40
7.5
 49
6.0
 74
     0
 49
-1.5
 74
     0
  0
LTYPE
  5
97
330
5
100
AcDbSymbolTableRecord
100
AcDbLinetypeTableRecord
  2
AM_ISO08W050
 70
     0
  3
____ . ____ . ____ . ____ . ____ . ____ . ____
 72
    65
 73
     4
 40
18.0
 49
12.0
 74
     0
 49
-1.5
 74
     0
 49
3.0
 74
     0
 49
-1.5
 74
     0
  0
LTYPE
  5
98
330
5
100
AcDbSymbolTableRecord
100
AcDbLinetypeTableRecord
  2
AM_ISO09W050
 70
     0
  3
_____ . . _____ . . _____ . . ____ .. ____
 72
    65
 73
     6
 40
22.5
 49
12.0
 74
     0
 49
-1.5
 74
     0
 49
3.0
 74
     0
 49
-1.5
 74
     0
 49
3.0
 74
     0
 49
-1.5
 74
     0
  0
LTYPE
  5
99
330
5
100
AcDbSymbolTableRecord
100
AcDbLinetypeTableRecord
  2
Amconstr
 70
     0
  3
_______________________
 72
    65
 73
     2
 40
9999.0
 49
9999.0
 74
     0
 49
0.0
 74
     0
  0
LTYPE
  5
9A
330
5
100
AcDbSymbolTableRecord
100
AcDbLinetypeTableRecord
  2
AM_ISO08W050x2
 70
     0
  3
__ . __ . __ . __ . __ . __
 72
    65
 73
     4
 40
9.0
 49
6.0
 74
     0
 49
-0.75
 74
     0
 49
1.5
 74
     0
 49
-0.75
 74
     0
  0
LTYPE
  5
9B
330
5
100
AcDbSymbolTableRecord
100
AcDbLinetypeTableRecord
  2
AM_ISO02W050x2
 70
     0
  3
 _ _ _ _ _ _ _ _ _ _ _ _
 72
    65
 73
     2
 40
3.75
 49
3.0
 74
     0
 49
-0.75
 74
     0
  0
LTYPE
  5
9C
330
5
100
AcDbSymbolTableRecord
100
AcDbLinetypeTableRecord
  2
Amzigzag
 70
     0
  3
/\/-/\/-/\/-/\/-/\/-/\/
 72
    65
 73
     2
 40
11.0001
 49
0.0001
 74
     4
 75
   136
340
93
 46
0.04
 50
0.0
 44
0.0
 45
0.0
 49
-11.0
 74
     0
  0
LTYPE
  5
9D
330
5
100
AcDbSymbolTableRecord
100
AcDbLinetypeTableRecord
  2
ACISOWELD
 70
     0
  3
_ _ _ _ _
 72
    65
 73
     2
 40
2.0
 49
2.0
 74
     0
 49
-1.0
 74
     0
  0
LTYPE
  5
9E
330
5
100
AcDbSymbolTableRecord
100
AcDbLinetypeTableRecord
  2
ACISOTGL
 70
     0
  3
_ _ _ _ _
 72
    65
 73
     2
 40
3.0
 49
2.0
 74
     0
 49
-1.0
 74
     0
  0
LTYPE
  5
9F
330
5
100
AcDbSymbolTableRecord
100
AcDbLinetypeTableRecord
  2
ACISOTGB
 70
     0
  3
__ . . __ . .
 72
    65
 73
     6
 40
9.0
 49
4.0
 74
     0
 49
-1.0
 74
     0
 49
1.0
 74
     0
 49
-1.0
 74
     0
 49
1.0
 74
     0
 49
-1.0
 74
     0
  0
ENDTAB
  0
TABLE
  2
LAYER
  5
2
330
0
100
AcDbSymbolTable
 70
     6
  0
LAYER
  5
54
330
2
100
AcDbSymbolTableRecord
100
AcDbLayerTableRecord
  2
0
 70
     0
 62
     7
  6
Continuous
370
    -3
390
F
347
21
348
0
1001
AcAecLayerStandard
1000

1000

  0
LAYER
  5
79
330
2
100
AcDbSymbolTableRecord
100
AcDbLayerTableRecord
  2
Defpoints
 70
     0
 62
     7
  6
Continuous
290
     0
370
    -3
390
F
347
21
348
0
1001
AcAecLayerStandard
1000

1000

  0
LAYER
  5
AB
330
2
100
AcDbSymbolTableRecord
100
AcDbLayerTableRecord
  2
Visible
 70
     0
 62
     7
  6
Continuous
370
    50
390
F
347
21
348
0
  0
LAYER
  5
1DC
330
2
100
AcDbSymbolTableRecord
100
AcDbLayerTableRecord
  2
FD_Dimensions
 70
     0
 62
     7
  6
Continuous
370
    25
390
F
347
21
348
0
  0
ENDTAB
  0
TABLE
  2
STYLE
  5
3
330
0
100
AcDbSymbolTable
 70
     4
  0
STYLE
  5
55
330
3
100
AcDbSymbolTableRecord
100
AcDbTextStyleTableRecord
  2
Standard
 70
     0
 40
0.0
 41
1.0
 50
0.0
 71
     0
 42
3.5
  3
arial.ttf
  4

1001
ACAD
1000
Arial
1071
       34
  0
STYLE
  5
5A
330
3
100
AcDbSymbolTableRecord
100
AcDbTextStyleTableRecord
  2
Annotative
 70
     0
 40
0.0
 41
1.0
 50
0.0
 71
     0
 42
0.2
  3
txt
  4

1001
AcadAnnotative
1000
AnnotativeData
1002
{
1070
     1
1070
     1
1002
}
  0
STYLE
  5
93
330
3
100
AcDbSymbolTableRecord
100
AcDbTextStyleTableRecord
  2

 70
     1
 40
0.0
 41
1.0
 50
0.0
 71
     0
 42
10.0
  3
genltshp.shx
  4

  0
STYLE
  5
94
330
3
100
AcDbSymbolTableRecord
100
AcDbTextStyleTableRecord
  2
ACISOGDT
 70
     0
 40
0.0
 41
1.0
 50
0.0
 71
     0
 42
10.0
  3
amgdt.shx
  4

  0
ENDTAB
  0
TABLE
  2
VIEW
  5
6
330
0
100
AcDbSymbolTable
 70
     0
  0
ENDTAB
  0
TABLE
  2
UCS
  5
7
330
0
100
AcDbSymbolTable
 70
     0
  0
ENDTAB
  0
TABLE
  2
APPID
  5
9
330
0
100
AcDbSymbolTable
 70
    21
  0
APPID
  5
56
330
9
100
AcDbSymbolTableRecord
100
AcDbRegAppTableRecord
  2
ACAD
 70
     0
  0
APPID
  5
5E
330
9
100
AcDbSymbolTableRecord
100
AcDbRegAppTableRecord
  2
AcadAnnotative
 70
     0
  0
APPID
  5
78
330
9
100
AcDbSymbolTableRecord
100
AcDbRegAppTableRecord
  2
ACAD_PSEXT
 70
     0
  0
APPID
  5
7A
330
9
100
AcDbSymbolTableRecord
100
AcDbRegAppTableRecord
  2
MCAD_NO_VIS
 70
     0
  0
APPID
  5
7B
330
9
100
AcDbSymbolTableRecord
100
AcDbRegAppTableRecord
  2
ACAD_TEMP_GRAPHIC
 70
     0
  0
APPID
  5
84
330
9
100
AcDbSymbolTableRecord
100
AcDbRegAppTableRecord
  2
ACAD_DSTYLE_DIMJAG
 70
     0
  0
APPID
  5
85
330
9
100
AcDbSymbolTableRecord
100
AcDbRegAppTableRecord
  2
ACAD_DSTYLE_DIMTALN
 70
     0
  0
APPID
  5
86
330
9
100
AcDbSymbolTableRecord
100
AcDbRegAppTableRecord
  2
ACAD_NAV_VCDISPLAY
 70
     0
  0
APPID
  5
87
330
9
100
AcDbSymbolTableRecord
100
AcDbRegAppTableRecord
  2
ACAD_DSTYLE_DIMBREAK
 70
     0
  0
APPID
  5
88
330
9
100
AcDbSymbolTableRecord
100
AcDbRegAppTableRecord
  2
ACAD_TC
 70
     0
  0
APPID
  5
89
330
9
100
AcDbSymbolTableRecord
100
AcDbRegAppTableRecord
  2
FUSIONCURRENTTITLEBLOCK
 70
     0
  0
APPID
  5
8A
330
9
100
AcDbSymbolTableRecord
100
AcDbRegAppTableRecord
  2
AcSynergy
 70
     0
  0
APPID
  5
8B
330
9
100
AcDbSymbolTableRecord
100
AcDbRegAppTableRecord
  2
GENIUS_GENSCREG_15
 70
     0
  0
APPID
  5
8C
330
9
100
AcDbSymbolTableRecord
100
AcDbRegAppTableRecord
  2
GENIUS_GENOBJ-N-SDF_13
 70
     0
  0
APPID
  5
8D
330
9
100
AcDbSymbolTableRecord
100
AcDbRegAppTableRecord
  2
GENIUS_GENODEF_13
 70
     0
  0
APPID
  5
8E
330
9
100
AcDbSymbolTableRecord
100
AcDbRegAppTableRecord
  2
ACAD_DIMASSOC_CALC_DIMLFAC
 70
     0
  0
APPID
  5
8F
330
9
100
AcDbSymbolTableRecord
100
AcDbRegAppTableRecord
  2
ACAD_DIMASSOC_DIMLFAC
 70
     0
  0
APPID
  5
90
330
9
100
AcDbSymbolTableRecord
100
AcDbRegAppTableRecord
  2
ACAD_DIMASSOC_OVERRIDDEN_DIMLFAC
 70
     0
  0
APPID
  5
91
330
9
100
AcDbSymbolTableRecord
100
AcDbRegAppTableRecord
  2
ACAD_DSTYLE_DIMJAG_POSITION
 70
     0
  0
APPID
  5
92
330
9
100
AcDbSymbolTableRecord
100
AcDbRegAppTableRecord
  2
ACATTRIBSERVICES
 70
     0
  0
APPID
  5
393
330
9
100
AcDbSymbolTableRecord
100
AcDbRegAppTableRecord
  2
AcAecLayerStandard
 70
     0
  0
ENDTAB
  0
TABLE
  2
DIMSTYLE
  5
A
330
0
100
AcDbSymbolTable
 70
     4
100
AcDbDimStyleTable
 71
     1
340
A3
  0
DIMSTYLE
105
58
330
A
100
AcDbSymbolTableRecord
100
AcDbDimStyleTableRecord
  2
Standard
 70
     0
 41
3.5
 42
2.1
 43
10.5
 44
2.1
 78
    12
 79
     3
140
3.5
143
0.03937
146
0.714286
147
1.4
179
     2
271
     2
272
     2
284
    12
340
55
  0
DIMSTYLE
105
59
330
A
100
AcDbSymbolTableRecord
100
AcDbDimStyleTableRecord
  2
Annotative
 70
     0
 40
0.0
 41
3.5
 42
2.1
 43
10.5
 44
2.1
 73
     0
 74
     0
 77
     1
 78
    12
 79
     3
140
3.5
141
2.5
143
0.03937
146
0.714286
147
1.4
171
     3
172
     1
179
     2
271
     2
272
     2
274
     3
278
    44
283
     0
284
    12
340
55
1001
AcadAnnotative
1000
AnnotativeData
1002
{
1070
     1
1070
     1
1002
}
  0
DIMSTYLE
105
A2
330
A
100
AcDbSymbolTableRecord
100
AcDbDimStyleTableRecord
  2
ISO-25
 70
     0
  4
in
 41
3.5
 42
2.1
 43
10.5
 44
2.1
 47
0.1
 48
0.1
 73
     0
 74
     0
 77
     1
 78
    12
 79
     3
140
3.5
141
0.0
143
0.03937
146
0.714286
147
1.4
171
     4
172
     1
176
   256
177
   256
178
   256
179
     2
271
     2
272
     2
274
     4
283
     0
284
    12
285
     8
340
55
1001
ACAD_DSTYLE_DIMJAG
1070
   388
1040
1.5
1001
ACAD_DSTYLE_DIMTALN
1070
   392
1070
     1
1001
ACAD_DSTYLE_DIMBREAK
1070
   391
1040
3.5
  0
DIMSTYLE
105
A3
102
{ACAD_REACTORS
330
1E9
330
1F6
330
1DB
102
}
330
A
100
AcDbSymbolTableRecord
100
AcDbDimStyleTableRecord
  2
Dim-ISO-25
 70
     0
 41
3.5
 42
2.1
 43
10.5
 44
2.1
 47
0.1
 48
0.1
 73
     0
 74
     0
 77
     1
 78
    12
 79
     3
140
3.5
141
0.0
143
0.03937
146
0.714286
147
1.4
172
     1
179
     2
271
     2
272
     2
283
     0
284
    12
285
    12
286
    12
340
55
1001
ACAD_DSTYLE_DIMJAG
1070
   388
1040
1.5
1001
ACAD_DSTYLE_DIMTALN
1070
   392
1070
     1
1001
ACAD_DSTYLE_DIMBREAK
1070
   391
1040
3.5
  0
ENDTAB
  0
TABLE
  2
BLOCK_RECORD
  5
1
330
0
100
AcDbSymbolTable
 70
     9
  0
BLOCK_RECORD
  5
70
102
{ACAD_XDICTIONARY
360
A4
102
}
330
1
100
AcDbSymbolTableRecord
100
AcDbBlockTableRecord
  2
*Model_Space
340
73
 70
     0
280
     1
281
     0
  0
BLOCK_RECORD
  5
6C
330
1
100
AcDbSymbolTableRecord
100
AcDbBlockTableRecord
  2
*Paper_Space
340
6F
 70
     0
280
     1
281
     0
  0
BLOCK_RECORD
  5
74
330
1
100
AcDbSymbolTableRecord
100
AcDbBlockTableRecord
  2
*Paper_Space0
340
77
 70
     0
280
     1
281
     0
  0
BLOCK_RECORD
  5
1DD
330
1
100
AcDbSymbolTableRecord
100
AcDbBlockTableRecord
  2
*D3
340
0
 70
     0
280
     1
281
     0
  0
BLOCK_RECORD
  5
1EA
330
1
100
AcDbSymbolTableRecord
100
AcDbBlockTableRecord
  2
*D4
340
0
 70
     0
280
     1
281
     0
  0
BLOCK_RECORD
  5
1F7
330
1
100
AcDbSymbolTableRecord
100
AcDbBlockTableRecord
  2
*D5
340
0
 70
     0
280
     1
281
     0
  0
BLOCK_RECORD
  5
204
330
1
100
AcDbSymbolTableRecord
100
AcDbBlockTableRecord
  2
*D6
340
0
 70
     0
280
     1
281
     0
  0
BLOCK_RECORD
  5
210
330
1
100
AcDbSymbolTableRecord
100
AcDbBlockTableRecord
  2
*D7
340
0
 70
     0
280
     1
281
     0
  0
BLOCK_RECORD
  5
21C
330
1
100
AcDbSymbolTableRecord
100
AcDbBlockTableRecord
  2
*D8
340
0
 70
     0
280
     1
281
     0
  0
ENDTAB
  0
ENDSEC
  0
SECTION
  2
BLOCKS
  0
BLOCK
  5
71
330
70
100
AcDbEntity
  8
0
100
AcDbBlockBegin
  2
*Model_Space
 70
     0
 10
0.0
 20
0.0
 30
0.0
  3
*Model_Space
  1

  0
ENDBLK
  5
72
330
70
100
AcDbEntity
  8
0
100
AcDbBlockEnd
  0
BLOCK
  5
6D
330
6C
100
AcDbEntity
 67
     1
  8
0
100
AcDbBlockBegin
  2
*Paper_Space
 70
     0
 10
0.0
 20
0.0
 30
0.0
  3
*Paper_Space
  1

  0
ENDBLK
  5
6E
330
6C
100
AcDbEntity
 67
     1
  8
0
100
AcDbBlockEnd
  0
BLOCK
  5
75
330
74
100
AcDbEntity
 67
     1
  8
0
100
AcDbBlockBegin
  2
*Paper_Space0
 70
     0
 10
0.0
 20
0.0
 30
0.0
  3
*Paper_Space0
  1

  0
ENDBLK
  5
76
330
74
100
AcDbEntity
 67
     1
  8
0
100
AcDbBlockEnd
  0
BLOCK
  5
1DE
330
1DD
100
AcDbEntity
  8
0
100
AcDbBlockBegin
  2
*D3
 70
     1
 10
0.0
 20
0.0
 30
0.0
  3
*D3
  1

  0
LINE
  5
1DF
330
1DD
100
AcDbEntity
  8
FD_Dimensions
 62
     0
440
 16777216
370
    -2
100
AcDbLine
 10
80.926016
 20
207.663458
 30
0.0
 11
80.926016
 21
228.663458
 31
0.0
  0
LINE
  5
1E0
330
1DD
100
AcDbEntity
  8
FD_Dimensions
 62
     0
440
 16777216
370
    -2
100
AcDbLine
 10
206.562876
 20
207.663458
 30
0.0
 11
206.562876
 21
228.663458
 31
0.0
  0
LINE
  5
1E1
330
1DD
100
AcDbEntity
  8
FD_Dimensions
 62
     0
440
 16777216
370
    -2
100
AcDbLine
 10
84.426016
 20
226.563458
 30
0.0
 11
203.062876
 21
226.563458
 31
0.0
  0
SOLID
  5
1E2
330
1DD
100
AcDbEntity
  8
FD_Dimensions
 62
     0
440
 16777216
100
AcDbTrace
 10
84.426016
 20
227.146791
 30
0.0
 11
84.426016
 21
225.980124
 31
0.0
 12
80.926016
 22
226.563458
 32
0.0
 13
80.926016
 23
226.563458
 33
0.0
  0
SOLID
  5
1E3
330
1DD
100
AcDbEntity
  8
FD_Dimensions
 62
     0
440
 16777216
100
AcDbTrace
 10
203.062876
 20
227.146791
 30
0.0
 11
203.062876
 21
225.980124
 31
0.0
 12
206.562876
 22
226.563458
 32
0.0
 13
206.562876
 23
226.563458
 33
0.0
  0
MTEXT
  5
1E4
330
1DD
100
AcDbEntity
  8
FD_Dimensions
 62
     0
440
 16777216
100
AcDbMText
 10
143.744446
 20
229.750463
 30
0.0
 40
3.5
 41
0.0
 46
0.0
 71
     5
 72
     1
  1
125
 73
     1
 44
1.0
  0
POINT
  5
1E5
330
1DD
100
AcDbEntity
  8
Defpoints
 62
     0
440
 16777216
100
AcDbPoint
 10
80.926016
 20
205.563458
 30
0.0
  0
POINT
  5
1E6
330
1DD
100
AcDbEntity
  8
Defpoints
 62
     0
440
 16777216
100
AcDbPoint
 10
206.562876
 20
205.563458
 30
0.0
  0
POINT
  5
1E7
330
1DD
100
AcDbEntity
  8
Defpoints
 62
     0
440
 16777216
100
AcDbPoint
 10
206.562876
 20
226.563458
 30
0.0
  0
ENDBLK
  5
1E8
330
1DD
100
AcDbEntity
  8
0
100
AcDbBlockEnd
  0
BLOCK
  5
1EB
330
1EA
100
AcDbEntity
  8
0
100
AcDbBlockBegin
  2
*D4
 70
     1
 10
0.0
 20
0.0
 30
0.0
  3
*D4
  1

  0
LINE
  5
1EC
330
1EA
100
AcDbEntity
  8
FD_Dimensions
 62
     0
440
 16777216
370
    -2
100
AcDbLine
 10
81.144446
 20
88.24766
 30
0.0
 11
59.764137
 21
88.24766
 31
0.0
  0
LINE
  5
1ED
330
1EA
100
AcDbEntity
  8
FD_Dimensions
 62
     0
440
 16777216
370
    -2
100
AcDbLine
 10
79.325997
 20
206.063439
 30
0.0
 11
59.764137
 21
206.063439
 31
0.0
  0
LINE
  5
1EE
330
1EA
100
AcDbEntity
  8
FD_Dimensions
 62
     0
440
 16777216
370
    -2
100
AcDbLine
 10
61.864137
 20
91.74766
 30
0.0
 11
61.864137
 21
202.563439
 31
0.0
  0
SOLID
  5
1EF
330
1EA
100
AcDbEntity
  8
FD_Dimensions
 62
     0
440
 16777216
100
AcDbTrace
 10
61.280804
 20
91.74766
 30
0.0
 11
62.44747
 21
91.74766
 31
0.0
 12
61.864137
 22
88.24766
 32
0.0
 13
61.864137
 23
88.24766
 33
0.0
  0
SOLID
  5
1F0
330
1EA
100
AcDbEntity
  8
FD_Dimensions
 62
     0
440
 16777216
100
AcDbTrace
 10
61.280804
 20
202.563439
 30
0.0
 11
62.44747
 21
202.563439
 31
0.0
 12
61.864137
 22
206.063439
 32
0.0
 13
61.864137
 23
206.063439
 33
0.0
  0
MTEXT
  5
1F1
330
1EA
100
AcDbEntity
  8
FD_Dimensions
 62
     0
440
 16777216
100
AcDbMText
 10
58.677132
 20
147.155549
 30
0.0
 40
3.5
 41
0.0
 46
0.0
 71
     5
 72
     1
  1
120
 11
0.0
 21
1.0
 31
0.0
 73
     1
 44
1.0
  0
POINT
  5
1F2
330
1EA
100
AcDbEntity
  8
Defpoints
 62
     0
440
 16777216
100
AcDbPoint
 10
83.244446
 20
88.24766
 30
0.0
  0
POINT
  5
1F3
330
1EA
100
AcDbEntity
  8
Defpoints
 62
     0
440
 16777216
100
AcDbPoint
 10
81.425997
 20
206.063439
 30
0.0
  0
POINT
  5
1F4
330
1EA
100
AcDbEntity
  8
Defpoints
 62
     0
440
 16777216
100
AcDbPoint
 10
61.864137
 20
206.063439
 30
0.0
  0
ENDBLK
  5
1F5
330
1EA
100
AcDbEntity
  8
0
100
AcDbBlockEnd
  0
BLOCK
  5
1F8
330
1F7
100
AcDbEntity
  8
0
100
AcDbBlockBegin
  2
*D5
 70
     1
 10
0.0
 20
0.0
 30
0.0
  3
*D5
  1

  0
LINE
  5
1F9
330
1F7
100
AcDbEntity
  8
FD_Dimensions
 62
     0
440
 16777216
370
    -2
100
AcDbLine
 10
306.201392
 20
207.663458
 30
0.0
 11
306.198724
 21
223.774221
 31
0.0
  0
LINE
  5
1FA
330
1F7
100
AcDbEntity
  8
FD_Dimensions
 62
     0
440
 16777216
370
    -2
100
AcDbLine
 10
338.201438
 20
207.389497
 30
0.0
 11
338.198723
 21
223.779521
 31
0.0
  0
LINE
  5
1FB
330
1F7
100
AcDbEntity
  8
FD_Dimensions
 62
     0
440
 16777216
370
    -2
100
AcDbLine
 10
309.699072
 20
221.674801
 30
0.0
 11
334.699071
 21
221.678941
 31
0.0
  0
SOLID
  5
1FC
330
1F7
100
AcDbEntity
  8
FD_Dimensions
 62
     0
440
 16777216
100
AcDbTrace
 10
309.698975
 20
222.258134
 30
0.0
 11
309.699168
 21
221.091468
 31
0.0
 12
306.199072
 22
221.674222
 32
0.0
 13
306.199072
 23
221.674222
 33
0.0
  0
SOLID
  5
1FD
330
1F7
100
AcDbEntity
  8
FD_Dimensions
 62
     0
440
 16777216
100
AcDbTrace
 10
334.698975
 20
222.262275
 30
0.0
 11
334.699168
 21
221.095608
 31
0.0
 12
338.199071
 22
221.679521
 32
0.0
 13
338.199071
 23
221.679521
 33
0.0
  0
MTEXT
  5
1FE
330
1F7
100
AcDbEntity
  8
FD_Dimensions
 62
     0
440
 16777216
100
AcDbMText
 10
322.198543
 20
224.86507
 30
0.0
 40
3.5
 41
0.0
 46
0.0
 71
     5
 72
     1
  1
32
 11
1.0
 21
0.000166
 31
0.0
 73
     1
 44
1.0
  0
POINT
  5
1FF
330
1F7
100
AcDbEntity
  8
Defpoints
 62
     0
440
 16777216
100
AcDbPoint
 10
306.20174
 20
205.563458
 30
0.0
  0
POINT
  5
200
330
1F7
100
AcDbEntity
  8
Defpoints
 62
     0
440
 16777216
100
AcDbPoint
 10
338.201785
 20
205.289497
 30
0.0
  0
POINT
  5
201
330
1F7
100
AcDbEntity
  8
Defpoints
 62
     0
440
 16777216
100
AcDbPoint
 10
338.199071
 20
221.679521
 30
0.0
  0
ENDBLK
  5
202
330
1F7
100
AcDbEntity
  8
0
100
AcDbBlockEnd
  0
BLOCK
  5
205
330
204
100
AcDbEntity
  8
0
100
AcDbBlockBegin
  2
*D6
 70
     1
 10
0.0
 20
0.0
 30
0.0
  3
*D6
  1

  0
LINE
  5
3AF
330
204
100
AcDbEntity
  8
FD_Dimensions
 62
     0
440
 16777216
370
    -2
100
AcDbLine
 10
80.926016
 20
207.663458
 30
0.0
 11
80.926016
 21
228.663458
 31
0.0
  0
LINE
  5
3B0
330
204
100
AcDbEntity
  8
FD_Dimensions
 62
     0
440
 16777216
370
    -2
100
AcDbLine
 10
206.562876
 20
207.663458
 30
0.0
 11
206.562876
 21
228.663458
 31
0.0
  0
LINE
  5
3B1
330
204
100
AcDbEntity
  8
FD_Dimensions
 62
     0
440
 16777216
370
    -2
100
AcDbLine
 10
84.426016
 20
226.563458
 30
0.0
 11
203.062876
 21
226.563458
 31
0.0
  0
SOLID
  5
3B2
330
204
100
AcDbEntity
  8
FD_Dimensions
 62
     0
440
 16777216
100
AcDbTrace
 10
84.426016
 20
227.146791
 30
0.0
 11
84.426016
 21
225.980124
 31
0.0
 12
80.926016
 22
226.563458
 32
0.0
 13
80.926016
 23
226.563458
 33
0.0
  0
SOLID
  5
3B3
330
204
100
AcDbEntity
  8
FD_Dimensions
 62
     0
440
 16777216
100
AcDbTrace
 10
203.062876
 20
227.146791
 30
0.0
 11
203.062876
 21
225.980124
 31
0.0
 12
206.562876
 22
226.563458
 32
0.0
 13
206.562876
 23
226.563458
 33
0.0
  0
MTEXT
  5
3B4
330
204
100
AcDbEntity
  8
FD_Dimensions
 62
     0
440
 16777216
100
AcDbMText
 10
143.744446
 20
229.750463
 30
0.0
 40
3.5
 41
0.0
 46
0.0
 71
     5
 72
     1
  1
125
 73
     1
 44
1.0
  0
POINT
  5
3B5
330
204
100
AcDbEntity
  8
Defpoints
 62
     0
440
 16777216
100
AcDbPoint
 10
80.926016
 20
205.563458
 30
0.0
  0
POINT
  5
3B6
330
204
100
AcDbEntity
  8
Defpoints
 62
     0
440
 16777216
100
AcDbPoint
 10
206.562876
 20
205.563458
 30
0.0
  0
POINT
  5
3B7
330
204
100
AcDbEntity
  8
Defpoints
 62
     0
440
 16777216
100
AcDbPoint
 10
206.562876
 20
226.563458
 30
0.0
  0
ENDBLK
  5
206
330
204
100
AcDbEntity
  8
0
100
AcDbBlockEnd
  0
BLOCK
  5
211
330
210
100
AcDbEntity
  8
0
100
AcDbBlockBegin
  2
*D7
 70
     1
 10
0.0
 20
0.0
 30
0.0
  3
*D7
  1

  0
LINE
  5
3B8
330
210
100
AcDbEntity
  8
FD_Dimensions
 62
     0
440
 16777216
370
    -2
100
AcDbLine
 10
81.144446
 20
88.24766
 30
0.0
 11
59.764137
 21
88.24766
 31
0.0
  0
LINE
  5
3B9
330
210
100
AcDbEntity
  8
FD_Dimensions
 62
     0
440
 16777216
370
    -2
100
AcDbLine
 10
79.325997
 20
206.063439
 30
0.0
 11
59.764137
 21
206.063439
 31
0.0
  0
LINE
  5
3BA
330
210
100
AcDbEntity
  8
FD_Dimensions
 62
     0
440
 16777216
370
    -2
100
AcDbLine
 10
61.864137
 20
91.74766
 30
0.0
 11
61.864137
 21
202.563439
 31
0.0
  0
SOLID
  5
3BB
330
210
100
AcDbEntity
  8
FD_Dimensions
 62
     0
440
 16777216
100
AcDbTrace
 10
61.280804
 20
91.74766
 30
0.0
 11
62.44747
 21
91.74766
 31
0.0
 12
61.864137
 22
88.24766
 32
0.0
 13
61.864137
 23
88.24766
 33
0.0
  0
SOLID
  5
3BC
330
210
100
AcDbEntity
  8
FD_Dimensions
 62
     0
440
 16777216
100
AcDbTrace
 10
61.280804
 20
202.563439
 30
0.0
 11
62.44747
 21
202.563439
 31
0.0
 12
61.864137
 22
206.063439
 32
0.0
 13
61.864137
 23
206.063439
 33
0.0
  0
MTEXT
  5
3BD
330
210
100
AcDbEntity
  8
FD_Dimensions
 62
     0
440
 16777216
100
AcDbMText
 10
58.677132
 20
147.155549
 30
0.0
 40
3.5
 41
0.0
 46
0.0
 71
     5
 72
     1
  1
120
 11
0.0
 21
1.0
 31
0.0
 73
     1
 44
1.0
  0
POINT
  5
3BE
330
210
100
AcDbEntity
  8
Defpoints
 62
     0
440
 16777216
100
AcDbPoint
 10
83.244446
 20
88.24766
 30
0.0
  0
POINT
  5
3BF
330
210
100
AcDbEntity
  8
Defpoints
 62
     0
440
 16777216
100
AcDbPoint
 10
81.425997
 20
206.063439
 30
0.0
  0
POINT
  5
3C0
330
210
100
AcDbEntity
  8
Defpoints
 62
     0
440
 16777216
100
AcDbPoint
 10
61.864137
 20
206.063439
 30
0.0
  0
ENDBLK
  5
212
330
210
100
AcDbEntity
  8
0
100
AcDbBlockEnd
  0
BLOCK
  5
21D
330
21C
100
AcDbEntity
  8
0
100
AcDbBlockBegin
  2
*D8
 70
     1
 10
0.0
 20
0.0
 30
0.0
  3
*D8
  1

  0
LINE
  5
3C1
330
21C
100
AcDbEntity
  8
FD_Dimensions
 62
     0
440
 16777216
370
    -2
100
AcDbLine
 10
306.201392
 20
207.663458
 30
0.0
 11
306.198724
 21
223.774221
 31
0.0
  0
LINE
  5
3C2
330
21C
100
AcDbEntity
  8
FD_Dimensions
 62
     0
440
 16777216
370
    -2
100
AcDbLine
 10
338.201438
 20
207.389497
 30
0.0
 11
338.198723
 21
223.779521
 31
0.0
  0
LINE
  5
3C3
330
21C
100
AcDbEntity
  8
FD_Dimensions
 62
     0
440
 16777216
370
    -2
100
AcDbLine
 10
309.699072
 20
221.674801
 30
0.0
 11
334.699071
 21
221.678941
 31
0.0
  0
SOLID
  5
3C4
330
21C
100
AcDbEntity
  8
FD_Dimensions
 62
     0
440
 16777216
100
AcDbTrace
 10
309.698975
 20
222.258134
 30
0.0
 11
309.699168
 21
221.091468
 31
0.0
 12
306.199072
 22
221.674222
 32
0.0
 13
306.199072
 23
221.674222
 33
0.0
  0
SOLID
  5
3C5
330
21C
100
AcDbEntity
  8
FD_Dimensions
 62
     0
440
 16777216
100
AcDbTrace
 10
334.698975
 20
222.262275
 30
0.0
 11
334.699168
 21
221.095608
 31
0.0
 12
338.199071
 22
221.679521
 32
0.0
 13
338.199071
 23
221.679521
 33
0.0
  0
MTEXT
  5
3C6
330
21C
100
AcDbEntity
  8
FD_Dimensions
 62
     0
440
 16777216
100
AcDbMText
 10
322.198543
 20
224.86507
 30
0.0
 40
3.5
 41
0.0
 46
0.0
 71
     5
 72
     1
  1
32
 11
1.0
 21
0.000166
 31
0.0
 73
     1
 44
1.0
  0
POINT
  5
3C7
330
21C
100
AcDbEntity
  8
Defpoints
 62
     0
440
 16777216
100
AcDbPoint
 10
306.20174
 20
205.563458
 30
0.0
  0
POINT
  5
3C8
330
21C
100
AcDbEntity
  8
Defpoints
 62
     0
440
 16777216
100
AcDbPoint
 10
338.201785
 20
205.289497
 30
0.0
  0
POINT
  5
3C9
330
21C
100
AcDbEntity
  8
Defpoints
 62
     0
440
 16777216
100
AcDbPoint
 10
338.199071
 20
221.679521
 30
0.0
  0
ENDBLK
  5
21E
330
21C
100
AcDbEntity
  8
0
100
AcDbBlockEnd
  0
ENDSEC
  0
SECTION
  2
ENTITIES
  0
DIMENSION
  5
1DB
330
70
100
AcDbEntity
  8
FD_Dimensions
100
AcDbDimension
280
     0
  2
*D6
 10
206.562876
 20
226.563458
 30
0.0
 11
143.744446
 21
229.750463
 31
0.0
 70
    33
  1
125
 71
     5
 42
125.63686
 73
     0
 74
     0
 75
     0
  3
Dim-ISO-25
100
AcDbAlignedDimension
 13
80.926016
 23
205.563458
 33
0.0
 14
206.562876
 24
205.563458
 34
0.0
1001
ACAD_DIMASSOC_CALC_DIMLFAC
1040
-1.0
1001
ACAD_DIMASSOC_DIMLFAC
1040
-1.0
1001
ACAD_DIMASSOC_OVERRIDDEN_DIMLFAC
1040
0.0
1001
ACAD_TC
1000
DSTYLE_TC
1002
{
1070
   176
1004
18000000020000008C8C8CC2000000000000000000000000
1070
   177
1004
18000000020000008C8C8CC2000000000000000000000000
1002
}
1001
ACAD_DSTYLE_DIMJAG_POSITION
1070
   387
1070
     0
1070
   389
1010
0.0
1020
0.0
1030
0.0
1001
ACAD
1000
DSTYLE
1002
{
1070
   144
1040
1.0
1070
   176
1070
     0
1070
   177
1070
     0
1002
}
  0
DIMENSION
  5
1E9
330
70
100
AcDbEntity
  8
FD_Dimensions
100
AcDbDimension
280
     0
  2
*D7
 10
61.864137
 20
206.063439
 30
0.0
 11
58.677132
 21
147.155549
 31
0.0
 70
    32
  1
120
 71
     5
 42
117.815779
 73
     0
 74
     0
 75
     0
  3
Dim-ISO-25
100
AcDbAlignedDimension
 13
83.244446
 23
88.24766
 33
0.0
 14
81.425997
 24
206.063439
 34
0.0
 50
90.0
100
AcDbRotatedDimension
1001
ACAD_DIMASSOC_CALC_DIMLFAC
1040
-1.0
1001
ACAD_DIMASSOC_DIMLFAC
1040
-1.0
1001
ACAD_DIMASSOC_OVERRIDDEN_DIMLFAC
1040
0.0
1001
ACAD_TC
1000
DSTYLE_TC
1002
{
1070
   176
1004
18000000020000008C8C8CC2000000000000000000000000
1070
   177
1004
18000000020000008C8C8CC2000000000000000000000000
1002
}
1001
ACAD_DSTYLE_DIMJAG_POSITION
1070
   387
1070
     0
1070
   389
1010
0.0
1020
0.0
1030
0.0
1001
ACAD
1000
DSTYLE
1002
{
1070
   144
1040
1.0
1070
   176
1070
     0
1070
   177
1070
     0
1002
}
  0
DIMENSION
  5
1F6
330
70
100
AcDbEntity
  8
FD_Dimensions
100
AcDbDimension
280
     0
  2
*D8
 10
338.199071
 20
221.679521
 30
0.0
 11
322.198543
 21
224.86507
 31
0.0
 70
    32
 71
     5
 42
32.0
 73
     0
 74
     0
 75
     0
  3
Dim-ISO-25
100
AcDbAlignedDimension
 13
306.20174
 23
205.563458
 33
0.0
 14
338.201785
 24
205.289497
 34
0.0
 50
0.009488
100
AcDbRotatedDimension
1001
ACAD_DIMASSOC_CALC_DIMLFAC
1040
-1.0
1001
ACAD_DIMASSOC_DIMLFAC
1040
-1.0
1001
ACAD_DIMASSOC_OVERRIDDEN_DIMLFAC
1040
0.0
1001
ACAD_TC
1000
DSTYLE_TC
1002
{
1070
   176
1004
18000000020000008C8C8CC2000000000000000000000000
1070
   177
1004
18000000020000008C8C8CC2000000000000000000000000
1002
}
1001
ACAD_DSTYLE_DIMJAG_POSITION
1070
   387
1070
     0
1070
   389
1010
0.0
1020
0.0
1030
0.0
1001
ACAD
1000
DSTYLE
1002
{
1070
   144
1040
1.0
1070
   176
1070
     0
1070
   177
1070
     0
1002
}
  0
CIRCLE
  5
279
330
70
100
AcDbEntity
  8
Visible
100
AcDbCircle
 10
-92.773949
 20
129.750306
 30
0.0
 40
1.491795126827771
210
0.0000000000005933
220
0.0
230
-1.0
  0
ELLIPSE
  5
27A
330
70
100
AcDbEntity
  8
Visible
100
AcDbEllipse
 10
92.773949
 20
129.749963
 30
0.0
 11
-1.491795126582474
 21
0.0000270416800499
 31
0.0
210
0.0
220
0.0
230
0.9999999999999998
 40
0.9999970956635609
 41
3.141725665658702
 42
6.2830885488853
  0
CIRCLE
  5
27B
330
70
100
AcDbEntity
  8
Visible
100
AcDbCircle
 10
-195.273949
 20
129.750306
 30
0.0
 40
1.491795126827503
210
0.0000000000005933
220
0.0
230
-1.0
  0
ELLIPSE
  5
27C
330
70
100
AcDbEntity
  8
Visible
100
AcDbEllipse
 10
195.273949
 20
129.749963
 30
0.0
 11
1.491795126827237
 21
0.0000010176642888
 31
0.0
210
0.0
220
0.0
230
1.0
 40
0.999997095663549
 41
0.000114203129693
 42
3.141477086116083
  0
ELLIPSE
  5
27D
330
70
100
AcDbEntity
  8
Visible
100
AcDbEllipse
 10
201.201454
 20
200.70657
 30
0.0
 11
2.120007794515913
 21
2.120007794515913
 31
0.0
210
0.0
220
0.0
230
1.0
 40
0.9951458157828959
 41
5.500220129340986
 42
7.066150471305682
  0
LINE
  5
27E
330
70
100
AcDbEntity
  8
Visible
100
AcDbLine
 10
201.216007
 20
203.697446
 30
0.0
 11
86.273382
 21
203.697446
 31
0.0
210
0.0000000000005933
220
0.0
230
-1.0
  0
ELLIPSE
  5
27F
330
70
100
AcDbEntity
  8
Visible
100
AcDbEllipse
 10
86.287936
 20
200.70657
 30
0.0
 11
-2.120007794515914
 21
2.120007794515914
 31
0.0
210
0.0
220
0.0
230
0.9999999999999998
 40
0.9951458157828959
 41
-0.7829651641260966
 42
0.7829651778385994
  0
LINE
  5
280
330
70
100
AcDbEntity
  8
Visible
100
AcDbLine
 10
83.29706
 20
200.721124
 30
0.0
 11
83.29706
 21
162.76756
 31
0.0
210
0.0000000000005933
220
0.0
230
-1.0
  0
ELLIPSE
  5
281
330
70
100
AcDbEntity
  8
Visible
100
AcDbEllipse
 10
86.287936
 20
162.782113
 30
0.0
 11
2.120007794516823
 21
2.120007794516823
 31
0.0
210
0.0
220
0.0
230
0.9999999999999998
 40
0.9951458157832544
 41
2.358627475751978
 42
3.924557817715104
  0
LINE
  5
282
330
70
100
AcDbEntity
  8
Visible
100
AcDbLine
 10
86.273382
 20
159.791237
 30
0.0
 11
201.216007
 21
159.791237
 31
0.0
210
0.0000000000005933
220
0.0
230
-1.0
  0
ELLIPSE
  5
283
330
70
100
AcDbEntity
  8
Visible
100
AcDbEllipse
 10
201.201454
 20
162.782113
 30
0.0
 11
-2.120007794516823
 21
2.120007794516823
 31
0.0
210
0.0
220
0.0
230
0.9999999999999998
 40
0.9951458157832544
 41
2.358627489464481
 42
3.924557831427607
  0
LINE
  5
284
330
70
100
AcDbEntity
  8
Visible
100
AcDbLine
 10
204.19233
 20
162.76756
 30
0.0
 11
204.19233
 21
200.721124
 31
0.0
210
0.0000000000005933
220
0.0
230
-1.0
  0
ELLIPSE
  5
285
330
70
100
AcDbEntity
  8
Visible
100
AcDbEllipse
 10
201.411234
 20
200.916847
 30
0.0
 11
2.12000780774906
 21
2.12000780774906
 31
0.0
210
0.0
220
0.0
230
-0.9999999999999998
 40
0.9951458207779786
 41
-0.7829651579246628
 42
0.7829651716371658
  0
LINE
  5
286
330
70
100
AcDbEntity
  8
Visible
100
AcDbLine
 10
204.40211
 20
200.931401
 30
0.0
 11
204.40211
 21
162.558276
 31
0.0
210
0.0000000000005933
220
0.0
230
-1.0
  0
ELLIPSE
  5
287
330
70
100
AcDbEntity
  8
Visible
100
AcDbEllipse
 10
201.411234
 20
162.57283
 30
0.0
 11
-2.120007807749971
 21
2.120007807749971
 31
0.0
210
0.0
220
0.0
230
-0.9999999999999998
 40
0.9951458207771203
 41
2.358627481952196
 42
3.924557811514887
  0
LINE
  5
288
330
70
100
AcDbEntity
  8
Visible
100
AcDbLine
 10
201.425788
 20
159.581954
 30
0.0
 11
86.063602
 21
159.581954
 31
0.0
210
0.0000000000005933
220
0.0
230
-1.0
  0
ELLIPSE
  5
289
330
70
100
AcDbEntity
  8
Visible
100
AcDbEllipse
 10
86.078156
 20
162.57283
 30
0.0
 11
2.120007801133396
 21
2.120007801133396
 31
0.0
210
0.0
220
0.0
230
-0.9999999999999998
 40
0.9951458182801873
 41
2.358627497077401
 42
3.924557813226896
  0
LINE
  5
28A
330
70
100
AcDbEntity
  8
Visible
100
AcDbLine
 10
83.08728
 20
162.558276
 30
0.0
 11
83.08728
 21
200.931401
 31
0.0
210
0.0000000000005933
220
0.0
230
-1.0
  0
ELLIPSE
  5
28B
330
70
100
AcDbEntity
  8
Visible
100
AcDbEllipse
 10
86.078156
 20
200.916847
 30
0.0
 11
-2.120007801132487
 21
2.120007801132487
 31
0.0
210
0.0
220
0.0
230
-1.0
 40
0.9951458182810455
 41
5.500220127930109
 42
7.066150463691546
  0
LINE
  5
28C
330
70
100
AcDbEntity
  8
Visible
100
AcDbLine
 10
86.063602
 20
203.907723
 30
0.0
 11
201.425788
 21
203.907723
 31
0.0
210
0.0000000000005933
220
0.0
230
-1.0
  0
ARC
  5
28D
330
70
100
AcDbEntity
  8
Visible
100
AcDbCircle
 10
205.783643
 20
205.289505
 30
0.0
 40
0.4999730710071261
100
AcDbArc
 50
359.999095
 51
90.000904
  0
ARC
  5
28E
330
70
100
AcDbEntity
  8
Visible
100
AcDbCircle
 10
206.062903
 20
205.563465
 30
0.0
 40
0.4999730764777214
100
AcDbArc
 50
359.999096
 51
90.000904
  0
ARC
  5
28F
330
70
100
AcDbEntity
  8
Visible
100
AcDbCircle
 10
81.705249
 20
205.289505
 30
0.0
 40
0.4999730710070169
100
AcDbArc
 50
89.999096
 51
180.000905
  0
ARC
  5
290
330
70
100
AcDbEntity
  8
Visible
100
AcDbCircle
 10
81.425989
 20
205.563465
 30
0.0
 40
0.4999730764776772
100
AcDbArc
 50
89.999096
 51
180.000904
  0
SPLINE
  5
291
330
70
100
AcDbEntity
  8
Visible
100
AcDbSpline
210
0.0
220
0.0
230
1.0
 70
     8
 71
     3
 72
     8
 73
     4
 74
     0
 42
0.000000001
 43
0.0000000001
 40
0.000000331123273
 40
0.000000331123273
 40
0.000000331123273
 40
0.000000331123273
 40
0.011133503776306
 40
0.011133503776306
 40
0.011133503776306
 40
0.011133503776306
 10
204.2444461791583
 20
125.7454278967107
 30
0.0
 10
204.2444456270187
 20
125.745434129607
 30
0.0
 10
204.2444196229098
 20
125.7469070768729
 30
0.0
 10
204.244371484192
 20
125.7496549179741
 30
0.0
  0
LINE
  5
292
330
70
100
AcDbEntity
  8
Visible
100
AcDbLine
 10
204.244446
 20
125.749647
 30
0.0
 11
204.244446
 21
125.745428
 31
0.0
210
0.0000000000005933
220
0.0
230
-1.0
  0
SPLINE
  5
293
330
70
100
AcDbEntity
  8
Visible
100
AcDbSpline
210
0.0
220
0.0
230
1.0
 70
     8
 71
     3
 72
     8
 73
     4
 74
     0
 42
0.000000001
 43
0.0000000001
 40
0.1364058079346521
 40
0.1364058079346521
 40
0.1364058079346521
 40
0.1364058079346521
 40
0.1463203559215028
 40
0.1463203559215028
 40
0.1463203559215028
 40
0.1463203559215028
 10
83.24452087412465
 20
125.7496549179741
 30
0.0
 10
83.24447273540863
 20
125.7469070768729
 30
0.0
 10
83.24444673129802
 20
125.745434129607
 30
0.0
 10
83.24444617915833
 20
125.7454278967107
 30
0.0
  0
LINE
  5
294
330
70
100
AcDbEntity
  8
Visible
100
AcDbLine
 10
83.244446
 20
125.745428
 30
0.0
 11
83.244446
 21
125.749647
 31
0.0
210
0.0000000000005933
220
0.0
230
-1.0
  0
LINE
  5
295
330
70
100
AcDbEntity
  8
Visible
100
AcDbLine
 10
201.285139
 20
125.749978
 30
0.0
 11
202.244751
 21
125.749978
 31
0.0
210
0.0000000000005933
220
0.0
230
-1.0
  0
ARC
  5
296
330
70
100
AcDbEntity
  8
Visible
100
AcDbCircle
 10
205.786342
 20
126.247584
 30
0.0
 40
0.4972745045921014
100
AcDbArc
 50
269.998909
 51
359.99891
  0
ARC
  5
297
330
70
100
AcDbEntity
  8
Visible
100
AcDbCircle
 10
206.065601
 20
126.242284
 30
0.0
 40
0.4972745100628606
100
AcDbArc
 50
269.998909
 51
359.998909
  0
LINE
  5
298
330
70
100
AcDbEntity
  8
Visible
100
AcDbLine
 10
81.205276
 20
205.289497
 30
0.0
 11
81.205276
 21
126.247574
 31
0.0
210
0.0000000000005933
220
0.0
230
-1.0
  0
ARC
  5
299
330
70
100
AcDbEntity
  8
Visible
100
AcDbCircle
 10
-81.702551
 20
126.247584
 30
0.0
 40
0.4972745045920659
210
0.0000000000005933
220
0.0
230
-1.0
100
AcDbArc
 50
269.998909
 51
359.99891
  0
LINE
  5
29A
330
70
100
AcDbEntity
  8
Visible
100
AcDbLine
 10
205.786332
 20
125.750309
 30
0.0
 11
81.70256
 21
125.750309
 31
0.0
210
0.0000000000005933
220
0.0
230
-1.0
  0
LINE
  5
29B
330
70
100
AcDbEntity
  8
Visible
100
AcDbLine
 10
206.283616
 20
126.247574
 30
0.0
 11
206.283616
 21
205.289497
 31
0.0
210
0.0000000000005933
220
0.0
230
-1.0
  0
LINE
  5
29C
330
70
100
AcDbEntity
  8
Visible
100
AcDbLine
 10
205.783635
 20
205.789478
 30
0.0
 11
81.705257
 21
205.789478
 31
0.0
210
0.0000000000005933
220
0.0
230
-1.0
  0
ARC
  5
29D
330
70
100
AcDbEntity
  8
Visible
100
AcDbCircle
 10
81.423291
 20
126.242284
 30
0.0
 40
0.4972745100630157
100
AcDbArc
 50
180.001091
 51
270.001091
  0
LINE
  5
29E
330
70
100
AcDbEntity
  8
Visible
100
AcDbLine
 10
206.562876
 20
126.242275
 30
0.0
 11
206.562876
 21
205.563458
 31
0.0
210
0.0000000000005933
220
0.0
230
-1.0
  0
LINE
  5
29F
330
70
100
AcDbEntity
  8
Visible
100
AcDbLine
 10
206.062895
 20
206.063439
 30
0.0
 11
81.425997
 21
206.063439
 31
0.0
210
0.0000000000005933
220
0.0
230
-1.0
  0
LINE
  5
2A0
330
70
100
AcDbEntity
  8
Visible
100
AcDbLine
 10
80.926016
 20
205.563458
 30
0.0
 11
80.926016
 21
126.242275
 31
0.0
210
0.0000000000005933
220
0.0
230
-1.0
  0
LINE
  5
2A1
330
70
100
AcDbEntity
  8
Visible
100
AcDbLine
 10
81.4233
 20
125.74501
 30
0.0
 11
85.081755
 21
125.74501
 31
0.0
210
0.0000000000005933
220
0.0
230
-1.0
  0
LINE
  5
2A2
330
70
100
AcDbEntity
  8
Visible
100
AcDbLine
 10
201.407138
 20
125.74501
 30
0.0
 11
206.065592
 21
125.74501
 31
0.0
210
0.0000000000005933
220
0.0
230
-1.0
  0
LINE
  5
2A3
330
70
100
AcDbEntity
  8
Visible
100
AcDbLine
 10
205.744446
 20
109.24766
 30
0.0
 11
205.744446
 21
125.24766
 31
0.0
210
0.0000000000005933
220
0.0
230
-1.0
  0
LINE
  5
2A4
330
70
100
AcDbEntity
  8
Visible
100
AcDbLine
 10
203.744446
 20
125.24766
 30
0.0
 11
203.744446
 21
123.250309
 31
0.0
210
0.0000000000005933
220
0.0
230
-1.0
  0
LINE
  5
2A5
330
70
100
AcDbEntity
  8
Visible
100
AcDbLine
 10
82.744446
 20
123.250309
 30
0.0
 11
82.744446
 21
125.24766
 31
0.0
210
0.0000000000005933
220
0.0
230
-1.0
  0
LINE
  5
2A6
330
70
100
AcDbEntity
  8
Visible
100
AcDbLine
 10
80.744446
 20
109.24766
 30
0.0
 11
80.744446
 21
125.24766
 31
0.0
210
0.0000000000005933
220
0.0
230
-1.0
  0
ARC
  5
2A7
330
70
100
AcDbEntity
  8
Visible
100
AcDbCircle
 10
203.244446
 20
90.74766
 30
0.0
 40
0.5000000000000005
100
AcDbArc
 50
270.0
 51
0.0
  0
ARC
  5
2A8
330
70
100
AcDbEntity
  8
Visible
100
AcDbCircle
 10
203.244446
 20
90.74766
 30
0.0
 40
2.500000000000002
100
AcDbArc
 50
270.0
 51
0.0
  0
LINE
  5
2A9
330
70
100
AcDbEntity
  8
Visible
100
AcDbLine
 10
203.744446
 20
90.74766
 30
0.0
 11
203.744446
 21
108.260169
 31
0.0
210
0.0000000000005933
220
0.0
230
-1.0
  0
LINE
  5
2AA
330
70
100
AcDbEntity
  8
Visible
100
AcDbLine
 10
205.744446
 20
90.74766
 30
0.0
 11
205.744446
 21
109.24766
 31
0.0
210
0.0000000000005933
220
0.0
230
-1.0
  0
ARC
  5
2AB
330
70
100
AcDbEntity
  8
Visible
100
AcDbCircle
 10
83.244446
 20
90.74766
 30
0.0
 40
0.5000000000000005
100
AcDbArc
 50
180.0
 51
270.0
  0
ARC
  5
2AC
330
70
100
AcDbEntity
  8
Visible
100
AcDbCircle
 10
83.244446
 20
90.74766
 30
0.0
 40
2.500000000000002
100
AcDbArc
 50
180.0
 51
270.0
  0
LINE
  5
2AD
330
70
100
AcDbEntity
  8
Visible
100
AcDbLine
 10
83.244446
 20
90.24766
 30
0.0
 11
203.244446
 21
90.24766
 31
0.0
210
0.0000000000005933
220
0.0
230
-1.0
  0
LINE
  5
2AE
330
70
100
AcDbEntity
  8
Visible
100
AcDbLine
 10
83.244446
 20
88.24766
 30
0.0
 11
203.244446
 21
88.24766
 31
0.0
210
0.0000000000005933
220
0.0
230
-1.0
  0
LINE
  5
2AF
330
70
100
AcDbEntity
  8
Visible
100
AcDbLine
 10
80.744446
 20
109.24766
 30
0.0
 11
80.744446
 21
90.74766
 31
0.0
210
0.0000000000005933
220
0.0
230
-1.0
  0
LINE
  5
2B0
330
70
100
AcDbEntity
  8
Visible
100
AcDbLine
 10
82.744446
 20
108.260169
 30
0.0
 11
82.744446
 21
90.74766
 31
0.0
210
0.0000000000005933
220
0.0
230
-1.0
  0
LINE
  5
2B1
330
70
100
AcDbEntity
  8
Visible
100
AcDbLine
 10
205.744446
 20
125.24766
 30
0.0
 11
203.744446
 21
125.24766
 31
0.0
210
0.0000000000005933
220
0.0
230
-1.0
  0
LINE
  5
2B2
330
70
100
AcDbEntity
  8
Visible
100
AcDbLine
 10
82.744446
 20
125.24766
 30
0.0
 11
80.744446
 21
125.24766
 31
0.0
210
0.0000000000005933
220
0.0
230
-1.0
  0
ELLIPSE
  5
2B3
330
70
100
AcDbEntity
  8
Visible
100
AcDbEllipse
 10
91.244446
 20
123.74766
 30
0.0
 11
1.700000000000727
 21
0.0000000000019898
 31
0.0
210
0.0
220
0.0
230
1.0
 40
0.0001656037302916
 41
3.141592646519886
 42
9.424777953699472
  0
ELLIPSE
  5
2B4
330
70
100
AcDbEntity
  8
Visible
100
AcDbEllipse
 10
178.744446
 20
123.74766
 30
0.0
 11
-8.0
 21
0.0000000000010912
 31
0.0
210
0.0
220
0.0
230
1.0
 40
0.0001656037302382
 41
0.0000000008228931
 42
6.283185308002479
  0
ELLIPSE
  5
2B5
330
70
100
AcDbEntity
  8
Visible
100
AcDbEllipse
 10
195.244446
 20
123.74766
 30
0.0
 11
1.700000000000727
 21
0.0000000000019898
 31
0.0
210
0.0
220
0.0
230
1.0
 40
0.0001656037302916
 41
3.141592646519886
 42
9.424777953699472
  0
ARC
  5
2B6
330
70
100
AcDbEntity
  8
Visible
100
AcDbCircle
 10
-201.244446
 20
123.250309
 30
0.0
 40
2.500000000000003
210
0.0000000000005933
220
0.0
230
-1.0
100
AcDbArc
 50
90.0
 51
180.0
  0
ARC
  5
2B7
330
70
100
AcDbEntity
  8
Visible
100
AcDbCircle
 10
-201.244446
 20
123.250309
 30
0.0
 40
0.5000000000000007
210
0.0000000000005933
220
0.0
230
-1.0
100
AcDbArc
 50
90.0
 51
180.0
  0
LINE
  5
2B8
330
70
100
AcDbEntity
  8
Visible
100
AcDbLine
 10
201.744446
 20
123.250309
 30
0.0
 11
201.744446
 21
108.265461
 31
0.0
210
0.0000000000005933
220
0.0
230
-1.0
  0
LINE
  5
2B9
330
70
100
AcDbEntity
  8
Visible
100
AcDbLine
 10
203.744446
 20
108.265461
 30
0.0
 11
201.744446
 21
108.265461
 31
0.0
210
0.0000000000005933
220
0.0
230
-1.0
  0
LINE
  5
2BA
330
70
100
AcDbEntity
  8
Visible
100
AcDbLine
 10
203.744446
 20
123.250309
 30
0.0
 11
203.744446
 21
108.265461
 31
0.0
210
0.0000000000005933
220
0.0
230
-1.0
  0
ARC
  5
2BB
330
70
100
AcDbEntity
  8
Visible
100
AcDbCircle
 10
-201.244446
 20
123.24501
 30
0.0
 40
0.5000000000000007
210
0.0000000000005933
220
0.0
230
-1.0
100
AcDbArc
 50
90.0
 51
180.0
  0
LINE
  5
2BC
330
70
100
AcDbEntity
  8
Visible
100
AcDbLine
 10
85.244446
 20
123.74501
 30
0.0
 11
201.244446
 21
123.74501
 31
0.0
210
0.0000000000005933
220
0.0
230
-1.0
  0
ARC
  5
2BD
330
70
100
AcDbEntity
  8
Visible
100
AcDbCircle
 10
-85.244446
 20
123.250309
 30
0.0
 40
2.500000000000002
210
0.0000000000005933
220
0.0
230
-1.0
100
AcDbArc
 50
0.0
 51
90.0
  0
ARC
  5
2BE
330
70
100
AcDbEntity
  8
Visible
100
AcDbCircle
 10
-85.244446
 20
123.250309
 30
0.0
 40
0.5000000000000005
210
0.0000000000005933
220
0.0
230
-1.0
100
AcDbArc
 50
0.0
 51
90.0
  0
LINE
  5
2BF
330
70
100
AcDbEntity
  8
Visible
100
AcDbLine
 10
85.244446
 20
125.750309
 30
0.0
 11
201.244446
 21
125.750309
 31
0.0
210
0.0000000000005933
220
0.0
230
-1.0
  0
LINE
  5
2C0
330
70
100
AcDbEntity
  8
Visible
100
AcDbLine
 10
85.244446
 20
123.750309
 30
0.0
 11
201.244446
 21
123.750309
 31
0.0
210
0.0000000000005933
220
0.0
230
-1.0
  0
ARC
  5
2C1
330
70
100
AcDbEntity
  8
Visible
100
AcDbCircle
 10
-85.244446
 20
123.24501
 30
0.0
 40
0.5000000000000005
210
0.0000000000005933
220
0.0
230
-1.0
100
AcDbArc
 50
0.0
 51
90.0
  0
LINE
  5
2C2
330
70
100
AcDbEntity
  8
Visible
100
AcDbLine
 10
201.744446
 20
108.265461
 30
0.0
 11
201.744446
 21
92.74766
 31
0.0
210
0.0000000000005933
220
0.0
230
-1.0
  0
LINE
  5
2C3
330
70
100
AcDbEntity
  8
Visible
100
AcDbLine
 10
203.744446
 20
108.260169
 30
0.0
 11
203.744446
 21
108.265461
 31
0.0
210
0.0000000000005933
220
0.0
230
-1.0
  0
LINE
  5
2C4
330
70
100
AcDbEntity
  8
Visible
100
AcDbLine
 10
82.744446
 20
108.260169
 30
0.0
 11
82.744446
 21
108.265461
 31
0.0
210
0.0000000000005933
220
0.0
230
-1.0
  0
LINE
  5
2C5
330
70
100
AcDbEntity
  8
Visible
100
AcDbLine
 10
82.744446
 20
108.265461
 30
0.0
 11
82.744446
 21
123.250309
 31
0.0
210
0.0000000000005933
220
0.0
230
-1.0
  0
LINE
  5
2C6
330
70
100
AcDbEntity
  8
Visible
100
AcDbLine
 10
84.744446
 20
108.265461
 30
0.0
 11
84.744446
 21
123.250309
 31
0.0
210
0.0000000000005933
220
0.0
230
-1.0
  0
LINE
  5
2C7
330
70
100
AcDbEntity
  8
Visible
100
AcDbLine
 10
84.744446
 20
92.74766
 30
0.0
 11
84.744446
 21
108.265461
 31
0.0
210
0.0000000000005933
220
0.0
230
-1.0
  0
LINE
  5
2C8
330
70
100
AcDbEntity
  8
Visible
100
AcDbLine
 10
82.744446
 20
108.265461
 30
0.0
 11
84.744446
 21
108.265461
 31
0.0
210
0.0000000000005933
220
0.0
230
-1.0
  0
LINE
  5
2C9
330
70
100
AcDbEntity
  8
Visible
100
AcDbLine
 10
203.744446
 20
92.74766
 30
0.0
 11
201.744446
 21
92.74766
 31
0.0
210
0.0000000000005933
220
0.0
230
-1.0
  0
LINE
  5
2CA
330
70
100
AcDbEntity
  8
Visible
100
AcDbLine
 10
84.744446
 20
92.74766
 30
0.0
 11
82.744446
 21
92.74766
 31
0.0
210
0.0000000000005933
220
0.0
230
-1.0
  0
ARC
  5
2CB
330
70
100
AcDbEntity
  8
Visible
100
AcDbCircle
 10
-203.005785
 20
126.243061
 30
0.0
 40
0.497265042267206
210
0.0000000000005933
220
0.0
230
-1.0
100
AcDbArc
 50
262.589947
 51
270.0
  0
ARC
  5
2CC
330
70
100
AcDbEntity
  8
Visible
100
AcDbCircle
 10
-84.483107
 20
126.243061
 30
0.0
 40
0.4972650422675545
210
0.0000000000005933
220
0.0
230
-1.0
100
AcDbArc
 50
270.0
 51
277.410053
  0
LINE
  5
2CD
330
70
100
AcDbEntity
  8
Visible
100
AcDbLine
 10
201.503279
 20
125.745547
 30
0.0
 11
201.398684
 21
125.745547
 31
0.0
210
0.0000000000005933
220
0.0
230
-1.0
  0
LINE
  5
2CE
330
70
100
AcDbEntity
  8
Visible
100
AcDbLine
 10
202.69233
 20
162.768056
 30
0.0
 11
202.69233
 21
200.721621
 31
0.0
210
0.0000000000005933
220
0.0
230
-1.0
  0
LINE
  5
2CF
330
70
100
AcDbEntity
  8
Visible
100
AcDbLine
 10
202.69233
 20
162.76756
 30
0.0
 11
202.69233
 21
162.768056
 31
0.0
210
0.0000000000005933
220
0.0
230
-1.0
  0
SPLINE
  5
2D0
330
70
100
AcDbEntity
  8
Visible
100
AcDbSpline
210
-0.0000000000000016
220
0.0000000000000045
230
1.0
 70
     8
 71
     3
 72
    11
 73
     7
 74
     0
 42
0.000000001
 43
0.0000000001
 40
-0.7829651709815572
 40
-0.7829651709815572
 40
-0.7829651709815572
 40
-0.7829651709815572
 40
0.454053371517054
 40
0.454053371517054
 40
0.454053371517054
 40
0.7829651709815524
 40
0.7829651709815524
 40
0.7829651709815524
 40
0.7829651709815524
 10
201.2160072297102
 20
161.2912372321916
 30
0.0
 10
201.8307323415629
 20
161.2912372321916
 30
-0.0000000000000036
 10
202.4149852806459
 20
161.7093123416689
 30
0.0
 10
202.6126586258779
 20
162.2875052612799
 30
0.0
 10
202.665218141723
 20
162.441241415665
 30
0.0
 10
202.6923296074128
 20
162.6041098651749
 30
-0.0000000000000036
 10
202.6923296074128
 20
162.7675595896507
 30
-0.0000000000000036
  0
SPLINE
  5
2D1
330
70
100
AcDbEntity
  8
Visible
100
AcDbSpline
210
-0.0000000000000016
220
0.0000000000000045
230
1.0
 70
     8
 71
     3
 72
    11
 73
     7
 74
     0
 42
0.000000001
 43
0.0000000001
 40
-0.7829651709815572
 40
-0.7829651709815572
 40
-0.7829651709815572
 40
-0.7829651709815572
 40
0.454053371517054
 40
0.454053371517054
 40
0.454053371517054
 40
0.7829651709815524
 40
0.7829651709815524
 40
0.7829651709815524
 40
0.7829651709815524
 10
201.2160072297084
 20
161.2917340433832
 30
0.0
 10
201.8307323415611
 20
161.2917340433832
 30
-0.0000000000000036
 10
202.414985280644
 20
161.7098091528587
 30
0.0
 10
202.6126586258761
 20
162.2880020724697
 30
0.0
 10
202.6652181417212
 20
162.4417382268548
 30
0.0
 10
202.692329607411
 20
162.6046066763647
 30
-0.0000000000000036
 10
202.692329607411
 20
162.7680564008405
 30
-0.0000000000000036
  0
LINE
  5
2D2
330
70
100
AcDbEntity
  8
Visible
100
AcDbLine
 10
86.273382
 20
161.291237
 30
0.0
 11
201.216007
 21
161.291237
 31
0.0
210
0.0000000000005933
220
0.0
230
-1.0
  0
LINE
  5
2D3
330
70
100
AcDbEntity
  8
Visible
100
AcDbLine
 10
86.273382
 20
161.291734
 30
0.0
 11
201.216007
 21
161.291734
 31
0.0
210
0.0000000000005933
220
0.0
230
-1.0
  0
SPLINE
  5
2D4
330
70
100
AcDbEntity
  8
Visible
100
AcDbSpline
210
0.0
220
0.0
230
1.0
 70
     8
 71
     3
 72
    11
 73
     7
 74
     0
 42
0.000000001
 43
0.0000000001
 40
-0.7829651709815795
 40
-0.7829651709815795
 40
-0.7829651709815795
 40
-0.7829651709815795
 40
0.4540533715171336
 40
0.4540533715171336
 40
0.4540533715171336
 40
0.7829651709815632
 40
0.7829651709815632
 40
0.7829651709815632
 40
0.7829651709815632
 10
84.79705999698126
 20
162.7675595896507
 30
0.0
 10
84.79705999698126
 20
162.1528344862272
 30
0.0
 10
85.21513511219017
 20
161.5685815551551
 30
0.0
 10
85.79332803973011
 20
161.3709082126352
 30
0.0
 10
85.94706419622344
 20
161.3183486975085
 30
0.0
 10
86.10993264796707
 20
161.2912372321916
 30
-0.0000000000000036
 10
86.27338237468393
 20
161.2912372321916
 30
0.0
  0
SPLINE
  5
2D5
330
70
100
AcDbEntity
  8
Visible
100
AcDbSpline
210
0.0
220
0.0
230
1.0
 70
     8
 71
     3
 72
    11
 73
     7
 74
     0
 42
0.000000001
 43
0.0000000001
 40
-0.7829651709815795
 40
-0.7829651709815795
 40
-0.7829651709815795
 40
-0.7829651709815795
 40
0.4540533715171336
 40
0.4540533715171336
 40
0.4540533715171336
 40
0.7829651709815632
 40
0.7829651709815632
 40
0.7829651709815632
 40
0.7829651709815632
 10
84.79705999697944
 20
162.7680564008424
 30
0.0
 10
84.79705999697944
 20
162.1533312974188
 30
0.0
 10
85.21513511218836
 20
161.5690783663467
 30
0.0
 10
85.7933280397283
 20
161.371405023825
 30
0.0
 10
85.94706419622161
 20
161.3188455087002
 30
0.0
 10
86.10993264796524
 20
161.2917340433832
 30
-0.0000000000000036
 10
86.27338237468212
 20
161.2917340433832
 30
0.0
  0
LINE
  5
2D6
330
70
100
AcDbEntity
  8
Visible
100
AcDbLine
 10
84.79706
 20
162.76756
 30
0.0
 11
84.79706
 21
162.768056
 31
0.0
210
0.0000000000005933
220
0.0
230
-1.0
  0
LINE
  5
2D7
330
70
100
AcDbEntity
  8
Visible
100
AcDbLine
 10
84.79706
 20
200.721621
 30
0.0
 11
84.79706
 21
162.768056
 31
0.0
210
0.0000000000005933
220
0.0
230
-1.0
  0
SPLINE
  5
2D8
330
70
100
AcDbEntity
  8
Visible
100
AcDbSpline
210
-0.0000000000000049
220
0.0000000000000055
230
1.0
 70
     8
 71
     3
 72
    11
 73
     7
 74
     0
 42
0.000000001
 43
0.0000000001
 40
2.358627482607996
 40
2.358627482607996
 40
2.358627482607996
 40
2.358627482607996
 40
3.595646025105965
 40
3.595646025105965
 40
3.595646025105965
 40
3.924557824571581
 40
3.924557824571581
 40
3.924557824571581
 40
3.924557824571581
 10
86.27338237468212
 20
202.1979429238254
 30
0.0
 10
85.65865726282936
 20
202.1979429238254
 30
0.0
 10
85.07440432374641
 20
201.7798678143499
 30
-0.0000000000000036
 10
84.87673097851439
 20
201.2016748947408
 30
-0.0000000000000036
 10
84.82417146266925
 20
201.0479387403539
 30
0.0
 10
84.79705999697944
 20
200.8850702908439
 30
0.0
 10
84.79705999697944
 20
200.7216205663681
 30
0.0
  0
LINE
  5
2D9
330
70
100
AcDbEntity
  8
Visible
100
AcDbLine
 10
201.216007
 20
202.197943
 30
0.0
 11
86.273382
 21
202.197943
 31
0.0
210
0.0000000000005933
220
0.0
230
-1.0
  0
SPLINE
  5
2DA
330
70
100
AcDbEntity
  8
Visible
100
AcDbSpline
210
-0.0000000000000009
220
-0.0000000000000033
230
1.0
 70
     8
 71
     3
 72
    11
 73
     7
 74
     0
 42
0.000000001
 43
0.0000000001
 40
2.358627482608048
 40
2.358627482608048
 40
2.358627482608048
 40
2.358627482608048
 40
3.595646025105938
 40
3.595646025105938
 40
3.595646025105938
 40
3.924557824571545
 40
3.924557824571545
 40
3.924557824571545
 40
3.924557824571545
 10
202.692329607411
 20
200.7216205663681
 30
-0.0000000000000036
 10
202.692329607411
 20
201.3363456697898
 30
-0.0000000000000036
 10
202.2742544922021
 20
201.9205986008619
 30
0.0
 10
201.696061564664
 20
202.1182719433836
 30
0.0
 10
201.5423254081706
 20
202.1708314585085
 30
-0.0000000000000036
 10
201.379456956427
 20
202.1979429238254
 30
0.0
 10
201.2160072297084
 20
202.1979429238254
 30
0.0
  0
SPLINE
  5
2DB
330
70
100
AcDbEntity
  8
Visible
100
AcDbSpline
210
-0.0000000000016369
220
-0.0000000000030617
230
-1.0
 70
     8
 71
     3
 72
     8
 73
     4
 74
     0
 42
0.000000001
 43
0.0000000001
 40
0.0829179599752948
 40
0.0829179599752948
 40
0.0829179599752948
 40
0.0829179599752948
 40
0.0919774944194825
 40
0.0919774944194825
 40
0.0919774944194825
 40
0.0919774944194825
 10
194.6263805337348
 20
128.4380355585162
 30
-0.0000000000000036
 10
194.5992992099454
 20
128.451397750232
 30
0.0
 10
194.5693900456099
 20
128.4673438230402
 30
0.0
 10
194.5421991686689
 20
128.4830411726507
 30
-0.0000000000000036
  0
SPLINE
  5
2DC
330
70
100
AcDbEntity
  8
Visible
100
AcDbSpline
210
0.0
220
0.0
230
1.0
 70
     8
 71
     3
 72
     8
 73
     4
 74
     0
 42
0.000000001
 43
0.0000000001
 40
0.0139843921531097
 40
0.0139843921531097
 40
0.0139843921531097
 40
0.0139843921531097
 40
0.0230439265972961
 40
0.0230439265972961
 40
0.0230439265972961
 40
0.0230439265972961
 10
196.0056991686597
 20
128.4830411726507
 30
0.0
 10
195.9785082917187
 20
128.4673438230402
 30
0.0
 10
195.9485991273832
 20
128.451397750232
 30
0.0
 10
195.9215178035938
 20
128.4380355585162
 30
0.0
  0
ARC
  5
2DD
330
70
100
AcDbEntity
  8
Visible
100
AcDbCircle
 10
195.273457
 20
129.751218
 30
0.0
 40
1.464393807229142
100
AcDbArc
 50
300.002026
 51
303.737595
  0
ARC
  5
2DE
330
70
100
AcDbEntity
  8
Visible
100
AcDbCircle
 10
-195.273997
 20
129.75047
 30
0.0
 40
1.463451882676158
210
0.0000000000005933
220
0.0
230
-1.0
100
AcDbArc
 50
180.000008
 51
183.737876
  0
LINE
  5
2DF
330
70
100
AcDbEntity
  8
Visible
100
AcDbLine
 10
196.673949
 20
129.750455
 30
0.0
 11
195.973949
 21
128.538019
 31
0.0
210
0.0000000000005933
220
0.0
230
-1.0
  0
SPLINE
  5
2E0
330
70
100
AcDbEntity
  8
Visible
100
AcDbSpline
210
0.0000000000011412
220
0.0
230
-1.0
 70
     8
 71
     3
 72
     8
 73
     4
 74
     0
 42
0.000000001
 43
0.0000000001
 40
0.0829179599752936
 40
0.0829179599752936
 40
0.0829179599752936
 40
0.0829179599752936
 40
0.0919774944194798
 40
0.0919774944194798
 40
0.0919774944194798
 40
0.0919774944194798
 10
196.7343360265058
 20
129.8458779986122
 30
-0.0000000000000036
 10
196.7363046907667
 20
129.8157437887075
 30
0.0
 10
196.7374491686642
 20
129.7818679638258
 30
0.0
 10
196.7374491686642
 20
129.7504693337177
 30
0.0
  0
SPLINE
  5
2E1
330
70
100
AcDbEntity
  8
Visible
100
AcDbSpline
210
0.0000000000012605
220
0.0000000000019571
230
1.0
 70
     8
 71
     3
 72
     8
 73
     4
 74
     0
 42
0.000000001
 43
0.0000000001
 40
0.0139843921531102
 40
0.0139843921531102
 40
0.0139843921531102
 40
0.0139843921531102
 40
0.0230439265972955
 40
0.0230439265972955
 40
0.0230439265972955
 40
0.0230439265972955
 10
196.0056991686688
 20
131.0178974947685
 30
0.0
 10
196.0328900456115
 20
131.002200145158
 30
-0.0000000000000036
 10
196.0616547320478
 20
130.9842717785086
 30
0.0
 10
196.0867673915763
 20
130.9674997603197
 30
-0.0000000000000036
  0
SPLINE
  5
2E2
330
70
100
AcDbEntity
  8
Visible
100
AcDbSpline
210
0.0
220
0.0
230
1.0
 70
     8
 71
     3
 72
     8
 73
     4
 74
     0
 42
0.000000001
 43
0.0000000001
 40
0.0829179599752923
 40
0.0829179599752923
 40
0.0829179599752923
 40
0.0829179599752923
 40
0.091977494419481
 40
0.091977494419481
 40
0.091977494419481
 40
0.091977494419481
 10
195.9215178035938
 20
131.0629066531164
 30
0.0
 10
195.9485991273832
 20
131.0495444614007
 30
0.0
 10
195.9785082917187
 20
131.0335974649752
 30
0.0
 10
196.0056991686597
 20
131.0178974947739
 30
0.0
  0
SPLINE
  5
2E3
330
70
100
AcDbEntity
  8
Visible
100
AcDbSpline
210
0.0000000000016349
220
-0.0000000000030578
230
1.0
 70
     8
 71
     3
 72
     8
 73
     4
 74
     0
 42
0.000000001
 43
0.0000000001
 40
0.0139843921531104
 40
0.0139843921531104
 40
0.0139843921531104
 40
0.0139843921531104
 40
0.0230439265972961
 40
0.0230439265972961
 40
0.0230439265972961
 40
0.0230439265972961
 10
194.5421991686689
 20
131.0178974947739
 30
-0.0000000000000036
 10
194.5693900456117
 20
131.033597464977
 30
0.0
 10
194.5992992099454
 20
131.0495444614007
 30
0.0
 10
194.6263805337348
 20
131.0629066531164
 30
-0.0000000000000036
  0
ARC
  5
2E4
330
70
100
AcDbEntity
  8
Visible
100
AcDbCircle
 10
195.273994
 20
129.75047
 30
0.0
 40
1.463545140347218
100
AcDbArc
 50
176.262243
 51
180.000012
  0
ARC
  5
2E5
330
70
100
AcDbEntity
  8
Visible
100
AcDbCircle
 10
-195.273456
 20
129.751219
 30
0.0
 40
1.462604332800373
210
0.0000000000005933
220
0.0
230
-1.0
100
AcDbArc
 50
56.261963
 51
60.00203
  0
ARC
  5
2E6
330
70
100
AcDbEntity
  8
Visible
100
AcDbCircle
 10
195.274441
 20
129.751218
 30
0.0
 40
1.464393807216665
100
AcDbArc
 50
236.262405
 51
239.997974
  0
LINE
  5
2E7
330
70
100
AcDbEntity
  8
Visible
100
AcDbLine
 10
194.573949
 20
128.538019
 30
0.0
 11
193.873949
 21
129.750455
 31
0.0
210
0.0000000000005933
220
0.0
230
-1.0
  0
ARC
  5
2E8
330
70
100
AcDbEntity
  8
Visible
100
AcDbCircle
 10
195.273901
 20
129.75047
 30
0.0
 40
1.463451882584199
100
AcDbArc
 50
180.000008
 51
183.737876
  0
LINE
  5
2E9
330
70
100
AcDbEntity
  8
Visible
100
AcDbLine
 10
194.573949
 20
130.962079
 30
0.0
 11
193.874183
 21
129.750049
 31
0.0
210
0.0000000000005933
220
0.0
230
-1.0
  0
LINE
  5
2EA
330
70
100
AcDbEntity
  8
Visible
100
AcDbLine
 10
194.573949
 20
130.962079
 30
0.0
 11
194.573949
 21
130.96289
 31
0.0
210
0.0000000000005933
220
0.0
230
-1.0
  0
ARC
  5
2EB
330
70
100
AcDbEntity
  8
Visible
100
AcDbCircle
 10
-195.273949
 20
129.749643
 30
0.0
 40
1.463499999999999
210
0.0000000000005933
220
0.0
230
-1.0
100
AcDbArc
 50
180.0
 51
0.0
  0
ARC
  5
2EC
330
70
100
AcDbEntity
  8
Visible
100
AcDbCircle
 10
-195.273949
 20
129.750471
 30
0.0
 40
1.463499999999999
210
0.0000000000005933
220
0.0
230
-1.0
100
AcDbArc
 50
183.737815
 51
236.262185
  0
ARC
  5
2ED
330
70
100
AcDbEntity
  8
Visible
100
AcDbCircle
 10
-195.273949
 20
129.750471
 30
0.0
 40
1.4635
210
0.0000000000005933
220
0.0
230
-1.0
100
AcDbArc
 50
243.737815
 51
296.262185
  0
ARC
  5
2EE
330
70
100
AcDbEntity
  8
Visible
100
AcDbCircle
 10
-195.273949
 20
129.750471
 30
0.0
 40
1.463499999999999
210
0.0000000000005933
220
0.0
230
-1.0
100
AcDbArc
 50
303.737815
 51
356.262185
  0
ARC
  5
2EF
330
70
100
AcDbEntity
  8
Visible
100
AcDbCircle
 10
-195.273949
 20
129.750471
 30
0.0
 40
1.4635
210
0.0000000000005933
220
0.0
230
-1.0
100
AcDbArc
 50
3.737815
 51
56.262185
  0
ARC
  5
2F0
330
70
100
AcDbEntity
  8
Visible
100
AcDbCircle
 10
-195.273949
 20
129.750471
 30
0.0
 40
1.4635
210
0.0000000000005933
220
0.0
230
-1.0
100
AcDbArc
 50
63.737815
 51
116.262185
  0
ARC
  5
2F1
330
70
100
AcDbEntity
  8
Visible
100
AcDbCircle
 10
-195.273949
 20
129.750471
 30
0.0
 40
1.463499999999999
210
0.0000000000005933
220
0.0
230
-1.0
100
AcDbArc
 50
123.737815
 51
176.262185
  0
LINE
  5
2F2
330
70
100
AcDbEntity
  8
Visible
100
AcDbLine
 10
195.973949
 20
130.962079
 30
0.0
 11
194.573949
 21
130.962079
 31
0.0
210
0.0000000000005933
220
0.0
230
-1.0
  0
LINE
  5
2F3
330
70
100
AcDbEntity
  8
Visible
100
AcDbLine
 10
195.973949
 20
130.962079
 30
0.0
 11
195.973949
 21
130.96289
 31
0.0
210
0.0000000000005933
220
0.0
230
-1.0
  0
LINE
  5
2F4
330
70
100
AcDbEntity
  8
Visible
100
AcDbLine
 10
196.673715
 20
129.750049
 30
0.0
 11
195.973949
 21
130.962079
 31
0.0
210
0.0000000000005933
220
0.0
230
-1.0
  0
LINE
  5
2F5
330
70
100
AcDbEntity
  8
Visible
100
AcDbLine
 10
195.973949
 20
128.538019
 30
0.0
 11
194.573949
 21
128.538019
 31
0.0
210
0.0000000000005933
220
0.0
230
-1.0
  0
LINE
  5
2F6
330
70
100
AcDbEntity
  8
Visible
100
AcDbLine
 10
196.737449
 20
129.750469
 30
0.0
 11
196.737449
 21
129.749643
 31
0.0
210
0.0000000000005933
220
0.0
230
-1.0
  0
LINE
  5
2F7
330
70
100
AcDbEntity
  8
Visible
100
AcDbLine
 10
193.810449
 20
129.750469
 30
0.0
 11
193.810449
 21
129.749643
 31
0.0
210
0.0000000000005933
220
0.0
230
-1.0
  0
LINE
  5
2F8
330
70
100
AcDbEntity
  8
Visible
100
AcDbLine
 10
206.244446
 20
103.74766
 30
0.0
 11
206.244446
 21
114.74766
 31
0.0
210
0.0000000000005933
220
0.0
230
-1.0
  0
LINE
  5
2F9
330
70
100
AcDbEntity
  8
Visible
100
AcDbLine
 10
205.744446
 20
114.74766
 30
0.0
 11
206.244446
 21
114.74766
 31
0.0
210
0.0000000000005933
220
0.0
230
-1.0
  0
LINE
  5
2FA
330
70
100
AcDbEntity
  8
Visible
100
AcDbLine
 10
205.744446
 20
103.74766
 30
0.0
 11
206.244446
 21
103.74766
 31
0.0
210
0.0000000000005933
220
0.0
230
-1.0
  0
LINE
  5
2FB
330
70
100
AcDbEntity
  8
Visible
100
AcDbLine
 10
209.744446
 20
111.29766
 30
0.0
 11
209.744446
 21
107.19766
 31
0.0
210
0.0000000000005933
220
0.0
230
-1.0
  0
ARC
  5
2FC
330
70
100
AcDbEntity
  8
Visible
100
AcDbCircle
 10
-209.244446
 20
107.19766
 30
0.0
 40
0.5
210
0.0000000000005933
220
0.0
230
-1.0
100
AcDbArc
 50
180.0
 51
270.0
  0
ARC
  5
2FD
330
70
100
AcDbEntity
  8
Visible
100
AcDbCircle
 10
-209.244446
 20
111.29766
 30
0.0
 40
0.5
210
0.0000000000005933
220
0.0
230
-1.0
100
AcDbArc
 50
90.0
 51
180.0
  0
LINE
  5
2FE
330
70
100
AcDbEntity
  8
Visible
100
AcDbLine
 10
206.244446
 20
111.79766
 30
0.0
 11
209.244446
 21
111.79766
 31
0.0
210
0.0000000000005933
220
0.0
230
-1.0
  0
LINE
  5
2FF
330
70
100
AcDbEntity
  8
Visible
100
AcDbLine
 10
206.244446
 20
106.69766
 30
0.0
 11
209.244446
 21
106.69766
 31
0.0
210
0.0000000000005933
220
0.0
230
-1.0
  0
SPLINE
  5
300
330
70
100
AcDbEntity
  8
Visible
100
AcDbSpline
210
0.0
220
0.0
230
1.0
 70
     8
 71
     3
 72
     8
 73
     4
 74
     0
 42
0.000000001
 43
0.0000000001
 40
0.0156354328489953
 40
0.0156354328489953
 40
0.0156354328489953
 40
0.0156354328489953
 40
0.0225269085333039
 40
0.0225269085333039
 40
0.0225269085333039
 40
0.0225269085333039
 10
208.7381212301334
 20
115.6476595321419
 30
0.0
 10
208.7426520102872
 20
115.6719123144885
 30
0.0
 10
208.744446179151
 20
115.6981658630247
 30
0.0
 10
208.744446179151
 20
115.7211374486378
 30
0.0
  0
LINE
  5
301
330
70
100
AcDbEntity
  8
Visible
100
AcDbLine
 10
208.744446
 20
116.774181
 30
0.0
 11
208.744446
 21
115.721137
 31
0.0
210
0.0000000000005933
220
0.0
230
-1.0
  0
SPLINE
  5
302
330
70
100
AcDbEntity
  8
Visible
100
AcDbSpline
210
0.0
220
0.0
230
1.0
 70
     8
 71
     3
 72
     8
 73
     4
 74
     0
 42
0.000000001
 43
0.0000000001
 40
0.0835286851383925
 40
0.0835286851383925
 40
0.0835286851383925
 40
0.0835286851383925
 40
0.0904201608227011
 40
0.0904201608227011
 40
0.0904201608227011
 40
0.0904201608227011
 10
208.744446179151
 20
116.7741813988341
 30
0.0
 10
208.744446179151
 20
116.797152984449
 30
0.0
 10
208.7426520102872
 20
116.8234065329852
 30
0.0
 10
208.7381212301334
 20
116.84765931533
 30
0.0
  0
SPLINE
  5
303
330
70
100
AcDbEntity
  8
Visible
100
AcDbSpline
210
0.0
220
0.0
230
1.0
 70
     8
 71
     3
 72
     8
 73
     4
 74
     0
 42
0.000000001
 43
0.0000000001
 40
0.0156354328489953
 40
0.0156354328489953
 40
0.0156354328489953
 40
0.0156354328489953
 40
0.022526908533304
 40
0.022526908533304
 40
0.022526908533304
 40
0.022526908533304
 10
208.7381212301334
 20
116.84765931533
 30
0.0
 10
208.7426520102872
 20
116.8597857127624
 30
0.0
 10
208.744446179151
 20
116.8729124938072
 30
0.0
 10
208.744446179151
 20
116.8843982925427
 30
0.0
  0
LINE
  5
304
330
70
100
AcDbEntity
  8
Visible
100
AcDbLine
 10
208.744446
 20
117.410921
 30
0.0
 11
208.744446
 21
116.884398
 31
0.0
210
0.0000000000005933
220
0.0
230
-1.0
  0
SPLINE
  5
305
330
70
100
AcDbEntity
  8
Visible
100
AcDbSpline
210
0.0
220
0.0
230
1.0
 70
     8
 71
     3
 72
     8
 73
     4
 74
     0
 42
0.000000001
 43
0.0000000001
 40
0.0835286851383925
 40
0.0835286851383925
 40
0.0835286851383925
 40
0.0835286851383925
 40
0.0904201608227014
 40
0.0904201608227014
 40
0.0904201608227014
 40
0.0904201608227014
 10
208.744446179151
 20
117.410920539427
 30
0.0
 10
208.744446179151
 20
117.4224063381643
 30
0.0
 10
208.742652010289
 20
117.4355331192073
 30
0.0
 10
208.7381212301352
 20
117.4476595166397
 30
0.0
  0
SPLINE
  5
306
330
70
100
AcDbEntity
  8
Visible
100
AcDbSpline
210
0.0
220
0.0
230
1.0
 70
     8
 71
     3
 72
     8
 73
     4
 74
     0
 42
0.000000001
 43
0.0000000001
 40
0.0156354328489952
 40
0.0156354328489952
 40
0.0156354328489952
 40
0.0156354328489952
 40
0.0225269085333039
 40
0.0225269085333039
 40
0.0225269085333039
 40
0.0225269085333039
 10
208.7381212301352
 20
115.0476599502635
 30
0.0
 10
208.742652010289
 20
115.0597863351759
 30
0.0
 10
208.744446179151
 20
115.0729131026692
 30
0.0
 10
208.744446179151
 20
115.0843988895467
 30
0.0
  0
LINE
  5
307
330
70
100
AcDbEntity
  8
Visible
100
AcDbLine
 10
208.744446
 20
115.610921
 30
0.0
 11
208.744446
 21
115.084399
 31
0.0
210
0.0000000000005933
220
0.0
230
-1.0
  0
SPLINE
  5
308
330
70
100
AcDbEntity
  8
Visible
100
AcDbSpline
210
0.0
220
0.0
230
1.0
 70
     8
 71
     3
 72
     8
 73
     4
 74
     0
 42
0.000000001
 43
0.0000000001
 40
0.0835286851383923
 40
0.0835286851383923
 40
0.0835286851383923
 40
0.0835286851383923
 40
0.0904201608227009
 40
0.0904201608227009
 40
0.0904201608227009
 40
0.0904201608227009
 10
208.744446179151
 20
115.6109205928587
 30
0.0
 10
208.744446179151
 20
115.6224063797381
 30
0.0
 10
208.7426520102872
 20
115.6355331472296
 30
0.0
 10
208.7381212301334
 20
115.6476595321419
 30
0.0
  0
ARC
  5
309
330
70
100
AcDbEntity
  8
Visible
100
AcDbCircle
 10
-208.644446
 20
115.08266
 30
0.0
 40
0.1
210
0.0000000000005933
220
0.0
230
-1.0
100
AcDbArc
 50
200.487183
 51
270.0
  0
ARC
  5
30A
330
70
100
AcDbEntity
  8
Visible
100
AcDbCircle
 10
-208.644446
 20
117.41266
 30
0.0
 40
0.1
210
0.0000000000005933
220
0.0
230
-1.0
100
AcDbArc
 50
90.0
 51
159.512817
  0
LINE
  5
30B
330
70
100
AcDbEntity
  8
Visible
100
AcDbLine
 10
205.744446
 20
117.51266
 30
0.0
 11
208.644446
 21
117.51266
 31
0.0
210
0.0000000000005933
220
0.0
230
-1.0
  0
LINE
  5
30C
330
70
100
AcDbEntity
  8
Visible
100
AcDbLine
 10
205.744446
 20
114.98266
 30
0.0
 11
208.644446
 21
114.98266
 31
0.0
210
0.0000000000005933
220
0.0
230
-1.0
  0
LINE
  5
30D
330
70
100
AcDbEntity
  8
Visible
100
AcDbLine
 10
80.244446
 20
114.74766
 30
0.0
 11
80.244446
 21
103.74766
 31
0.0
210
0.0000000000005933
220
0.0
230
-1.0
  0
LINE
  5
30E
330
70
100
AcDbEntity
  8
Visible
100
AcDbLine
 10
80.744446
 20
103.74766
 30
0.0
 11
80.244446
 21
103.74766
 31
0.0
210
0.0000000000005933
220
0.0
230
-1.0
  0
LINE
  5
30F
330
70
100
AcDbEntity
  8
Visible
100
AcDbLine
 10
80.744446
 20
114.74766
 30
0.0
 11
80.244446
 21
114.74766
 31
0.0
210
0.0000000000005933
220
0.0
230
-1.0
  0
LINE
  5
310
330
70
100
AcDbEntity
  8
Visible
100
AcDbLine
 10
76.744446
 20
107.19766
 30
0.0
 11
76.744446
 21
111.29766
 31
0.0
210
0.0000000000005933
220
0.0
230
-1.0
  0
ARC
  5
311
330
70
100
AcDbEntity
  8
Visible
100
AcDbCircle
 10
-77.244446
 20
111.29766
 30
0.0
 40
0.5
210
0.0000000000005933
220
0.0
230
-1.0
100
AcDbArc
 50
0.0
 51
90.0
  0
ARC
  5
312
330
70
100
AcDbEntity
  8
Visible
100
AcDbCircle
 10
-77.244446
 20
107.19766
 30
0.0
 40
0.5
210
0.0000000000005933
220
0.0
230
-1.0
100
AcDbArc
 50
270.0
 51
0.0
  0
LINE
  5
313
330
70
100
AcDbEntity
  8
Visible
100
AcDbLine
 10
80.244446
 20
106.69766
 30
0.0
 11
77.244446
 21
106.69766
 31
0.0
210
0.0000000000005933
220
0.0
230
-1.0
  0
LINE
  5
314
330
70
100
AcDbEntity
  8
Visible
100
AcDbLine
 10
80.244446
 20
111.79766
 30
0.0
 11
77.244446
 21
111.79766
 31
0.0
210
0.0000000000005933
220
0.0
230
-1.0
  0
SPLINE
  5
315
330
70
100
AcDbEntity
  8
Visible
100
AcDbSpline
210
0.0000000000014542
220
-0.0000000000002503
230
1.0
 70
     8
 71
     3
 72
     8
 73
     4
 74
     0
 42
0.000000001
 43
0.0000000001
 40
0.0156354328489952
 40
0.0156354328489952
 40
0.0156354328489952
 40
0.0156354328489952
 40
0.0225269085333039
 40
0.0225269085333039
 40
0.0225269085333039
 40
0.0225269085333039
 10
77.75077112816688
 20
117.4476595166397
 30
-0.0000000000000036
 10
77.74624034801309
 20
117.4355331317274
 30
0.0
 10
77.74444617915105
 20
117.4224063642341
 30
-0.0000000000000036
 10
77.74444617915105
 20
117.4109205773566
 30
-0.0000000000000036
  0
LINE
  5
316
330
70
100
AcDbEntity
  8
Visible
100
AcDbLine
 10
77.744446
 20
116.884399
 30
0.0
 11
77.744446
 21
117.410921
 31
0.0
210
0.0000000000005933
220
0.0
230
-1.0
  0
SPLINE
  5
317
330
70
100
AcDbEntity
  8
Visible
100
AcDbSpline
210
0.0000000000014542
220
0.0000000000002503
230
1.0
 70
     8
 71
     3
 72
     8
 73
     4
 74
     0
 42
0.000000001
 43
0.0000000001
 40
0.0835286851383923
 40
0.0835286851383923
 40
0.0835286851383923
 40
0.0835286851383923
 40
0.0904201608227008
 40
0.0904201608227008
 40
0.0904201608227008
 40
0.0904201608227008
 10
77.74444617915105
 20
116.8843988740445
 30
-0.0000000000000036
 10
77.74444617915105
 20
116.8729130871652
 30
-0.0000000000000036
 10
77.74624034801309
 20
116.8597863196737
 30
0.0
 10
77.75077112816688
 20
116.8476599347614
 30
-0.0000000000000036
  0
SPLINE
  5
318
330
70
100
AcDbEntity
  8
Visible
100
AcDbSpline
210
0.0000000000014542
220
-0.0000000000001252
230
1.0
 70
     8
 71
     3
 72
     8
 73
     4
 74
     0
 42
0.000000001
 43
0.0000000001
 40
0.0156354328489953
 40
0.0156354328489953
 40
0.0156354328489953
 40
0.0156354328489953
 40
0.0225269085333039
 40
0.0225269085333039
 40
0.0225269085333039
 40
0.0225269085333039
 10
77.75077112816688
 20
116.8476599347614
 30
-0.0000000000000036
 10
77.74624034801309
 20
116.8234071524148
 30
0.0
 10
77.74444617915105
 20
116.7971536038785
 30
-0.0000000000000036
 10
77.74444617915105
 20
116.7741820182655
 30
-0.0000000000000036
  0
LINE
  5
319
330
70
100
AcDbEntity
  8
Visible
100
AcDbLine
 10
77.744446
 20
115.721138
 30
0.0
 11
77.744446
 21
116.774182
 31
0.0
210
0.0000000000005933
220
0.0
230
-1.0
  0
SPLINE
  5
31A
330
70
100
AcDbEntity
  8
Visible
100
AcDbSpline
210
0.0000000000014542
220
0.0000000000001252
230
1.0
 70
     8
 71
     3
 72
     8
 73
     4
 74
     0
 42
0.000000001
 43
0.0000000001
 40
0.0835286851383925
 40
0.0835286851383925
 40
0.0835286851383925
 40
0.0835286851383925
 40
0.0904201608227011
 40
0.0904201608227011
 40
0.0904201608227011
 40
0.0904201608227011
 10
77.74444617915105
 20
115.7211380680692
 30
-0.0000000000000036
 10
77.74444617915105
 20
115.6981664824543
 30
-0.0000000000000036
 10
77.74624034801309
 20
115.671912933918
 30
0.0
 10
77.75077112816688
 20
115.6476601515733
 30
-0.0000000000000036
  0
SPLINE
  5
31B
330
70
100
AcDbEntity
  8
Visible
100
AcDbSpline
210
0.0000000000014542
220
-0.0000000000002503
230
1.0
 70
     8
 71
     3
 72
     8
 73
     4
 74
     0
 42
0.000000001
 43
0.0000000001
 40
0.0156354328489953
 40
0.0156354328489953
 40
0.0156354328489953
 40
0.0156354328489953
 40
0.022526908533304
 40
0.022526908533304
 40
0.022526908533304
 40
0.022526908533304
 10
77.75077112816688
 20
115.6476601515733
 30
-0.0000000000000036
 10
77.74624034801309
 20
115.6355337541408
 30
0.0
 10
77.74444617915105
 20
115.622406973096
 30
-0.0000000000000036
 10
77.74444617915105
 20
115.6109211743605
 30
-0.0000000000000036
  0
LINE
  5
31C
330
70
100
AcDbEntity
  8
Visible
100
AcDbLine
 10
77.744446
 20
115.084399
 30
0.0
 11
77.744446
 21
115.610921
 31
0.0
210
0.0000000000005933
220
0.0
230
-1.0
  0
SPLINE
  5
31D
330
70
100
AcDbEntity
  8
Visible
100
AcDbSpline
210
0.0000000000014542
220
0.0000000000002503
230
1.0
 70
     8
 71
     3
 72
     8
 73
     4
 74
     0
 42
0.000000001
 43
0.0000000001
 40
0.0835286851383925
 40
0.0835286851383925
 40
0.0835286851383925
 40
0.0835286851383925
 40
0.0904201608227013
 40
0.0904201608227013
 40
0.0904201608227013
 40
0.0904201608227013
 10
77.74444617915105
 20
115.0843989274763
 30
-0.0000000000000036
 10
77.74444617915105
 20
115.0729131287389
 30
-0.0000000000000036
 10
77.74624034801309
 20
115.059786347696
 30
0.0
 10
77.75077112816688
 20
115.0476599502635
 30
-0.0000000000000036
  0
ARC
  5
31E
330
70
100
AcDbEntity
  8
Visible
100
AcDbCircle
 10
-77.844446
 20
117.41266
 30
0.0
 40
0.1
210
0.0000000000005933
220
0.0
230
-1.0
100
AcDbArc
 50
20.487183
 51
90.0
  0
ARC
  5
31F
330
70
100
AcDbEntity
  8
Visible
100
AcDbCircle
 10
-77.844446
 20
115.08266
 30
0.0
 40
0.1
210
0.0000000000005933
220
0.0
230
-1.0
100
AcDbArc
 50
270.0
 51
339.512817
  0
LINE
  5
320
330
70
100
AcDbEntity
  8
Visible
100
AcDbLine
 10
80.744446
 20
114.98266
 30
0.0
 11
77.844446
 21
114.98266
 31
0.0
210
0.0000000000005933
220
0.0
230
-1.0
  0
LINE
  5
321
330
70
100
AcDbEntity
  8
Visible
100
AcDbLine
 10
80.744446
 20
117.51266
 30
0.0
 11
77.844446
 21
117.51266
 31
0.0
210
0.0000000000005933
220
0.0
230
-1.0
  0
LINE
  5
322
330
70
100
AcDbEntity
  8
Visible
100
AcDbLine
 10
88.744446
 20
110.71116
 30
0.0
 11
88.744446
 21
107.78416
 31
0.0
210
0.0000000000005933
220
0.0
230
-1.0
  0
LINE
  5
323
330
70
100
AcDbEntity
  8
Visible
100
AcDbLine
 10
86.744446
 20
110.71116
 30
0.0
 11
88.744446
 21
110.71116
 31
0.0
210
0.0000000000005933
220
0.0
230
-1.0
  0
LINE
  5
324
330
70
100
AcDbEntity
  8
Visible
100
AcDbLine
 10
86.744446
 20
107.78416
 30
0.0
 11
88.744446
 21
107.78416
 31
0.0
210
0.0000000000005933
220
0.0
230
-1.0
  0
ELLIPSE
  5
325
330
70
100
AcDbEntity
  8
Visible
100
AcDbEllipse
 10
86.244446
 20
106.880524
 30
0.0
 11
0.0000000000091564
 21
0.5773502691899921
 31
0.0
210
0.0
220
0.0
230
-1.0
 40
0.8660254037838891
 41
1.570796326781162
 42
3.141592653571479
  0
LINE
  5
326
330
70
100
AcDbEntity
  8
Visible
100
AcDbLine
 10
86.744446
 20
106.880524
 30
0.0
 11
86.744446
 21
108.064092
 31
0.0
210
0.0000000000005933
220
0.0
230
-1.0
  0
ELLIPSE
  5
327
330
70
100
AcDbEntity
  8
Visible
100
AcDbEllipse
 10
86.244446
 20
108.064092
 30
0.0
 11
0.5
 21
0.0000000000006181
 31
0.0
210
0.0
220
0.0
230
-1.0
 40
0.5773502691881732
 41
0.000000000002141
 42
1.57079632679561
  0
LINE
  5
328
330
70
100
AcDbEntity
  8
Visible
100
AcDbLine
 10
86.744446
 20
108.064092
 30
0.0
 11
86.744446
 21
110.431228
 31
0.0
210
0.0000000000005933
220
0.0
230
-1.0
  0
ELLIPSE
  5
329
330
70
100
AcDbEntity
  8
Visible
100
AcDbEllipse
 10
86.244446
 20
110.431228
 30
0.0
 11
-0.5
 21
0.0000000000006181
 31
0.0
210
0.0
220
0.0
230
1.0
 40
0.5773502691881732
 41
3.141592653591934
 42
4.712388980385403
  0
LINE
  5
32A
330
70
100
AcDbEntity
  8
Visible
100
AcDbLine
 10
86.744446
 20
110.431228
 30
0.0
 11
86.744446
 21
111.614796
 31
0.0
210
0.0000000000005933
220
0.0
230
-1.0
  0
ELLIPSE
  5
32B
330
70
100
AcDbEntity
  8
Visible
100
AcDbEllipse
 10
86.244446
 20
111.614796
 30
0.0
 11
-0.0000000000091564
 21
0.5773502691899921
 31
0.0
210
0.0
220
0.0
230
1.0
 40
0.8660254037838891
 41
4.712388980370954
 42
6.283185307161273
  0
LINE
  5
32C
330
70
100
AcDbEntity
  8
Visible
100
AcDbLine
 10
84.744446
 20
112.192146
 30
0.0
 11
86.244446
 21
112.192146
 31
0.0
210
0.0000000000005933
220
0.0
230
-1.0
  0
LINE
  5
32D
330
70
100
AcDbEntity
  8
Visible
100
AcDbLine
 10
84.744446
 20
106.303173
 30
0.0
 11
86.244446
 21
106.303173
 31
0.0
210
0.0000000000005933
220
0.0
230
-1.0
  0
LINE
  5
32E
330
70
100
AcDbEntity
  8
Visible
100
AcDbLine
 10
84.744446
 20
110.719903
 30
0.0
 11
86.244446
 21
110.719903
 31
0.0
210
0.0000000000005933
220
0.0
230
-1.0
  0
LINE
  5
32F
330
70
100
AcDbEntity
  8
Visible
100
AcDbLine
 10
84.744446
 20
107.775417
 30
0.0
 11
86.244446
 21
107.775417
 31
0.0
210
0.0000000000005933
220
0.0
230
-1.0
  0
ARC
  5
330
330
70
100
AcDbEntity
  8
Visible
100
AcDbCircle
 10
92.773901
 20
129.75047
 30
0.0
 40
1.463451882615618
100
AcDbArc
 50
180.000008
 51
183.737876
  0
ARC
  5
331
330
70
100
AcDbEntity
  8
Visible
100
AcDbCircle
 10
92.774441
 20
129.751218
 30
0.0
 40
1.464393807178017
100
AcDbArc
 50
236.262405
 51
239.997974
  0
LINE
  5
332
330
70
100
AcDbEntity
  8
Visible
100
AcDbLine
 10
92.073949
 20
128.538019
 30
0.0
 11
91.373949
 21
129.750455
 31
0.0
210
0.0000000000005933
220
0.0
230
-1.0
  0
ARC
  5
333
330
70
100
AcDbEntity
  8
Visible
100
AcDbCircle
 10
92.774328
 20
129.751229
 30
0.0
 40
1.464347188825938
100
AcDbArc
 50
240.002036
 51
243.737655
  0
ARC
  5
334
330
70
100
AcDbEntity
  8
Visible
100
AcDbCircle
 10
92.773571
 20
129.751229
 30
0.0
 40
1.46434718882435
100
AcDbArc
 50
296.262345
 51
299.997964
  0
SPLINE
  5
335
330
70
100
AcDbEntity
  8
Visible
100
AcDbSpline
210
0.000000000001262
220
-0.0000000000019594
230
-1.0
 70
     8
 71
     3
 72
     8
 73
     4
 74
     0
 42
0.000000001
 43
0.0000000001
 40
0.0297706592277698
 40
0.0297706592277698
 40
0.0297706592277698
 40
0.0297706592277698
 40
0.0388301936719572
 40
0.0388301936719572
 40
0.0388301936719572
 40
0.0388301936719572
 10
93.58676739157635
 20
128.533442451313
 30
0.0
 10
93.56165473204782
 20
128.5166704331222
 30
0.0
 10
93.53289004560975
 20
128.4987411428574
 30
0.0
 10
93.50569916866879
 20
128.4830411726561
 30
-0.0000000000000036
  0
SPLINE
  5
336
330
70
100
AcDbEntity
  8
Visible
100
AcDbSpline
210
0.0
220
0.0
230
1.0
 70
     8
 71
     3
 72
     8
 73
     4
 74
     0
 42
0.000000001
 43
0.0000000001
 40
0.0671316929006296
 40
0.0671316929006296
 40
0.0671316929006296
 40
0.0671316929006296
 40
0.076191227344817
 40
0.076191227344817
 40
0.076191227344817
 40
0.076191227344817
 10
94.23744916866416
 20
129.7504693337068
 30
0.0
 10
94.23744916866416
 20
129.7190733241896
 30
0.0
 10
94.2363046907667
 20
129.6851984229251
 30
0.0
 10
94.23433602650584
 20
129.6550642130187
 30
0.0
  0
LINE
  5
337
330
70
100
AcDbEntity
  8
Visible
100
AcDbLine
 10
94.173949
 20
129.750455
 30
0.0
 11
93.473949
 21
128.538019
 31
0.0
210
0.0000000000005933
220
0.0
230
-1.0
  0
ARC
  5
338
330
70
100
AcDbEntity
  8
Visible
100
AcDbCircle
 10
-92.773904
 20
129.75047
 30
0.0
 40
1.463545140404233
210
0.0000000000005933
220
0.0
230
-1.0
100
AcDbArc
 50
176.262243
 51
180.000012
  0
ARC
  5
339
330
70
100
AcDbEntity
  8
Visible
100
AcDbCircle
 10
-92.774442
 20
129.751219
 30
0.0
 40
1.462604332742698
210
0.0000000000005933
220
0.0
230
-1.0
100
AcDbArc
 50
119.99797
 51
123.738037
  0
SPLINE
  5
33A
330
70
100
AcDbEntity
  8
Visible
100
AcDbSpline
210
0.0
220
0.0
230
1.0
 70
     8
 71
     3
 72
     8
 73
     4
 74
     0
 42
0.000000001
 43
0.0000000001
 40
0.0671316929006287
 40
0.0671316929006287
 40
0.0671316929006287
 40
0.0671316929006287
 40
0.0761912273448171
 40
0.0761912273448171
 40
0.0761912273448171
 40
0.0761912273448171
 10
92.04219916866895
 20
131.0178974947739
 30
0.0
 10
92.06939004561172
 20
131.0335974649752
 30
0.0
 10
92.09929920994545
 20
131.0495444614007
 30
0.0
 10
92.12638053373485
 20
131.0629066531164
 30
0.0
  0
SPLINE
  5
33B
330
70
100
AcDbEntity
  8
Visible
100
AcDbSpline
210
-0.0000000000016349
220
-0.0000000000030578
230
1.0
 70
     8
 71
     3
 72
     8
 73
     4
 74
     0
 42
0.000000001
 43
0.0000000001
 40
0.0297706592277733
 40
0.0297706592277733
 40
0.0297706592277733
 40
0.0297706592277733
 40
0.0388301936719599
 40
0.0388301936719599
 40
0.0388301936719599
 40
0.0388301936719599
 10
93.42151780359381
 20
131.0629066531164
 30
-0.0000000000000036
 10
93.4485991273832
 20
131.0495444614007
 30
0.0
 10
93.47850829171875
 20
131.0335974649752
 30
0.0
 10
93.50569916865969
 20
131.0178974947739
 30
-0.0000000000000036
  0
ARC
  5
33C
330
70
100
AcDbEntity
  8
Visible
100
AcDbCircle
 10
92.773994
 20
129.75047
 30
0.0
 40
1.463545140379377
100
AcDbArc
 50
176.262243
 51
180.000012
  0
ARC
  5
33D
330
70
100
AcDbEntity
  8
Visible
100
AcDbCircle
 10
-92.773456
 20
129.751219
 30
0.0
 40
1.462604332737311
210
0.0000000000005933
220
0.0
230
-1.0
100
AcDbArc
 50
56.261963
 51
60.00203
  0
LINE
  5
33E
330
70
100
AcDbEntity
  8
Visible
100
AcDbLine
 10
92.073949
 20
130.962079
 30
0.0
 11
92.073949
 21
130.96289
 31
0.0
210
0.0000000000005933
220
0.0
230
-1.0
  0
LINE
  5
33F
330
70
100
AcDbEntity
  8
Visible
100
AcDbLine
 10
93.473949
 20
130.962079
 30
0.0
 11
92.073949
 21
130.962079
 31
0.0
210
0.0000000000005933
220
0.0
230
-1.0
  0
LINE
  5
340
330
70
100
AcDbEntity
  8
Visible
100
AcDbLine
 10
93.473949
 20
130.962079
 30
0.0
 11
93.473949
 21
130.96289
 31
0.0
210
0.0000000000005933
220
0.0
230
-1.0
  0
LINE
  5
341
330
70
100
AcDbEntity
  8
Visible
100
AcDbLine
 10
92.073949
 20
130.962079
 30
0.0
 11
91.374183
 21
129.750049
 31
0.0
210
0.0000000000005933
220
0.0
230
-1.0
  0
ARC
  5
342
330
70
100
AcDbEntity
  8
Visible
100
AcDbCircle
 10
-92.773949
 20
129.750471
 30
0.0
 40
1.463499999999999
210
0.0000000000005933
220
0.0
230
-1.0
100
AcDbArc
 50
303.737815
 51
356.262185
  0
ARC
  5
343
330
70
100
AcDbEntity
  8
Visible
100
AcDbCircle
 10
-92.773949
 20
129.750471
 30
0.0
 40
1.4635
210
0.0000000000005933
220
0.0
230
-1.0
100
AcDbArc
 50
3.737815
 51
56.262185
  0
ARC
  5
344
330
70
100
AcDbEntity
  8
Visible
100
AcDbCircle
 10
-92.773949
 20
129.750471
 30
0.0
 40
1.4635
210
0.0000000000005933
220
0.0
230
-1.0
100
AcDbArc
 50
63.737815
 51
116.262185
  0
ARC
  5
345
330
70
100
AcDbEntity
  8
Visible
100
AcDbCircle
 10
-92.773949
 20
129.750471
 30
0.0
 40
1.4635
210
0.0000000000005933
220
0.0
230
-1.0
100
AcDbArc
 50
123.737815
 51
176.262185
  0
ARC
  5
346
330
70
100
AcDbEntity
  8
Visible
100
AcDbCircle
 10
-92.773949
 20
129.750471
 30
0.0
 40
1.463499999999999
210
0.0000000000005933
220
0.0
230
-1.0
100
AcDbArc
 50
183.737815
 51
236.262185
  0
ARC
  5
347
330
70
100
AcDbEntity
  8
Visible
100
AcDbCircle
 10
-92.773949
 20
129.750471
 30
0.0
 40
1.463499999999999
210
0.0000000000005933
220
0.0
230
-1.0
100
AcDbArc
 50
243.737815
 51
296.262185
  0
ARC
  5
348
330
70
100
AcDbEntity
  8
Visible
100
AcDbCircle
 10
-92.773949
 20
129.749643
 30
0.0
 40
1.463499999999999
210
0.0000000000005933
220
0.0
230
-1.0
100
AcDbArc
 50
180.0
 51
0.0
  0
LINE
  5
349
330
70
100
AcDbEntity
  8
Visible
100
AcDbLine
 10
94.173715
 20
129.750049
 30
0.0
 11
93.473949
 21
130.962079
 31
0.0
210
0.0000000000005933
220
0.0
230
-1.0
  0
LINE
  5
34A
330
70
100
AcDbEntity
  8
Visible
100
AcDbLine
 10
93.473949
 20
128.538019
 30
0.0
 11
92.073949
 21
128.538019
 31
0.0
210
0.0000000000005933
220
0.0
230
-1.0
  0
LINE
  5
34B
330
70
100
AcDbEntity
  8
Visible
100
AcDbLine
 10
91.310449
 20
129.749643
 30
0.0
 11
91.310449
 21
129.750469
 31
0.0
210
0.0000000000005933
220
0.0
230
-1.0
  0
LINE
  5
34C
330
70
100
AcDbEntity
  8
Visible
100
AcDbLine
 10
94.237449
 20
129.749643
 30
0.0
 11
94.237449
 21
129.750469
 31
0.0
210
0.0000000000005933
220
0.0
230
-1.0
  0
LINE
  5
34D
330
70
100
AcDbEntity
  8
Visible
100
AcDbLine
 10
338.201785
 20
205.289497
 30
0.0
 11
338.201702
 21
205.789478
 31
0.0
210
-1.0
220
-0.0000000000000002
230
-0.0000000000008899
  0
LINE
  5
34E
330
70
100
AcDbEntity
  8
Visible
100
AcDbLine
 10
338.201702
 20
205.789478
 30
0.0
 11
306.201657
 21
206.063439
 31
0.0
210
-1.0
220
-0.0000000000000002
230
-0.0000000000008899
  0
LINE
  5
34F
330
70
100
AcDbEntity
  8
Visible
100
AcDbLine
 10
306.20174
 20
205.563458
 30
0.0
 11
306.201657
 21
206.063439
 31
0.0
210
-1.0
220
-0.0000000000000002
230
-0.0000000000008899
  0
LINE
  5
350
330
70
100
AcDbEntity
  8
Visible
100
AcDbLine
 10
338.201785
 20
205.289497
 30
0.0
 11
338.214875
 21
126.247574
 31
0.0
210
-1.0
220
-0.0000000000000002
230
-0.0000000000008899
  0
LINE
  5
351
330
70
100
AcDbEntity
  8
Visible
100
AcDbLine
 10
338.214874
 20
126.247574
 30
0.0
 11
338.214957
 21
125.750309
 31
0.0
210
-1.0
220
-0.0000000000000002
230
-0.0000000000008899
  0
LINE
  5
352
330
70
100
AcDbEntity
  8
Visible
100
AcDbLine
 10
306.214958
 20
125.74501
 30
0.0
 11
306.214876
 21
126.242275
 31
0.0
210
-1.0
220
-0.0000000000000002
230
-0.0000000000008899
  0
LINE
  5
353
330
70
100
AcDbEntity
  8
Visible
100
AcDbLine
 10
338.214957
 20
125.750309
 30
0.0
 11
306.214958
 21
125.74501
 31
0.0
210
-1.0
220
-0.0000000000000002
230
-0.0000000000008899
  0
LINE
  5
354
330
70
100
AcDbEntity
  8
Visible
100
AcDbLine
 10
306.20174
 20
205.563458
 30
0.0
 11
306.214876
 21
126.242275
 31
0.0
210
-1.0
220
-0.0000000000000002
230
-0.0000000000008899
  0
CIRCLE
  5
355
330
70
100
AcDbEntity
  8
Visible
100
AcDbCircle
 10
322.21769
 20
116.24766
 30
0.0
 40
1.299999999999999
  0
CIRCLE
  5
356
330
70
100
AcDbEntity
  8
Visible
100
AcDbCircle
 10
322.21769
 20
102.24766
 30
0.0
 40
1.3
  0
ARC
  5
357
330
70
100
AcDbEntity
  8
Visible
100
AcDbCircle
 10
-322.21769
 20
109.24766
 30
0.0
 40
16.00000000000001
210
0.0
220
-0.0000000000000002
230
-1.0
100
AcDbArc
 50
0.0
 51
180.0
  0
LINE
  5
358
330
70
100
AcDbEntity
  8
Visible
100
AcDbLine
 10
306.21769
 20
88.24766
 30
0.0
 11
306.21769
 21
90.74766
 31
0.0
210
-1.0
220
-0.0000000000000002
230
-0.0000000000008899
  0
LINE
  5
359
330
70
100
AcDbEntity
  8
Visible
100
AcDbLine
 10
306.21769
 20
109.24766
 30
0.0
 11
306.21769
 21
90.74766
 31
0.0
210
-1.0
220
-0.0000000000000002
230
-0.0000000000008899
  0
LINE
  5
35A
330
70
100
AcDbEntity
  8
Visible
100
AcDbLine
 10
338.21769
 20
88.24766
 30
0.0
 11
338.21769
 21
90.74766
 31
0.0
210
-1.0
220
-0.0000000000000002
230
-0.0000000000008899
  0
LINE
  5
35B
330
70
100
AcDbEntity
  8
Visible
100
AcDbLine
 10
306.21769
 20
88.24766
 30
0.0
 11
338.21769
 21
88.24766
 31
0.0
210
-1.0
220
-0.0000000000000002
230
-0.0000000000008899
  0
LINE
  5
35C
330
70
100
AcDbEntity
  8
Visible
100
AcDbLine
 10
338.21769
 20
109.24766
 30
0.0
 11
338.21769
 21
90.74766
 31
0.0
210
-1.0
220
-0.0000000000000002
230
-0.0000000000008899
  0
LINE
  5
35D
330
70
100
AcDbEntity
  8
Visible
100
AcDbLine
 10
338.214957
 20
125.750309
 30
0.0
 11
338.215371
 21
123.250309
 31
0.0
210
-1.0
220
-0.0000000000000002
230
-0.0000000000008899
  0
LINE
  5
35E
330
70
100
AcDbEntity
  8
Visible
100
AcDbLine
 10
306.214958
 20
125.74501
 30
0.0
 11
306.215372
 21
123.24501
 31
0.0
210
-1.0
220
-0.0000000000000002
230
-0.0000000000008899
  0
LINE
  5
35F
330
70
100
AcDbEntity
  8
Visible
100
AcDbLine
 10
306.21769
 20
109.24766
 30
0.0
 11
306.215372
 21
123.24501
 31
0.0
210
-1.0
220
-0.0000000000000002
230
-0.0000000000008899
  0
ARC
  5
360
330
70
100
AcDbEntity
  8
Visible
100
AcDbCircle
 10
-322.217772
 20
108.755235
 30
0.0
 40
16.00757575757577
210
0.0
220
-0.0000000000000002
230
-1.0
100
AcDbArc
 50
181.75332
 51
181.772271
  0
LINE
  5
361
330
70
100
AcDbEntity
  8
Visible
100
AcDbLine
 10
338.217853
 20
108.265461
 30
0.0
 11
338.215371
 21
123.250309
 31
0.0
210
-1.0
220
-0.0000000000000002
230
-0.0000000000008899
  0
ARC
  5
362
330
70
100
AcDbEntity
  8
Visible
100
AcDbCircle
 10
321.001011
 20
116.141113
 30
0.0
 40
0.7500000000000011
100
AcDbArc
 50
80.658528
 51
83.539304
  0
ARC
  5
363
330
70
100
AcDbEntity
  8
Visible
100
AcDbCircle
 10
323.432086
 20
116.141515
 30
0.0
 40
0.7500000000000014
100
AcDbArc
 50
96.31204
 51
99.196483
  0
ARC
  5
364
330
70
100
AcDbEntity
  8
Visible
100
AcDbCircle
 10
323.432086
 20
116.141515
 30
0.0
 40
0.7500000000000014
100
AcDbArc
 50
250.813006
 51
253.697448
  0
ARC
  5
365
330
70
100
AcDbEntity
  8
Visible
100
AcDbCircle
 10
321.001011
 20
116.141113
 30
0.0
 40
0.7500000000000014
100
AcDbArc
 50
286.470184
 51
289.35096
  0
CIRCLE
  5
366
330
70
100
AcDbEntity
  8
Visible
100
AcDbCircle
 10
322.21769
 20
109.24766
 30
0.0
 40
5.499999999999999
  0
LINE
  5
367
330
70
100
AcDbEntity
  8
Visible
100
AcDbLine
 10
323.516728
 20
108.49766
 30
0.0
 11
323.766728
 21
108.353322
 31
0.0
210
-1.0
220
-0.0000000000000002
230
-0.0000000000008899
  0
LINE
  5
368
330
70
100
AcDbEntity
  8
Visible
100
AcDbLine
 10
323.516728
 20
108.49766
 30
0.0
 11
322.21769
 21
107.74766
 31
0.0
210
-1.0
220
-0.0000000000000002
230
-0.0000000000008899
  0
LINE
  5
369
330
70
100
AcDbEntity
  8
Visible
100
AcDbLine
 10
322.21769
 20
107.74766
 30
0.0
 11
322.21769
 21
107.458985
 31
0.0
210
-1.0
220
-0.0000000000000002
230
-0.0000000000008899
  0
LINE
  5
36A
330
70
100
AcDbEntity
  8
Visible
100
AcDbLine
 10
323.516728
 20
109.99766
 30
0.0
 11
323.766728
 21
110.141997
 31
0.0
210
-1.0
220
-0.0000000000000002
230
-0.0000000000008899
  0
LINE
  5
36B
330
70
100
AcDbEntity
  8
Visible
100
AcDbLine
 10
323.516728
 20
109.99766
 30
0.0
 11
323.516728
 21
108.49766
 31
0.0
210
-1.0
220
-0.0000000000000002
230
-0.0000000000008899
  0
LINE
  5
36C
330
70
100
AcDbEntity
  8
Visible
100
AcDbLine
 10
320.918652
 20
109.99766
 30
0.0
 11
320.668652
 21
110.141997
 31
0.0
210
-1.0
220
-0.0000000000000002
230
-0.0000000000008899
  0
LINE
  5
36D
330
70
100
AcDbEntity
  8
Visible
100
AcDbLine
 10
320.918652
 20
109.99766
 30
0.0
 11
322.21769
 21
110.74766
 31
0.0
210
-1.0
220
-0.0000000000000002
230
-0.0000000000008899
  0
LINE
  5
36E
330
70
100
AcDbEntity
  8
Visible
100
AcDbLine
 10
322.21769
 20
111.036335
 30
0.0
 11
322.21769
 21
110.74766
 31
0.0
210
-1.0
220
-0.0000000000000002
230
-0.0000000000008899
  0
LINE
  5
36F
330
70
100
AcDbEntity
  8
Visible
100
AcDbLine
 10
320.918652
 20
108.49766
 30
0.0
 11
320.918652
 21
109.99766
 31
0.0
210
-1.0
220
-0.0000000000000002
230
-0.0000000000008899
  0
LINE
  5
370
330
70
100
AcDbEntity
  8
Visible
100
AcDbLine
 10
320.918652
 20
108.49766
 30
0.0
 11
320.668652
 21
108.353322
 31
0.0
210
-1.0
220
-0.0000000000000002
230
-0.0000000000008899
  0
LINE
  5
371
330
70
100
AcDbEntity
  8
Visible
100
AcDbLine
 10
322.21769
 20
110.74766
 30
0.0
 11
323.516728
 21
109.99766
 31
0.0
210
-1.0
220
-0.0000000000000002
230
-0.0000000000008899
  0
LINE
  5
372
330
70
100
AcDbEntity
  8
Visible
100
AcDbLine
 10
322.21769
 20
107.74766
 30
0.0
 11
320.918652
 21
108.49766
 31
0.0
210
-1.0
220
-0.0000000000000002
230
-0.0000000000008899
  0
CIRCLE
  5
373
330
70
100
AcDbEntity
  8
Visible
100
AcDbCircle
 10
322.21769
 20
109.24766
 30
0.0
 40
2.550000000000001
  0
CIRCLE
  5
374
330
70
100
AcDbEntity
  8
Visible
100
AcDbCircle
 10
322.21769
 20
116.24766
 30
0.0
 40
1.265
  0
LINE
  5
375
330
70
100
AcDbEntity
  8
Visible
100
AcDbLine
 10
321.17846
 20
115.64766
 30
0.0
 11
321.17846
 21
115.721137
 31
0.0
210
-1.0
220
-0.0000000000000002
230
-0.0000000000008899
  0
LINE
  5
376
330
70
100
AcDbEntity
  8
Visible
100
AcDbLine
 10
321.17846
 20
116.774181
 30
0.0
 11
321.17846
 21
116.847659
 31
0.0
210
-1.0
220
-0.0000000000000002
230
-0.0000000000008899
  0
LINE
  5
377
330
70
100
AcDbEntity
  8
Visible
100
AcDbLine
 10
321.17846
 20
116.847659
 30
0.0
 11
321.242093
 21
116.884398
 31
0.0
210
-1.0
220
-0.0000000000000002
230
-0.0000000000008899
  0
LINE
  5
378
330
70
100
AcDbEntity
  8
Visible
100
AcDbLine
 10
322.154056
 20
117.410921
 30
0.0
 11
322.21769
 21
117.44766
 31
0.0
210
-1.0
220
-0.0000000000000002
230
-0.0000000000008899
  0
LINE
  5
379
330
70
100
AcDbEntity
  8
Visible
100
AcDbLine
 10
322.21769
 20
117.44766
 30
0.0
 11
322.281324
 21
117.410921
 31
0.0
210
-1.0
220
-0.0000000000000002
230
-0.0000000000008899
  0
LINE
  5
37A
330
70
100
AcDbEntity
  8
Visible
100
AcDbLine
 10
323.193286
 20
116.884399
 30
0.0
 11
323.25692
 21
116.84766
 31
0.0
210
-1.0
220
-0.0000000000000002
230
-0.0000000000008899
  0
LINE
  5
37B
330
70
100
AcDbEntity
  8
Visible
100
AcDbLine
 10
323.25692
 20
116.84766
 30
0.0
 11
323.25692
 21
116.774182
 31
0.0
210
-1.0
220
-0.0000000000000002
230
-0.0000000000008899
  0
LINE
  5
37C
330
70
100
AcDbEntity
  8
Visible
100
AcDbLine
 10
323.256921
 20
115.721138
 30
0.0
 11
323.256921
 21
115.64766
 31
0.0
210
-1.0
220
-0.0000000000000002
230
-0.0000000000008899
  0
LINE
  5
37D
330
70
100
AcDbEntity
  8
Visible
100
AcDbLine
 10
323.256921
 20
115.64766
 30
0.0
 11
323.193287
 21
115.610921
 31
0.0
210
-1.0
220
-0.0000000000000002
230
-0.0000000000008899
  0
LINE
  5
37E
330
70
100
AcDbEntity
  8
Visible
100
AcDbLine
 10
322.281324
 20
115.084399
 30
0.0
 11
322.21769
 21
115.04766
 31
0.0
210
-1.0
220
-0.0000000000000002
230
-0.0000000000008899
  0
LINE
  5
37F
330
70
100
AcDbEntity
  8
Visible
100
AcDbLine
 10
322.21769
 20
115.04766
 30
0.0
 11
322.154057
 21
115.084399
 31
0.0
210
-1.0
220
-0.0000000000000002
230
-0.0000000000008899
  0
LINE
  5
380
330
70
100
AcDbEntity
  8
Visible
100
AcDbLine
 10
321.242094
 20
115.610921
 30
0.0
 11
321.17846
 21
115.64766
 31
0.0
210
-1.0
220
-0.0000000000000002
230
-0.0000000000008899
  0
LINE
  5
381
330
70
100
AcDbEntity
  8
Visible
100
AcDbLine
 10
321.17846
 20
115.721137
 30
0.0
 11
321.17846
 21
116.774181
 31
0.0
210
-1.0
220
-0.0000000000000002
230
-0.0000000000008899
  0
LINE
  5
382
330
70
100
AcDbEntity
  8
Visible
100
AcDbLine
 10
322.154057
 20
115.084399
 30
0.0
 11
321.242094
 21
115.610921
 31
0.0
210
-1.0
220
-0.0000000000000002
230
-0.0000000000008899
  0
LINE
  5
383
330
70
100
AcDbEntity
  8
Visible
100
AcDbLine
 10
323.193287
 20
115.610921
 30
0.0
 11
322.281324
 21
115.084399
 31
0.0
210
-1.0
220
-0.0000000000000002
230
-0.0000000000008899
  0
LINE
  5
384
330
70
100
AcDbEntity
  8
Visible
100
AcDbLine
 10
323.25692
 20
116.774182
 30
0.0
 11
323.256921
 21
115.721138
 31
0.0
210
-1.0
220
-0.0000000000000002
230
-0.0000000000008899
  0
LINE
  5
385
330
70
100
AcDbEntity
  8
Visible
100
AcDbLine
 10
322.281324
 20
117.410921
 30
0.0
 11
323.193286
 21
116.884399
 31
0.0
210
-1.0
220
-0.0000000000000002
230
-0.0000000000008899
  0
LINE
  5
386
330
70
100
AcDbEntity
  8
Visible
100
AcDbLine
 10
321.242093
 20
116.884398
 30
0.0
 11
322.154056
 21
117.410921
 31
0.0
210
-1.0
220
-0.0000000000000002
230
-0.0000000000008899
  0
ARC
  5
387
330
70
100
AcDbEntity
  8
Visible
100
AcDbCircle
 10
338.848334
 20
129.662259
 30
0.0
 40
0.366046747040487
100
AcDbArc
 50
358.873709
 51
13.944401
  0
SPLINE
  5
388
330
70
100
AcDbEntity
  8
Visible
100
AcDbSpline
210
0.0
220
0.0
230
1.0
 70
     8
 71
     3
 72
    10
 73
     6
 74
     0
 42
0.000000001
 43
0.0000000001
 40
0.0670580404032724
 40
0.0670580404032724
 40
0.0670580404032724
 40
0.0670580404032724
 40
0.0681310090352305
 40
0.0681310090352305
 40
0.0761785340845892
 40
0.0761785340845892
 40
0.0761785340845892
 40
0.0761785340845892
 10
339.2038031884925
 20
128.4830411726525
 30
0.0
 10
339.2047352400526
 20
128.4848912178968
 30
0.0
 10
339.2055942179278
 20
128.4867687920959
 30
0.0
 10
339.2123673455821
 20
128.5029198240518
 30
0.0
 10
339.2144981763891
 20
128.5185439775141
 30
0.0
 10
339.2144957091464
 20
128.5334424513093
 30
0.0
  0
ARC
  5
389
330
70
100
AcDbEntity
  8
Visible
100
AcDbCircle
 10
339.114517
 20
128.43802
 30
0.0
 40
0.0999944508530986
100
AcDbArc
 50
0.008732
 51
26.758668
  0
SPLINE
  5
38A
330
70
100
AcDbEntity
  8
Visible
100
AcDbSpline
210
0.0
220
0.0
230
1.0
 70
     8
 71
     3
 72
     8
 73
     4
 74
     0
 42
0.000000001
 43
0.0000000001
 40
0.0671316929006287
 40
0.0671316929006287
 40
0.0671316929006287
 40
0.0671316929006287
 40
0.0761912273448171
 40
0.0761912273448171
 40
0.0761912273448171
 40
0.0761912273448171
 10
339.203383406824
 20
131.0178974947703
 30
0.0
 10
339.2112930413409
 20
131.0335974649715
 30
0.0
 10
339.2140790332619
 20
131.0495444613971
 30
0.0
 10
339.2140768204333
 20
131.0629066531128
 30
0.0
  0
ARC
  5
38B
330
70
100
AcDbEntity
  8
Visible
100
AcDbCircle
 10
338.848305
 20
129.838562
 30
0.0
 40
0.3660467470409602
100
AcDbArc
 50
346.074576
 51
1.145268
  0
SPLINE
  5
38C
330
70
100
AcDbEntity
  8
Visible
100
AcDbSpline
210
0.0
220
0.0
230
1.0
 70
     8
 71
     3
 72
    10
 73
     6
 74
     0
 42
0.000000001
 43
0.0000000001
 40
0.0297833524879972
 40
0.0297833524879972
 40
0.0297833524879972
 40
0.0297833524879972
 40
0.0378308775373564
 40
0.0378308775373564
 40
0.0389038461693139
 40
0.0389038461693139
 40
0.0389038461693139
 40
0.0389038461693139
 10
339.2140926201707
 20
130.967499760316
 30
0.0
 10
339.2140901529276
 20
130.9823982341113
 30
0.0
 10
339.2119541474015
 20
130.9980216809672
 30
0.0
 10
339.2051756707764
 20
131.0141704687266
 30
0.0
 10
339.2043160710818
 20
131.0160477583249
 30
0.0
 10
339.2033834068241
 20
131.0178974947648
 30
0.0
  0
LINE
  5
38D
330
70
100
AcDbEntity
  8
Visible
100
AcDbLine
 10
339.21431
 20
129.655064
 30
0.0
 11
339.214496
 21
128.533442
 31
0.0
210
-1.0
220
-0.0000000000000002
230
-0.0000000000008899
  0
LINE
  5
38E
330
70
100
AcDbEntity
  8
Visible
100
AcDbLine
 10
339.214093
 20
130.9675
 30
0.0
 11
339.214278
 21
129.845878
 31
0.0
210
-1.0
220
-0.0000000000000002
230
-0.0000000000008899
  0
LINE
  5
38F
330
70
100
AcDbEntity
  8
Visible
100
AcDbLine
 10
339.214052
 20
131.213971
 30
0.0
 11
339.214077
 21
131.062907
 31
0.0
210
-1.0
220
-0.0000000000000002
230
-0.0000000000008899
  0
LINE
  5
390
330
70
100
AcDbEntity
  8
Visible
100
AcDbLine
 10
339.214512
 20
128.438036
 30
0.0
 11
339.214537
 21
128.286971
 31
0.0
210
-1.0
220
-0.0000000000000002
230
-0.0000000000008899
  0
LINE
  5
391
330
70
100
AcDbEntity
  8
Visible
100
AcDbLine
 10
338.214052
 20
131.213805
 30
0.0
 11
339.214052
 21
131.213971
 31
0.0
210
-1.0
220
-0.0000000000000002
230
-0.0000000000008899
  0
LINE
  5
392
330
70
100
AcDbEntity
  8
Visible
100
AcDbLine
 10
338.214537
 20
128.286806
 30
0.0
 11
339.214537
 21
128.286971
 31
0.0
210
-1.0
220
-0.0000000000000002
230
-0.0000000000008899
  0
ENDSEC
  0
SECTION
  2
OBJECTS
  0
DICTIONARY
  5
C
330
0
100
AcDbDictionary
281
     1
  3
ACAD_COLOR
350
63
  3
ACAD_DETAILVIEWSTYLE
350
6A
  3
ACAD_GROUP
350
D
  3
ACAD_LAYOUT
350
62
  3
ACAD_MATERIAL
350
10
  3
ACAD_MLEADERSTYLE
350
66
  3
ACAD_MLINESTYLE
350
5F
  3
ACAD_PLOTSETTINGS
350
61
  3
ACAD_PLOTSTYLENAME
350
E
  3
ACAD_SCALELIST
350
42
  3
ACAD_SECTIONVIEWSTYLE
350
68
  3
ACAD_TABLESTYLE
350
64
  3
ACAD_VISUALSTYLE
350
29
  3
ACDB_RECOMPOSE_DATA
350
3D3
  3
AcDbVariableDictionary
350
3CA
  0
DICTIONARY
  5
A4
330
70
100
AcDbDictionary
280
     1
281
     1
  3
ACAD_SORTENTS
360
A5
  0
DICTIONARY
  5
63
102
{ACAD_REACTORS
330
C
102
}
330
C
100
AcDbDictionary
281
     1
  0
DICTIONARY
  5
6A
102
{ACAD_REACTORS
330
C
102
}
330
C
100
AcDbDictionary
281
     1
  3
Imperial24
350
6B
  0
DICTIONARY
  5
D
102
{ACAD_REACTORS
330
C
102
}
330
C
100
AcDbDictionary
281
     1
  0
DICTIONARY
  5
62
102
{ACAD_REACTORS
330
C
102
}
330
C
100
AcDbDictionary
281
     1
  3
Foglio1
350
6F
  3
Foglio2
350
77
  3
Model
350
73
  0
DICTIONARY
  5
10
102
{ACAD_REACTORS
330
C
102
}
330
C
100
AcDbDictionary
281
     1
  3
ByBlock
350
19
  3
ByLayer
350
11
  3
Global
350
21
  0
DICTIONARY
  5
66
102
{ACAD_REACTORS
330
C
102
}
330
C
100
AcDbDictionary
281
     1
  3
Standard
350
67
  0
DICTIONARY
  5
5F
102
{ACAD_REACTORS
330
C
102
}
330
C
100
AcDbDictionary
281
     1
  3
Standard
350
60
  0
DICTIONARY
  5
61
102
{ACAD_REACTORS
330
C
102
}
330
C
100
AcDbDictionary
281
     1
  0
ACDBDICTIONARYWDFLT
  5
E
102
{ACAD_REACTORS
330
C
102
}
330
C
100
AcDbDictionary
281
     1
  3
Normal
350
F
100
AcDbDictionaryWithDefault
340
F
  0
DICTIONARY
  5
42
102
{ACAD_REACTORS
330
C
102
}
330
C
100
AcDbDictionary
281
     1
  3
A0
350
43
  3
A1
350
44
  3
A2
350
45
  3
A3
350
46
  3
A4
350
47
  3
A5
350
48
  3
A6
350
49
  3
A7
350
4A
  3
A8
350
4B
  3
A9
350
4C
  3
B0
350
4D
  3
B1
350
4E
  3
B2
350
4F
  3
B3
350
50
  3
B4
350
51
  3
B5
350
52
  3
B6
350
53
  0
DICTIONARY
  5
68
102
{ACAD_REACTORS
330
C
102
}
330
C
100
AcDbDictionary
281
     1
  3
Imperial24
350
69
  0
DICTIONARY
  5
64
102
{ACAD_REACTORS
330
C
102
}
330
C
100
AcDbDictionary
281
     1
  3
Standard
350
65
  0
DICTIONARY
  5
29
102
{ACAD_REACTORS
330
C
102
}
330
C
100
AcDbDictionary
281
     1
  3
2dWireframe
350
2F
  3
Basic
350
2E
  3
Brighten
350
35
  3
ColorChange
350
39
  3
Conceptual
350
32
  3
Dim
350
34
  3
EdgeColorOff
350
41
  3
Facepattern
350
38
  3
Flat
350
2A
  3
FlatWithEdges
350
2B
  3
Gouraud
350
2C
  3
GouraudWithEdges
350
2D
  3
Hidden
350
31
  3
JitterOff
350
3F
  3
Linepattern
350
37
  3
OverhangOff
350
40
  3
Realistic
350
33
  3
Shaded
350
3E
  3
Shaded with edges
350
3D
  3
Shades of Gray
350
3A
  3
Sketchy
350
3B
  3
Thicken
350
36
  3
Wireframe
350
30
  3
X-Ray
350
3C
  0
XRECORD
  5
3D3
102
{ACAD_REACTORS
330
C
102
}
330
C
100
AcDbXrecord
280
     1
 90
        1
330
65
  0
DICTIONARY
  5
3CA
102
{ACAD_REACTORS
330
C
102
}
330
C
100
AcDbDictionary
281
     1
  3
ANNOALLVISIBLE
350
3CF
  3
CANNOSCALE
350
3D0
  3
CMLEADERSTYLE
350
3CC
  3
CTABLESTYLE
350
3CB
  3
CVIEWDETAILSTYLE
350
3CD
  3
CVIEWSECTIONSTYLE
350
3CE
  0
SORTENTSTABLE
  5
A5
102
{ACAD_REACTORS
330
A4
102
}
330
A4
100
AcDbSortentsTable
330
70
  0
ACDBDETAILVIEWSTYLE
  5
6B
102
{ACAD_XDICTIONARY
360
3D6
102
}
102
{ACAD_REACTORS
330
6A
102
}
330
6A
100
AcDbModelDocViewStyle
 70
     0
  3
Imperial24
290
     0
100
AcDbDetailViewStyle
 70
     0
 71
     0
 90
        3
 71
     1
340
55
 62
   256
 40
0.24
340
0
 62
   256
 40
0.24
300

 40
0.36
280
     3
 71
     2
340
5D
 90
       25
 62
   256
 71
     3
340
55
 62
   256
 40
0.24
 90
        1
 40
0.75
 90
        1
300
%<\AcVar ViewType \f "%tc1">% %<\AcVar ViewDetailId>%\PSCALA %<\AcVar ViewScale \f "%sn">%
 71
     4
340
5D
 90
       25
 62
   256
340
5D
 90
       25
 62
   256
280
     0
  0
LAYOUT
  5
6F
102
{ACAD_REACTORS
330
62
102
}
330
62
100
AcDbPlotSettings
  1

  2
None
  4

  6

 40
0.0
 41
0.0
 42
0.0
 43
0.0
 44
0.0
 45
0.0
 46
0.0
 47
0.0
 48
0.0
 49
0.0
140
0.0
141
0.0
142
1.0
143
1.0
 70
   688
 72
     0
 73
     0
 74
     5
  7

 75
    16
147
1.0
 76
     0
 77
     2
 78
   300
148
0.0
149
0.0
100
AcDbLayout
  1
Foglio1
 70
     1
 71
     1
 10
0.0
 20
0.0
 11
12.0
 21
9.0
 12
0.0
 22
0.0
 32
0.0
 14
0.0
 24
0.0
 34
0.0
 15
0.0
 25
0.0
 35
0.0
146
0.0
 13
0.0
 23
0.0
 33
0.0
 16
1.0
 26
0.0
 36
0.0
 17
0.0
 27
1.0
 37
0.0
 76
     0
330
6C
  0
LAYOUT
  5
77
102
{ACAD_REACTORS
330
62
102
}
330
62
100
AcDbPlotSettings
  1

  2
None
  4

  6

 40
0.0
 41
0.0
 42
0.0
 43
0.0
 44
0.0
 45
0.0
 46
0.0
 47
0.0
 48
0.0
 49
0.0
140
0.0
141
0.0
142
1.0
143
1.0
 70
   688
 72
     0
 73
     0
 74
     5
  7

 75
    16
147
1.0
 76
     0
 77
     2
 78
   300
148
0.0
149
0.0
100
AcDbLayout
  1
Foglio2
 70
     1
 71
     2
 10
0.0
 20
0.0
 11
12.0
 21
9.0
 12
0.0
 22
0.0
 32
0.0
 14
0.0
 24
0.0
 34
0.0
 15
0.0
 25
0.0
 35
0.0
146
0.0
 13
0.0
 23
0.0
 33
0.0
 16
1.0
 26
0.0
 36
0.0
 17
0.0
 27
1.0
 37
0.0
 76
     0
330
74
  0
LAYOUT
  5
73
102
{ACAD_REACTORS
330
62
102
}
330
62
100
AcDbPlotSettings
  1

  2
AutoCAD PDF (High Quality Print).pc3
  4
ISO_full_bleed_A3_(420.00_x_297.00_MM)
  6

 40
0.0
 41
0.0
 42
0.0
 43
0.0
 44
420.0
 45
297.0
 46
0.0
 47
0.0
 48
0.0
 49
0.0
140
0.0
141
0.0
142
1.0
143
2.287687
 70
 11952
 72
     1
 73
     0
 74
     0
  7

 75
     0
147
0.437123
 76
     0
 77
     2
 78
   300
148
243.520571
149
192.912472
100
AcDbLayout
  1
Model
 70
     1
 71
     0
 10
0.0
 20
0.0
 11
12.0
 21
9.0
 12
0.0
 22
0.0
 32
0.0
 14
0.0
 24
0.0
 34
0.0
 15
0.0
 25
0.0
 35
0.0
146
0.0
 13
0.0
 23
0.0
 33
0.0
 16
1.0
 26
0.0
 36
0.0
 17
0.0
 27
1.0
 37
0.0
 76
     0
330
70
1001
ACAD_PSEXT
1000
AutoCAD PDF (High Quality Print).pc3
1000
DWG To PDF
1000
File
1000

1070
     0
  0
MATERIAL
  5
19
102
{ACAD_XDICTIONARY
360
1A
102
}
102
{ACAD_REACTORS
330
10
102
}
330
10
100
AcDbMaterial
  1
ByBlock
 72
     0
 43
0.020833
 43
0.0
 43
0.0
 43
0.0
 43
0.0
 43
0.020833
 43
0.0
 43
0.0
 43
0.0
 43
0.0
 43
1.0
 43
0.0
 43
0.0
 43
0.0
 43
0.0
 43
1.0
 77
     0
 47
0.020833
 47
0.0
 47
0.0
 47
0.0
 47
0.0
 47
0.020833
 47
0.0
 47
0.0
 47
0.0
 47
0.0
 47
1.0
 47
0.0
 47
0.0
 47
0.0
 47
0.0
 47
1.0
171
     0
 49
0.020833
 49
0.0
 49
0.0
 49
0.0
 49
0.0
 49
0.020833
 49
0.0
 49
0.0
 49
0.0
 49
0.0
 49
1.0
 49
0.0
 49
0.0
 49
0.0
 49
0.0
 49
1.0
175
     0
142
0.020833
142
0.0
142
0.0
142
0.0
142
0.0
142
0.020833
142
0.0
142
0.0
142
0.0
142
0.0
142
1.0
142
0.0
142
0.0
142
0.0
142
0.0
142
1.0
179
     0
144
0.020833
144
0.0
144
0.0
144
0.0
144
0.0
144
0.020833
144
0.0
144
0.0
144
0.0
144
0.0
144
1.0
144
0.0
144
0.0
144
0.0
144
0.0
144
1.0
147
0.020833
147
0.0
147
0.0
147
0.0
147
0.0
147
0.020833
147
0.0
147
0.0
147
0.0
147
0.0
147
1.0
147
0.0
147
0.0
147
0.0
147
0.0
147
1.0
  0
MATERIAL
  5
11
102
{ACAD_XDICTIONARY
360
12
102
}
102
{ACAD_REACTORS
330
10
102
}
330
10
100
AcDbMaterial
  1
ByLayer
 72
     0
 43
0.020833
 43
0.0
 43
0.0
 43
0.0
 43
0.0
 43
0.020833
 43
0.0
 43
0.0
 43
0.0
 43
0.0
 43
1.0
 43
0.0
 43
0.0
 43
0.0
 43
0.0
 43
1.0
 77
     0
 47
0.020833
 47
0.0
 47
0.0
 47
0.0
 47
0.0
 47
0.020833
 47
0.0
 47
0.0
 47
0.0
 47
0.0
 47
1.0
 47
0.0
 47
0.0
 47
0.0
 47
0.0
 47
1.0
171
     0
 49
0.020833
 49
0.0
 49
0.0
 49
0.0
 49
0.0
 49
0.020833
 49
0.0
 49
0.0
 49
0.0
 49
0.0
 49
1.0
 49
0.0
 49
0.0
 49
0.0
 49
0.0
 49
1.0
175
     0
142
0.020833
142
0.0
142
0.0
142
0.0
142
0.0
142
0.020833
142
0.0
142
0.0
142
0.0
142
0.0
142
1.0
142
0.0
142
0.0
142
0.0
142
0.0
142
1.0
179
     0
144
0.020833
144
0.0
144
0.0
144
0.0
144
0.0
144
0.020833
144
0.0
144
0.0
144
0.0
144
0.0
144
1.0
144
0.0
144
0.0
144
0.0
144
0.0
144
1.0
147
0.020833
147
0.0
147
0.0
147
0.0
147
0.0
147
0.020833
147
0.0
147
0.0
147
0.0
147
0.0
147
1.0
147
0.0
147
0.0
147
0.0
147
0.0
147
1.0
  0
MATERIAL
  5
21
102
{ACAD_XDICTIONARY
360
22
102
}
102
{ACAD_REACTORS
330
10
102
}
330
10
100
AcDbMaterial
  1
Global
 72
     0
 43
0.020833
 43
0.0
 43
0.0
 43
0.0
 43
0.0
 43
0.020833
 43
0.0
 43
0.0
 43
0.0
 43
0.0
 43
1.0
 43
0.0
 43
0.0
 43
0.0
 43
0.0
 43
1.0
 77
     0
 47
0.020833
 47
0.0
 47
0.0
 47
0.0
 47
0.0
 47
0.020833
 47
0.0
 47
0.0
 47
0.0
 47
0.0
 47
1.0
 47
0.0
 47
0.0
 47
0.0
 47
0.0
 47
1.0
171
     0
 49
0.020833
 49
0.0
 49
0.0
 49
0.0
 49
0.0
 49
0.020833
 49
0.0
 49
0.0
 49
0.0
 49
0.0
 49
1.0
 49
0.0
 49
0.0
 49
0.0
 49
0.0
 49
1.0
175
     0
142
0.020833
142
0.0
142
0.0
142
0.0
142
0.0
142
0.020833
142
0.0
142
0.0
142
0.0
142
0.0
142
1.0
142
0.0
142
0.0
142
0.0
142
0.0
142
1.0
179
     0
144
0.020833
144
0.0
144
0.0
144
0.0
144
0.0
144
0.020833
144
0.0
144
0.0
144
0.0
144
0.0
144
1.0
144
0.0
144
0.0
144
0.0
144
0.0
144
1.0
147
0.020833
147
0.0
147
0.0
147
0.0
147
0.0
147
0.020833
147
0.0
147
0.0
147
0.0
147
0.0
147
1.0
147
0.0
147
0.0
147
0.0
147
0.0
147
1.0
  0
MLEADERSTYLE
  5
67
102
{ACAD_REACTORS
330
66
102
}
330
66
100
AcDbMLeaderStyle
179
     2
170
     2
171
     1
172
     0
 90
        2
 40
0.0
 41
0.0
173
     1
 91
-1056964608
340
5B
 92
       -2
290
     1
 42
0.09
291
     1
 43
0.36
  3
Standard
 44
0.18
300

342
55
174
     1
178
     6
175
     1
176
     0
 93
-1056964608
 45
0.18
292
     0
297
     0
 46
0.18
 94
-1056964608
 47
1.0
 49
1.0
140
1.0
293
     1
141
0.0
294
     1
177
     0
142
1.0
295
     0
296
     0
143
0.125
271
     0
272
     9
273
     9
298
     1
  0
MLINESTYLE
  5
60
102
{ACAD_REACTORS
330
5F
102
}
330
5F
100
AcDbMlineStyle
  2
STANDARD
 70
     0
  3

 62
   256
 51
90.0
 52
90.0
 71
     0
  0
ACDBPLACEHOLDER
  5
F
102
{ACAD_REACTORS
330
E
102
}
330
E
  0
SCALE
  5
43
102
{ACAD_REACTORS
330
42
102
}
330
42
100
AcDbScale
 70
     0
300
1:1
140
1.0
141
1.0
290
     1
  0
SCALE
  5
44
102
{ACAD_REACTORS
330
42
102
}
330
42
100
AcDbScale
 70
     0
300
1:2
140
1.0
141
2.0
290
     0
  0
SCALE
  5
45
102
{ACAD_REACTORS
330
42
102
}
330
42
100
AcDbScale
 70
     0
300
1:4
140
1.0
141
4.0
290
     0
  0
SCALE
  5
46
102
{ACAD_REACTORS
330
42
102
}
330
42
100
AcDbScale
 70
     0
300
1:5
140
1.0
141
5.0
290
     0
  0
SCALE
  5
47
102
{ACAD_REACTORS
330
42
102
}
330
42
100
AcDbScale
 70
     0
300
1:8
140
1.0
141
8.0
290
     0
  0
SCALE
  5
48
102
{ACAD_REACTORS
330
42
102
}
330
42
100
AcDbScale
 70
     0
300
1:10
140
1.0
141
10.0
290
     0
  0
SCALE
  5
49
102
{ACAD_REACTORS
330
42
102
}
330
42
100
AcDbScale
 70
     0
300
1:16
140
1.0
141
16.0
290
     0
  0
SCALE
  5
4A
102
{ACAD_REACTORS
330
42
102
}
330
42
100
AcDbScale
 70
     0
300
1:20
140
1.0
141
20.0
290
     0
  0
SCALE
  5
4B
102
{ACAD_REACTORS
330
42
102
}
330
42
100
AcDbScale
 70
     0
300
1:30
140
1.0
141
30.0
290
     0
  0
SCALE
  5
4C
102
{ACAD_REACTORS
330
42
102
}
330
42
100
AcDbScale
 70
     0
300
1:40
140
1.0
141
40.0
290
     0
  0
SCALE
  5
4D
102
{ACAD_REACTORS
330
42
102
}
330
42
100
AcDbScale
 70
     0
300
1:50
140
1.0
141
50.0
290
     0
  0
SCALE
  5
4E
102
{ACAD_REACTORS
330
42
102
}
330
42
100
AcDbScale
 70
     0
300
1:100
140
1.0
141
100.0
290
     0
  0
SCALE
  5
4F
102
{ACAD_REACTORS
330
42
102
}
330
42
100
AcDbScale
 70
     0
300
2:1
140
2.0
141
1.0
290
     0
  0
SCALE
  5
50
102
{ACAD_REACTORS
330
42
102
}
330
42
100
AcDbScale
 70
     0
300
4:1
140
4.0
141
1.0
290
     0
  0
SCALE
  5
51
102
{ACAD_REACTORS
330
42
102
}
330
42
100
AcDbScale
 70
     0
300
8:1
140
8.0
141
1.0
290
     0
  0
SCALE
  5
52
102
{ACAD_REACTORS
330
42
102
}
330
42
100
AcDbScale
 70
     0
300
10:1
140
10.0
141
1.0
290
     0
  0
SCALE
  5
53
102
{ACAD_REACTORS
330
42
102
}
330
42
100
AcDbScale
 70
     0
300
100:1
140
100.0
141
1.0
290
     0
  0
ACDBSECTIONVIEWSTYLE
  5
69
102
{ACAD_XDICTIONARY
360
3D4
102
}
102
{ACAD_REACTORS
330
68
102
}
330
68
100
AcDbModelDocViewStyle
 70
     0
  3
Imperial24
290
     0
100
AcDbSectionViewStyle
 70
     0
 71
     0
 90
       78
 71
     1
340
55
 62
   256
 40
0.24
340
0
340
0
 62
   256
 40
0.24
300
I, O, Q, S, X, Z
 40
0.48
 90
        3
 40
0.18
 90
        1
 71
     2
340
5D
 90
       25
 62
   256
340
5D
 90
       50
 62
   256
 40
0.24
 40
0.0
 40
0.24
 71
     3
340
55
 62
   256
 40
0.24
 90
        1
 40
0.75
 90
        1
300
%<\AcVar ViewType \f "%tc1">% %<\AcVar ViewSectionStartId>%-%<\AcVar ViewSectionEndId>%\PSCALA %<\AcVar ViewScale \f "%sn">%
 71
     4
 62
   256
 62
   257
300
ANSI31
 40
1.0
 90
        0
290
     0
290
     0
 90
        6
 40
0.0
 40
1.570796
 40
0.261799
 40
1.308997
 40
-0.261799
 40
1.832596
  0
TABLESTYLE
  5
65
102
{ACAD_XDICTIONARY
360
3D1
102
}
102
{ACAD_REACTORS
330
64
102
}
330
64
100
AcDbTableStyle
280
     0
  3
Standard
 70
     0
 71
     0
 40
1.5
 41
1.5
280
     0
281
     0
  7
Standard
140
0.18
170
     2
 62
     0
 63
     7
283
     0
 90
      512
 91
        0
  1

274
    -2
284
     1
 64
     0
275
    -2
285
     1
 65
     0
276
    -2
286
     1
 66
     0
277
    -2
287
     1
 67
     0
278
    -2
288
     1
 68
     0
279
    -2
289
     1
 69
     0
  7
Standard
140
0.25
170
     5
 62
     0
 63
     7
283
     0
 90
      512
 91
        0
  1

274
    -2
284
     1
 64
     0
275
    -2
285
     1
 65
     0
276
    -2
286
     1
 66
     0
277
    -2
287
     1
 67
     0
278
    -2
288
     1
 68
     0
279
    -2
289
     1
 69
     0
  7
Standard
140
0.18
170
     5
 62
     0
 63
     7
283
     0
 90
      512
 91
        0
  1

274
    -2
284
     1
 64
     0
275
    -2
285
     1
 65
     0
276
    -2
286
     1
 66
     0
277
    -2
287
     1
 67
     0
278
    -2
288
     1
 68
     0
279
    -2
289
     1
 69
     0
  0
VISUALSTYLE
  5
2F
102
{ACAD_REACTORS
330
29
102
}
330
29
100
AcDbVisualStyle
  2
2dWireframe
 70
     4
177
     3
291
     0
 70
    58
 90
        0
176
     1
 90
        2
176
     1
 90
        0
176
     1
 90
        0
176
     1
 40
0.6
176
     1
 40
30.0
176
     1
 62
     7
420
 16777215
176
     1
 90
        1
176
     1
 90
        4
176
     1
 62
     7
176
     1
 62
   257
176
     1
 90
        1
176
     1
 90
        1
176
     1
 40
1.0
176
     1
 90
        0
176
     1
 62
   257
176
     1
 40
1.0
176
     1
 90
        1
176
     1
 90
        6
176
     1
 90
        2
176
     1
 62
     7
176
     1
 90
        5
176
     1
 90
        0
176
     1
 90
        0
176
     1
290
     0
176
     1
 90
        1
176
     1
 40
0.0
176
     1
 90
        0
176
     1
290
     1
176
     1
290
     1
176
     1
290
     0
176
     1
290
     0
176
     1
290
     0
176
     1
290
     0
176
     1
290
     0
176
     1
290
     0
176
     1
290
     0
176
     1
 90
       50
176
     1
 40
0.0
176
     1
 40
1.0
176
     1
 90
        0
176
     1
 62
    18
420
        0
176
     1
 90
       50
176
     1
 90
        3
176
     1
 62
     5
420
      255
176
     1
290
     0
176
     1
 90
       50
176
     1
 90
       50
176
     1
 90
       50
176
     1
290
     0
176
     1
 90
       50
176
     1
 62
   256
176
     0
 40
1.0
176
     0
 90
        2
176
     1
  1
strokes_ogs.tif
176
     1
290
     0
176
     1
 40
1.0
176
     1
 40
1.0
176
     1
1001
ACAD
1000
AcDbSavedByObjectVersion
1070
     0
  0
VISUALSTYLE
  5
2E
102
{ACAD_REACTORS
330
29
102
}
330
29
100
AcDbVisualStyle
  2
Basic
 70
     7
177
     3
291
     1
 70
    58
 90
        1
176
     1
 90
        0
176
     1
 90
        1
176
     1
 90
        0
176
     1
 40
0.6
176
     1
 40
30.0
176
     1
 62
     7
420
 16777215
176
     1
 90
        0
176
     1
 90
        4
176
     1
 62
     7
176
     1
 62
   257
176
     1
 90
        1
176
     1
 90
        1
176
     1
 40
1.0
176
     1
 90
        8
176
     1
 62
     7
176
     1
 40
1.0
176
     1
 90
        1
176
     1
 90
        6
176
     1
 90
        2
176
     1
 62
     7
176
     1
 90
        5
176
     1
 90
        0
176
     1
 90
        0
176
     1
290
     0
176
     1
 90
        1
176
     1
 40
0.0
176
     1
 90
        0
176
     1
290
     0
176
     1
290
     1
176
     1
290
     1
176
     1
290
     0
176
     1
290
     0
176
     1
290
     0
176
     1
290
     0
176
     1
290
     0
176
     1
290
     0
176
     1
 90
       50
176
     1
 40
0.0
176
     1
 40
1.0
176
     1
 90
        0
176
     1
 62
    18
420
        0
176
     1
 90
       50
176
     1
 90
        3
176
     1
 62
     5
420
      255
176
     1
290
     0
176
     1
 90
       50
176
     1
 90
       50
176
     1
 90
       50
176
     1
290
     0
176
     1
 90
       50
176
     1
 62
   256
176
     0
 40
1.0
176
     0
 90
        2
176
     1
  1
strokes_ogs.tif
176
     1
290
     0
176
     1
 40
1.0
176
     1
 40
1.0
176
     1
1001
ACAD
1000
AcDbSavedByObjectVersion
1070
     0
  0
VISUALSTYLE
  5
35
102
{ACAD_REACTORS
330
29
102
}
330
29
100
AcDbVisualStyle
  2
Brighten
 70
    12
177
     3
291
     1
 70
    58
 90
        2
176
     1
 90
        2
176
     1
 90
        0
176
     1
 90
        0
176
     1
 40
0.6
176
     1
 40
30.0
176
     1
 62
     7
420
 16777215
176
     1
 90
        1
176
     1
 90
        4
176
     1
 62
     7
176
     1
 62
   257
176
     1
 90
        1
176
     1
 90
        1
176
     1
 40
1.0
176
     1
 90
        8
176
     1
 62
     7
176
     1
 40
1.0
176
     1
 90
        1
176
     1
 90
        6
176
     1
 90
        2
176
     1
 62
     7
176
     1
 90
        5
176
     1
 90
        0
176
     1
 90
        0
176
     1
290
     0
176
     1
 90
        1
176
     1
 40
50.0
176
     1
 90
        0
176
     1
290
     0
176
     1
290
     1
176
     1
290
     1
176
     1
290
     0
176
     1
290
     0
176
     1
290
     0
176
     1
290
     0
176
     1
290
     0
176
     1
290
     0
176
     1
 90
       50
176
     1
 40
0.0
176
     1
 40
1.0
176
     1
 90
        0
176
     1
 62
    18
420
        0
176
     1
 90
       50
176
     1
 90
        3
176
     1
 62
     5
420
      255
176
     1
290
     0
176
     1
 90
       50
176
     1
 90
       50
176
     1
 90
       50
176
     1
290
     0
176
     1
 90
       50
176
     1
 62
   256
176
     0
 40
1.0
176
     0
 90
        2
176
     1
  1
strokes_ogs.tif
176
     1
290
     0
176
     1
 40
1.0
176
     1
 40
1.0
176
     1
1001
ACAD
1000
AcDbSavedByObjectVersion
1070
     0
  0
VISUALSTYLE
  5
39
102
{ACAD_REACTORS
330
29
102
}
330
29
100
AcDbVisualStyle
  2
ColorChange
 70
    16
177
     3
291
     1
 70
    58
 90
        2
176
     1
 90
        2
176
     1
 90
        3
176
     1
 90
        0
176
     1
 40
0.6
176
     1
 40
30.0
176
     1
 62
     8
420
  8421504
176
     1
 90
        1
176
     1
 90
        4
176
     1
 62
     7
176
     1
 62
   257
176
     1
 90
        1
176
     1
 90
        1
176
     1
 40
1.0
176
     1
 90
        8
176
     1
 62
     8
420
  8421504
176
     1
 40
1.0
176
     1
 90
        1
176
     1
 90
        6
176
     1
 90
        2
176
     1
 62
     7
176
     1
 90
        5
176
     1
 90
        0
176
     1
 90
        0
176
     1
290
     0
176
     1
 90
        1
176
     1
 40
0.0
176
     1
 90
        0
176
     1
290
     0
176
     1
290
     1
176
     1
290
     1
176
     1
290
     0
176
     1
290
     0
176
     1
290
     0
176
     1
290
     0
176
     1
290
     0
176
     1
290
     0
176
     1
 90
       50
176
     1
 40
0.0
176
     1
 40
1.0
176
     1
 90
        0
176
     1
 62
    18
420
        0
176
     1
 90
       50
176
     1
 90
        3
176
     1
 62
     5
420
      255
176
     1
290
     0
176
     1
 90
       50
176
     1
 90
       50
176
     1
 90
       50
176
     1
290
     0
176
     1
 90
       50
176
     1
 62
   256
176
     0
 40
1.0
176
     0
 90
        2
176
     1
  1
strokes_ogs.tif
176
     1
290
     0
176
     1
 40
1.0
176
     1
 40
1.0
176
     1
1001
ACAD
1000
AcDbSavedByObjectVersion
1070
     0
  0
VISUALSTYLE
  5
32
102
{ACAD_REACTORS
330
29
102
}
330
29
100
AcDbVisualStyle
  2
Conceptual
 70
     9
177
     3
291
     0
 70
    58
 90
        3
176
     1
 90
        2
176
     1
 90
        0
176
     1
 90
        0
176
     1
 40
0.6
176
     1
 40
30.0
176
     1
 62
     7
420
 16777215
176
     1
 90
        2
176
     1
 90
        2
176
     1
 62
     7
176
     1
 62
   257
176
     1
 90
        1
176
     1
 90
        1
176
     1
 40
179.0
176
     1
 90
        8
176
     1
 62
     7
176
     1
 40
1.0
176
     1
 90
        1
176
     1
 90
        6
176
     1
 90
        2
176
     1
 62
     7
176
     1
 90
        3
176
     1
 90
        0
176
     1
 90
        0
176
     1
290
     0
176
     1
 90
        1
176
     1
 40
0.0
176
     1
 90
        0
176
     1
290
     0
176
     1
290
     1
176
     1
290
     1
176
     1
290
     0
176
     1
290
     0
176
     1
290
     0
176
     1
290
     0
176
     1
290
     0
176
     1
290
     0
176
     1
 90
       50
176
     1
 40
0.0
176
     1
 40
1.0
176
     1
 90
        0
176
     1
 62
    18
420
        0
176
     1
 90
       50
176
     1
 90
        3
176
     1
 62
     5
420
      255
176
     1
290
     0
176
     1
 90
       50
176
     1
 90
       50
176
     1
 90
       50
176
     1
290
     0
176
     1
 90
       50
176
     1
 62
   256
176
     0
 40
1.0
176
     0
 90
        2
176
     1
  1
strokes_ogs.tif
176
     1
290
     0
176
     1
 40
1.0
176
     1
 40
1.0
176
     1
1001
ACAD
1000
AcDbSavedByObjectVersion
1070
     0
  0
VISUALSTYLE
  5
34
102
{ACAD_REACTORS
330
29
102
}
330
29
100
AcDbVisualStyle
  2
Dim
 70
    11
177
     3
291
     1
 70
    58
 90
        2
176
     1
 90
        2
176
     1
 90
        0
176
     1
 90
        0
176
     1
 40
0.6
176
     1
 40
30.0
176
     1
 62
     7
420
 16777215
176
     1
 90
        1
176
     1
 90
        4
176
     1
 62
     7
176
     1
 62
   257
176
     1
 90
        1
176
     1
 90
        1
176
     1
 40
1.0
176
     1
 90
        8
176
     1
 62
     7
176
     1
 40
1.0
176
     1
 90
        1
176
     1
 90
        6
176
     1
 90
        2
176
     1
 62
     7
176
     1
 90
        5
176
     1
 90
        0
176
     1
 90
        0
176
     1
290
     0
176
     1
 90
        1
176
     1
 40
-50.0
176
     1
 90
        0
176
     1
290
     0
176
     1
290
     1
176
     1
290
     1
176
     1
290
     0
176
     1
290
     0
176
     1
290
     0
176
     1
290
     0
176
     1
290
     0
176
     1
290
     0
176
     1
 90
       50
176
     1
 40
0.0
176
     1
 40
1.0
176
     1
 90
        0
176
     1
 62
    18
420
        0
176
     1
 90
       50
176
     1
 90
        3
176
     1
 62
     5
420
      255
176
     1
290
     0
176
     1
 90
       50
176
     1
 90
       50
176
     1
 90
       50
176
     1
290
     0
176
     1
 90
       50
176
     1
 62
   256
176
     0
 40
1.0
176
     0
 90
        2
176
     1
  1
strokes_ogs.tif
176
     1
290
     0
176
     1
 40
1.0
176
     1
 40
1.0
176
     1
1001
ACAD
1000
AcDbSavedByObjectVersion
1070
     0
  0
VISUALSTYLE
  5
41
102
{ACAD_REACTORS
330
29
102
}
330
29
100
AcDbVisualStyle
  2
EdgeColorOff
 70
    22
177
     3
291
     1
 70
    58
 90
        2
176
     0
 90
        2
176
     0
 90
        0
176
     0
 90
        0
176
     0
 40
0.6
176
     0
 40
30.0
176
     0
 62
     7
420
 16777215
176
     0
 90
        1
176
     0
 90
        4
176
     0
 62
     7
176
     0
 62
   257
176
     0
 90
        1
176
     0
 90
        1
176
     0
 40
1.0
176
     0
 90
        8
176
     2
 62
     7
176
     0
 40
1.0
176
     0
 90
        1
176
     0
 90
        6
176
     0
 90
        2
176
     0
 62
     7
176
     0
 90
        5
176
     0
 90
        0
176
     0
 90
        0
176
     0
290
     0
176
     0
 90
        1
176
     0
 40
0.0
176
     0
 90
        0
176
     0
290
     0
176
     0
290
     1
176
     0
290
     1
176
     0
290
     0
176
     0
290
     0
176
     0
290
     0
176
     0
290
     0
176
     0
290
     0
176
     0
290
     0
176
     0
 90
       50
176
     0
 40
0.0
176
     0
 40
1.0
176
     0
 90
        0
176
     0
 62
    18
420
        0
176
     0
 90
       50
176
     0
 90
        3
176
     0
 62
     5
420
      255
176
     0
290
     0
176
     0
 90
       50
176
     0
 90
       50
176
     0
 90
       50
176
     0
290
     0
176
     0
 90
       50
176
     0
 62
   256
176
     0
 40
1.0
176
     0
 90
        2
176
     0
  1
strokes_ogs.tif
176
     0
290
     0
176
     0
 40
1.0
176
     0
 40
1.0
176
     0
1001
ACAD
1000
AcDbSavedByObjectVersion
1070
     0
  0
VISUALSTYLE
  5
38
102
{ACAD_REACTORS
330
29
102
}
330
29
100
AcDbVisualStyle
  2
Facepattern
 70
    15
177
     3
291
     1
 70
    58
 90
        2
176
     1
 90
        2
176
     1
 90
        0
176
     1
 90
        0
176
     1
 40
0.6
176
     1
 40
30.0
176
     1
 62
     7
420
 16777215
176
     1
 90
        1
176
     1
 90
        4
176
     1
 62
     7
176
     1
 62
   257
176
     1
 90
        1
176
     1
 90
        1
176
     1
 40
1.0
176
     1
 90
        8
176
     1
 62
     7
176
     1
 40
1.0
176
     1
 90
        1
176
     1
 90
        6
176
     1
 90
        2
176
     1
 62
     7
176
     1
 90
        5
176
     1
 90
        0
176
     1
 90
        0
176
     1
290
     0
176
     1
 90
        1
176
     1
 40
0.0
176
     1
 90
        0
176
     1
290
     0
176
     1
290
     1
176
     1
290
     1
176
     1
290
     0
176
     1
290
     0
176
     1
290
     0
176
     1
290
     0
176
     1
290
     0
176
     1
290
     0
176
     1
 90
       50
176
     1
 40
0.0
176
     1
 40
1.0
176
     1
 90
        0
176
     1
 62
    18
420
        0
176
     1
 90
       50
176
     1
 90
        3
176
     1
 62
     5
420
      255
176
     1
290
     0
176
     1
 90
       50
176
     1
 90
       50
176
     1
 90
       50
176
     1
290
     0
176
     1
 90
       50
176
     1
 62
   256
176
     0
 40
1.0
176
     0
 90
        2
176
     1
  1
strokes_ogs.tif
176
     1
290
     0
176
     1
 40
1.0
176
     1
 40
1.0
176
     1
1001
ACAD
1000
AcDbSavedByObjectVersion
1070
     0
  0
VISUALSTYLE
  5
2A
102
{ACAD_REACTORS
330
29
102
}
330
29
100
AcDbVisualStyle
  2
Flat
 70
     0
177
     3
291
     1
 70
    58
 90
        2
176
     1
 90
        1
176
     1
 90
        1
176
     1
 90
        2
176
     1
 40
0.6
176
     1
 40
30.0
176
     1
 62
     7
420
 16777215
176
     1
 90
        0
176
     1
 90
        0
176
     1
 62
     7
176
     1
 62
   257
176
     1
 90
        1
176
     1
 90
        1
176
     1
 40
1.0
176
     1
 90
        8
176
     1
 62
     7
176
     1
 40
1.0
176
     1
 90
        1
176
     1
 90
        6
176
     1
 90
        2
176
     1
 62
     7
176
     1
 90
        5
176
     1
 90
        0
176
     1
 90
        0
176
     1
290
     0
176
     1
 90
       13
176
     1
 40
0.0
176
     1
 90
        0
176
     1
290
     0
176
     1
290
     1
176
     1
290
     1
176
     1
290
     0
176
     1
290
     0
176
     1
290
     0
176
     1
290
     0
176
     1
290
     0
176
     1
290
     0
176
     1
 90
       50
176
     1
 40
0.0
176
     1
 40
1.0
176
     1
 90
        0
176
     1
 62
    18
420
        0
176
     1
 90
       50
176
     1
 90
        3
176
     1
 62
     5
420
      255
176
     1
290
     0
176
     1
 90
       50
176
     1
 90
       50
176
     1
 90
       50
176
     1
290
     0
176
     1
 90
       50
176
     1
 62
   256
176
     0
 40
1.0
176
     0
 90
        2
176
     1
  1
strokes_ogs.tif
176
     1
290
     0
176
     1
 40
1.0
176
     1
 40
1.0
176
     1
1001
ACAD
1000
AcDbSavedByObjectVersion
1070
     0
  0
VISUALSTYLE
  5
2B
102
{ACAD_REACTORS
330
29
102
}
330
29
100
AcDbVisualStyle
  2
FlatWithEdges
 70
     1
177
     3
291
     1
 70
    58
 90
        2
176
     1
 90
        1
176
     1
 90
        1
176
     1
 90
        2
176
     1
 40
0.6
176
     1
 40
30.0
176
     1
 62
     7
420
 16777215
176
     1
 90
        1
176
     1
 90
        0
176
     1
 62
     7
176
     1
 62
   257
176
     1
 90
        1
176
     1
 90
        1
176
     1
 40
1.0
176
     1
 90
        0
176
     1
 62
   257
176
     1
 40
1.0
176
     1
 90
        1
176
     1
 90
        6
176
     1
 90
        2
176
     1
 62
     7
176
     1
 90
        5
176
     1
 90
        0
176
     1
 90
        0
176
     1
290
     0
176
     1
 90
       13
176
     1
 40
0.0
176
     1
 90
        0
176
     1
290
     0
176
     1
290
     1
176
     1
290
     1
176
     1
290
     0
176
     1
290
     0
176
     1
290
     0
176
     1
290
     0
176
     1
290
     0
176
     1
290
     0
176
     1
 90
       50
176
     1
 40
0.0
176
     1
 40
1.0
176
     1
 90
        0
176
     1
 62
    18
420
        0
176
     1
 90
       50
176
     1
 90
        3
176
     1
 62
     5
420
      255
176
     1
290
     0
176
     1
 90
       50
176
     1
 90
       50
176
     1
 90
       50
176
     1
290
     0
176
     1
 90
       50
176
     1
 62
   256
176
     0
 40
1.0
176
     0
 90
        2
176
     1
  1
strokes_ogs.tif
176
     1
290
     0
176
     1
 40
1.0
176
     1
 40
1.0
176
     1
1001
ACAD
1000
AcDbSavedByObjectVersion
1070
     0
  0
VISUALSTYLE
  5
2C
102
{ACAD_REACTORS
330
29
102
}
330
29
100
AcDbVisualStyle
  2
Gouraud
 70
     2
177
     3
291
     1
 70
    58
 90
        2
176
     1
 90
        2
176
     1
 90
        1
176
     1
 90
        2
176
     1
 40
0.6
176
     1
 40
30.0
176
     1
 62
     7
420
 16777215
176
     1
 90
        0
176
     1
 90
        0
176
     1
 62
     7
176
     1
 62
   257
176
     1
 90
        1
176
     1
 90
        1
176
     1
 40
1.0
176
     1
 90
        0
176
     1
 62
     7
176
     1
 40
1.0
176
     1
 90
        1
176
     1
 90
        6
176
     1
 90
        2
176
     1
 62
     7
176
     1
 90
        5
176
     1
 90
        0
176
     1
 90
        0
176
     1
290
     0
176
     1
 90
       13
176
     1
 40
0.0
176
     1
 90
        0
176
     1
290
     0
176
     1
290
     1
176
     1
290
     1
176
     1
290
     0
176
     1
290
     0
176
     1
290
     0
176
     1
290
     0
176
     1
290
     0
176
     1
290
     0
176
     1
 90
       50
176
     1
 40
0.0
176
     1
 40
1.0
176
     1
 90
        0
176
     1
 62
    18
420
        0
176
     1
 90
       50
176
     1
 90
        3
176
     1
 62
     5
420
      255
176
     1
290
     0
176
     1
 90
       50
176
     1
 90
       50
176
     1
 90
       50
176
     1
290
     0
176
     1
 90
       50
176
     1
 62
   256
176
     0
 40
1.0
176
     0
 90
        2
176
     1
  1
strokes_ogs.tif
176
     1
290
     0
176
     1
 40
1.0
176
     1
 40
1.0
176
     1
1001
ACAD
1000
AcDbSavedByObjectVersion
1070
     0
  0
VISUALSTYLE
  5
2D
102
{ACAD_REACTORS
330
29
102
}
330
29
100
AcDbVisualStyle
  2
GouraudWithEdges
 70
     3
177
     3
291
     1
 70
    58
 90
        2
176
     1
 90
        2
176
     1
 90
        1
176
     1
 90
        2
176
     1
 40
0.6
176
     1
 40
30.0
176
     1
 62
     7
420
 16777215
176
     1
 90
        1
176
     1
 90
        0
176
     1
 62
     7
176
     1
 62
   257
176
     1
 90
        1
176
     1
 90
        1
176
     1
 40
1.0
176
     1
 90
        0
176
     1
 62
   257
176
     1
 40
1.0
176
     1
 90
        1
176
     1
 90
        6
176
     1
 90
        2
176
     1
 62
     7
176
     1
 90
        5
176
     1
 90
        0
176
     1
 90
        0
176
     1
290
     0
176
     1
 90
       13
176
     1
 40
0.0
176
     1
 90
        0
176
     1
290
     0
176
     1
290
     1
176
     1
290
     1
176
     1
290
     0
176
     1
290
     0
176
     1
290
     0
176
     1
290
     0
176
     1
290
     0
176
     1
290
     0
176
     1
 90
       50
176
     1
 40
0.0
176
     1
 40
1.0
176
     1
 90
        0
176
     1
 62
    18
420
        0
176
     1
 90
       50
176
     1
 90
        3
176
     1
 62
     5
420
      255
176
     1
290
     0
176
     1
 90
       50
176
     1
 90
       50
176
     1
 90
       50
176
     1
290
     0
176
     1
 90
       50
176
     1
 62
   256
176
     0
 40
1.0
176
     0
 90
        2
176
     1
  1
strokes_ogs.tif
176
     1
290
     0
176
     1
 40
1.0
176
     1
 40
1.0
176
     1
1001
ACAD
1000
AcDbSavedByObjectVersion
1070
     0
  0
VISUALSTYLE
  5
31
102
{ACAD_REACTORS
330
29
102
}
330
29
100
AcDbVisualStyle
  2
Hidden
 70
     6
177
     3
291
     0
 70
    58
 90
        1
176
     1
 90
        2
176
     1
 90
        2
176
     1
 90
        0
176
     1
 40
0.6
176
     1
 40
30.0
176
     1
 62
     7
420
 16777215
176
     1
 90
        2
176
     1
 90
        2
176
     1
 62
     7
176
     1
 62
   257
176
     1
 90
        2
176
     1
 90
        1
176
     1
 40
40.0
176
     1
 90
        0
176
     1
 62
   257
176
     1
 40
1.0
176
     1
 90
        1
176
     1
 90
        6
176
     1
 90
        2
176
     1
 62
     7
176
     1
 90
        3
176
     1
 90
        0
176
     1
 90
        0
176
     1
290
     0
176
     1
 90
        1
176
     1
 40
0.0
176
     1
 90
        0
176
     1
290
     0
176
     1
290
     1
176
     1
290
     1
176
     1
290
     0
176
     1
290
     0
176
     1
290
     0
176
     1
290
     0
176
     1
290
     0
176
     1
290
     0
176
     1
 90
       50
176
     1
 40
0.0
176
     1
 40
1.0
176
     1
 90
        0
176
     1
 62
    18
420
        0
176
     1
 90
       50
176
     1
 90
        3
176
     1
 62
     5
420
      255
176
     1
290
     0
176
     1
 90
       50
176
     1
 90
       50
176
     1
 90
       50
176
     1
290
     0
176
     1
 90
       50
176
     1
 62
   256
176
     0
 40
1.0
176
     0
 90
        2
176
     1
  1
strokes_ogs.tif
176
     1
290
     0
176
     1
 40
1.0
176
     1
 40
1.0
176
     1
1001
ACAD
1000
AcDbSavedByObjectVersion
1070
     0
  0
VISUALSTYLE
  5
3F
102
{ACAD_REACTORS
330
29
102
}
330
29
100
AcDbVisualStyle
  2
JitterOff
 70
    20
177
     3
291
     1
 70
    58
 90
        2
176
     0
 90
        2
176
     0
 90
        0
176
     0
 90
        0
176
     0
 40
0.6
176
     0
 40
30.0
176
     0
 62
     7
420
 16777215
176
     0
 90
        1
176
     0
 90
        4
176
     0
 62
     7
176
     0
 62
   257
176
     0
 90
        1
176
     0
 90
        1
176
     0
 40
1.0
176
     0
 90
       10
176
     2
 62
     7
176
     0
 40
1.0
176
     0
 90
        1
176
     0
 90
        6
176
     0
 90
        2
176
     0
 62
     7
176
     0
 90
        5
176
     0
 90
        0
176
     0
 90
        0
176
     0
290
     0
176
     0
 90
        1
176
     0
 40
0.0
176
     0
 90
        0
176
     0
290
     0
176
     0
290
     1
176
     0
290
     1
176
     0
290
     0
176
     0
290
     0
176
     0
290
     0
176
     0
290
     0
176
     0
290
     0
176
     0
290
     0
176
     0
 90
       50
176
     0
 40
0.0
176
     0
 40
1.0
176
     0
 90
        0
176
     0
 62
    18
420
        0
176
     0
 90
       50
176
     0
 90
        3
176
     0
 62
     5
420
      255
176
     0
290
     0
176
     0
 90
       50
176
     0
 90
       50
176
     0
 90
       50
176
     0
290
     0
176
     0
 90
       50
176
     0
 62
   256
176
     0
 40
1.0
176
     0
 90
        2
176
     0
  1
strokes_ogs.tif
176
     0
290
     0
176
     0
 40
1.0
176
     0
 40
1.0
176
     0
1001
ACAD
1000
AcDbSavedByObjectVersion
1070
     0
  0
VISUALSTYLE
  5
37
102
{ACAD_REACTORS
330
29
102
}
330
29
100
AcDbVisualStyle
  2
Linepattern
 70
    14
177
     3
291
     1
 70
    58
 90
        2
176
     1
 90
        2
176
     1
 90
        0
176
     1
 90
        0
176
     1
 40
0.6
176
     1
 40
30.0
176
     1
 62
     7
420
 16777215
176
     1
 90
        1
176
     1
 90
        4
176
     1
 62
     7
176
     1
 62
   257
176
     1
 90
        7
176
     1
 90
        7
176
     1
 40
1.0
176
     1
 90
        8
176
     1
 62
     7
176
     1
 40
1.0
176
     1
 90
        1
176
     1
 90
        6
176
     1
 90
        2
176
     1
 62
     7
176
     1
 90
        5
176
     1
 90
        0
176
     1
 90
        0
176
     1
290
     0
176
     1
 90
        1
176
     1
 40
0.0
176
     1
 90
        0
176
     1
290
     0
176
     1
290
     1
176
     1
290
     1
176
     1
290
     0
176
     1
290
     0
176
     1
290
     0
176
     1
290
     0
176
     1
290
     0
176
     1
290
     0
176
     1
 90
       50
176
     1
 40
0.0
176
     1
 40
1.0
176
     1
 90
        0
176
     1
 62
    18
420
        0
176
     1
 90
       50
176
     1
 90
        3
176
     1
 62
     5
420
      255
176
     1
290
     0
176
     1
 90
       50
176
     1
 90
       50
176
     1
 90
       50
176
     1
290
     0
176
     1
 90
       50
176
     1
 62
   256
176
     0
 40
1.0
176
     0
 90
        2
176
     1
  1
strokes_ogs.tif
176
     1
290
     0
176
     1
 40
1.0
176
     1
 40
1.0
176
     1
1001
ACAD
1000
AcDbSavedByObjectVersion
1070
     0
  0
VISUALSTYLE
  5
40
102
{ACAD_REACTORS
330
29
102
}
330
29
100
AcDbVisualStyle
  2
OverhangOff
 70
    21
177
     3
291
     1
 70
    58
 90
        2
176
     0
 90
        2
176
     0
 90
        0
176
     0
 90
        0
176
     0
 40
0.6
176
     0
 40
30.0
176
     0
 62
     7
420
 16777215
176
     0
 90
        1
176
     0
 90
        4
176
     0
 62
     7
176
     0
 62
   257
176
     0
 90
        1
176
     0
 90
        1
176
     0
 40
1.0
176
     0
 90
        9
176
     2
 62
     7
176
     0
 40
1.0
176
     0
 90
        1
176
     0
 90
        6
176
     0
 90
        2
176
     0
 62
     7
176
     0
 90
        5
176
     0
 90
        0
176
     0
 90
        0
176
     0
290
     0
176
     0
 90
        1
176
     0
 40
0.0
176
     0
 90
        0
176
     0
290
     0
176
     0
290
     1
176
     0
290
     1
176
     0
290
     0
176
     0
290
     0
176
     0
290
     0
176
     0
290
     0
176
     0
290
     0
176
     0
290
     0
176
     0
 90
       50
176
     0
 40
0.0
176
     0
 40
1.0
176
     0
 90
        0
176
     0
 62
    18
420
        0
176
     0
 90
       50
176
     0
 90
        3
176
     0
 62
     5
420
      255
176
     0
290
     0
176
     0
 90
       50
176
     0
 90
       50
176
     0
 90
       50
176
     0
290
     0
176
     0
 90
       50
176
     0
 62
   256
176
     0
 40
1.0
176
     0
 90
        2
176
     0
  1
strokes_ogs.tif
176
     0
290
     0
176
     0
 40
1.0
176
     0
 40
1.0
176
     0
1001
ACAD
1000
AcDbSavedByObjectVersion
1070
     0
  0
VISUALSTYLE
  5
33
102
{ACAD_REACTORS
330
29
102
}
330
29
100
AcDbVisualStyle
  2
Realistic
 70
     8
177
     3
291
     0
 70
    58
 90
        2
176
     1
 90
        3
176
     1
 90
        0
176
     1
 90
        2
176
     1
 40
0.6
176
     1
 40
30.0
176
     1
 62
     7
420
 16777215
176
     1
 90
        0
176
     1
 90
        0
176
     1
 62
     7
176
     1
 62
   257
176
     1
 90
        1
176
     1
 90
        1
176
     1
 40
1.0
176
     1
 90
        8
176
     1
 62
   257
176
     1
 40
1.0
176
     1
 90
        1
176
     1
 90
        6
176
     1
 90
        2
176
     1
 62
     7
176
     1
 90
        3
176
     1
 90
        0
176
     1
 90
        0
176
     1
290
     0
176
     1
 90
       13
176
     1
 40
0.0
176
     1
 90
        0
176
     1
290
     0
176
     1
290
     1
176
     1
290
     1
176
     1
290
     0
176
     1
290
     0
176
     1
290
     0
176
     1
290
     0
176
     1
290
     0
176
     1
290
     0
176
     1
 90
       50
176
     1
 40
0.0
176
     1
 40
1.0
176
     1
 90
        0
176
     1
 62
    18
420
        0
176
     1
 90
       50
176
     1
 90
        3
176
     1
 62
     5
420
      255
176
     1
290
     0
176
     1
 90
       50
176
     1
 90
       50
176
     1
 90
       50
176
     1
290
     0
176
     1
 90
       50
176
     1
 62
   256
176
     0
 40
1.0
176
     0
 90
        2
176
     1
  1
strokes_ogs.tif
176
     1
290
     0
176
     1
 40
1.0
176
     1
 40
1.0
176
     1
1001
ACAD
1000
AcDbSavedByObjectVersion
1070
     0
  0
VISUALSTYLE
  5
3E
102
{ACAD_REACTORS
330
29
102
}
330
29
100
AcDbVisualStyle
  2
Shaded
 70
    27
177
     3
291
     0
 70
    58
 90
        2
176
     1
 90
        2
176
     1
 90
        1
176
     1
 90
        2
176
     1
 40
0.6
176
     1
 40
30.0
176
     1
 62
     7
420
 16777215
176
     1
 90
        0
176
     1
 90
        4
176
     1
 62
     7
176
     1
 62
   257
176
     1
 90
        1
176
     1
 90
        1
176
     1
 40
1.0
176
     1
 90
        8
176
     1
 62
   257
176
     1
 40
1.0
176
     1
 90
        1
176
     1
 90
        6
176
     1
 90
        2
176
     1
 62
     8
420
  7895160
176
     1
 90
        3
176
     1
 90
        0
176
     1
 90
        0
176
     1
290
     0
176
     1
 90
        5
176
     1
 40
0.0
176
     1
 90
        0
176
     1
290
     0
176
     1
290
     1
176
     1
290
     1
176
     1
290
     0
176
     1
290
     0
176
     1
290
     0
176
     1
290
     0
176
     1
290
     0
176
     1
290
     0
176
     1
 90
       50
176
     1
 40
0.0
176
     1
 40
1.0
176
     1
 90
        0
176
     1
 62
    18
420
        0
176
     1
 90
       50
176
     1
 90
        3
176
     1
 62
     5
420
      255
176
     1
290
     0
176
     1
 90
       50
176
     1
 90
       50
176
     1
 90
       50
176
     1
290
     0
176
     1
 90
       50
176
     1
 62
   256
176
     0
 40
1.0
176
     0
 90
        2
176
     1
  1
strokes_ogs.tif
176
     1
290
     0
176
     1
 40
1.0
176
     1
 40
1.0
176
     1
1001
ACAD
1000
AcDbSavedByObjectVersion
1070
     0
  0
VISUALSTYLE
  5
3D
102
{ACAD_REACTORS
330
29
102
}
330
29
100
AcDbVisualStyle
  2
Shaded with edges
 70
    26
177
     3
291
     0
 70
    58
 90
        2
176
     1
 90
        2
176
     1
 90
        1
176
     1
 90
        2
176
     1
 40
0.6
176
     1
 40
30.0
176
     1
 62
     7
420
 16777215
176
     1
 90
        1
176
     1
 90
        2
176
     1
 62
     7
176
     1
 62
   257
176
     1
 90
        2
176
     1
 90
        1
176
     1
 40
1.0
176
     1
 90
        8
176
     1
 62
   257
176
     1
 40
1.0
176
     1
 90
        1
176
     1
 90
        6
176
     1
 90
        2
176
     1
 62
     7
176
     1
 90
        3
176
     1
 90
        0
176
     1
 90
        0
176
     1
290
     0
176
     1
 90
        5
176
     1
 40
0.0
176
     1
 90
        0
176
     1
290
     0
176
     1
290
     1
176
     1
290
     1
176
     1
290
     0
176
     1
290
     0
176
     1
290
     0
176
     1
290
     0
176
     1
290
     0
176
     1
290
     0
176
     1
 90
       50
176
     1
 40
0.0
176
     1
 40
1.0
176
     1
 90
        0
176
     1
 62
    18
420
        0
176
     1
 90
       50
176
     1
 90
        3
176
     1
 62
     5
420
      255
176
     1
290
     0
176
     1
 90
       50
176
     1
 90
       50
176
     1
 90
       50
176
     1
290
     0
176
     1
 90
       50
176
     1
 62
   256
176
     0
 40
1.0
176
     0
 90
        2
176
     1
  1
strokes_ogs.tif
176
     1
290
     0
176
     1
 40
1.0
176
     1
 40
1.0
176
     1
1001
ACAD
1000
AcDbSavedByObjectVersion
1070
     0
  0
VISUALSTYLE
  5
3A
102
{ACAD_REACTORS
330
29
102
}
330
29
100
AcDbVisualStyle
  2
Shades of Gray
 70
    23
177
     3
291
     0
 70
    58
 90
        2
176
     1
 90
        2
176
     1
 90
        3
176
     1
 90
        0
176
     1
 40
0.6
176
     1
 40
30.0
176
     1
 62
     7
420
 16777215
176
     1
 90
        2
176
     1
 90
        2
176
     1
 62
     7
176
     1
 62
     7
176
     1
 90
        1
176
     1
 90
        1
176
     1
 40
40.0
176
     1
 90
        8
176
     1
 62
     7
176
     1
 40
1.0
176
     1
 90
        1
176
     1
 90
        6
176
     1
 90
        2
176
     1
 62
     7
176
     1
 90
        3
176
     1
 90
        0
176
     1
 90
        0
176
     1
290
     0
176
     1
 90
        1
176
     1
 40
0.0
176
     1
 90
        0
176
     1
290
     0
176
     1
290
     1
176
     1
290
     1
176
     1
290
     0
176
     1
290
     0
176
     1
290
     0
176
     1
290
     0
176
     1
290
     0
176
     1
290
     0
176
     1
 90
       50
176
     1
 40
0.0
176
     1
 40
1.0
176
     1
 90
        0
176
     1
 62
    18
420
        0
176
     1
 90
       50
176
     1
 90
        3
176
     1
 62
     5
420
      255
176
     1
290
     0
176
     1
 90
       50
176
     1
 90
       50
176
     1
 90
       50
176
     1
290
     0
176
     1
 90
       50
176
     1
 62
   256
176
     0
 40
1.0
176
     0
 90
        2
176
     1
  1
strokes_ogs.tif
176
     1
290
     0
176
     1
 40
1.0
176
     1
 40
1.0
176
     1
1001
ACAD
1000
AcDbSavedByObjectVersion
1070
     0
  0
VISUALSTYLE
  5
3B
102
{ACAD_REACTORS
330
29
102
}
330
29
100
AcDbVisualStyle
  2
Sketchy
 70
    24
177
     3
291
     0
 70
    58
 90
        1
176
     1
 90
        2
176
     1
 90
        2
176
     1
 90
        0
176
     1
 40
0.6
176
     1
 40
30.0
176
     1
 62
     7
420
 16777215
176
     1
 90
        2
176
     1
 90
        2
176
     1
 62
     7
176
     1
 62
     7
176
     1
 90
        1
176
     1
 90
        1
176
     1
 40
40.0
176
     1
 90
       11
176
     1
 62
     7
176
     1
 40
1.0
176
     1
 90
        1
176
     1
 90
        6
176
     1
 90
        2
176
     1
 62
     7
176
     1
 90
        6
176
     1
 90
        0
176
     1
 90
        0
176
     1
290
     0
176
     1
 90
        1
176
     1
 40
0.0
176
     1
 90
        0
176
     1
290
     0
176
     1
290
     1
176
     1
290
     1
176
     1
290
     0
176
     1
290
     0
176
     1
290
     0
176
     1
290
     0
176
     1
290
     0
176
     1
290
     0
176
     1
 90
       50
176
     1
 40
0.0
176
     1
 40
1.0
176
     1
 90
        0
176
     1
 62
    18
420
        0
176
     1
 90
       50
176
     1
 90
        3
176
     1
 62
     5
420
      255
176
     1
290
     0
176
     1
 90
       50
176
     1
 90
       50
176
     1
 90
       50
176
     1
290
     0
176
     1
 90
       50
176
     1
 62
   256
176
     0
 40
1.0
176
     0
 90
        2
176
     1
  1
strokes_ogs.tif
176
     1
290
     0
176
     1
 40
1.0
176
     1
 40
1.0
176
     1
1001
ACAD
1000
AcDbSavedByObjectVersion
1070
     0
  0
VISUALSTYLE
  5
36
102
{ACAD_REACTORS
330
29
102
}
330
29
100
AcDbVisualStyle
  2
Thicken
 70
    13
177
     3
291
     1
 70
    58
 90
        2
176
     1
 90
        2
176
     1
 90
        0
176
     1
 90
        0
176
     1
 40
0.6
176
     1
 40
30.0
176
     1
 62
     7
420
 16777215
176
     1
 90
        1
176
     1
 90
        4
176
     1
 62
     7
176
     1
 62
   257
176
     1
 90
        1
176
     1
 90
        1
176
     1
 40
1.0
176
     1
 90
       12
176
     1
 62
     7
176
     1
 40
1.0
176
     1
 90
        1
176
     1
 90
        6
176
     1
 90
        2
176
     1
 62
     7
176
     1
 90
        5
176
     1
 90
        0
176
     1
 90
        0
176
     1
290
     0
176
     1
 90
        1
176
     1
 40
0.0
176
     1
 90
        0
176
     1
290
     0
176
     1
290
     1
176
     1
290
     1
176
     1
290
     0
176
     1
290
     0
176
     1
290
     0
176
     1
290
     0
176
     1
290
     0
176
     1
290
     0
176
     1
 90
       50
176
     1
 40
0.0
176
     1
 40
1.0
176
     1
 90
        0
176
     1
 62
    18
420
        0
176
     1
 90
       50
176
     1
 90
        3
176
     1
 62
     5
420
      255
176
     1
290
     0
176
     1
 90
       50
176
     1
 90
       50
176
     1
 90
       50
176
     1
290
     0
176
     1
 90
       50
176
     1
 62
   256
176
     0
 40
1.0
176
     0
 90
        2
176
     1
  1
strokes_ogs.tif
176
     1
290
     0
176
     1
 40
1.0
176
     1
 40
1.0
176
     1
1001
ACAD
1000
AcDbSavedByObjectVersion
1070
     0
  0
VISUALSTYLE
  5
30
102
{ACAD_REACTORS
330
29
102
}
330
29
100
AcDbVisualStyle
  2
Wireframe
 70
     5
177
     3
291
     0
 70
    58
 90
        0
176
     1
 90
        2
176
     1
 90
        0
176
     1
 90
        0
176
     1
 40
0.6
176
     1
 40
30.0
176
     1
 62
     7
420
 16777215
176
     1
 90
        1
176
     1
 90
        4
176
     1
 62
     7
176
     1
 62
   257
176
     1
 90
        1
176
     1
 90
        1
176
     1
 40
1.0
176
     1
 90
        0
176
     1
 62
   257
176
     1
 40
1.0
176
     1
 90
        1
176
     1
 90
        6
176
     1
 90
        2
176
     1
 62
     7
176
     1
 90
        3
176
     1
 90
        0
176
     1
 90
        0
176
     1
290
     0
176
     1
 90
        1
176
     1
 40
0.0
176
     1
 90
        0
176
     1
290
     0
176
     1
290
     1
176
     1
290
     1
176
     1
290
     0
176
     1
290
     0
176
     1
290
     0
176
     1
290
     0
176
     1
290
     0
176
     1
290
     0
176
     1
 90
       50
176
     1
 40
0.0
176
     1
 40
1.0
176
     1
 90
        0
176
     1
 62
    18
420
        0
176
     1
 90
       50
176
     1
 90
        3
176
     1
 62
     5
420
      255
176
     1
290
     0
176
     1
 90
       50
176
     1
 90
       50
176
     1
 90
       50
176
     1
290
     0
176
     1
 90
       50
176
     1
 62
   256
176
     0
 40
1.0
176
     0
 90
        2
176
     1
  1
strokes_ogs.tif
176
     1
290
     0
176
     1
 40
1.0
176
     1
 40
1.0
176
     1
1001
ACAD
1000
AcDbSavedByObjectVersion
1070
     0
  0
VISUALSTYLE
  5
3C
102
{ACAD_REACTORS
330
29
102
}
330
29
100
AcDbVisualStyle
  2
X-Ray
 70
    25
177
     3
291
     0
 70
    58
 90
        2
176
     1
 90
        2
176
     1
 90
        1
176
     1
 90
        1
176
     1
 40
0.5
176
     1
 40
30.0
176
     1
 62
     7
420
 16777215
176
     1
 90
        1
176
     1
 90
        0
176
     1
 62
     7
176
     1
 62
   257
176
     1
 90
        1
176
     1
 90
        1
176
     1
 40
1.0
176
     1
 90
        8
176
     1
 62
     7
176
     1
 40
1.0
176
     1
 90
        1
176
     1
 90
        6
176
     1
 90
        2
176
     1
 62
     7
176
     1
 90
        3
176
     1
 90
        0
176
     1
 90
        0
176
     1
290
     0
176
     1
 90
       13
176
     1
 40
0.0
176
     1
 90
        0
176
     1
290
     0
176
     1
290
     1
176
     1
290
     1
176
     1
290
     0
176
     1
290
     0
176
     1
290
     0
176
     1
290
     0
176
     1
290
     0
176
     1
290
     0
176
     1
 90
       50
176
     1
 40
0.0
176
     1
 40
1.0
176
     1
 90
        0
176
     1
 62
    18
420
        0
176
     1
 90
       50
176
     1
 90
        3
176
     1
 62
     5
420
      255
176
     1
290
     0
176
     1
 90
       50
176
     1
 90
       50
176
     1
 90
       50
176
     1
290
     0
176
     1
 90
       50
176
     1
 62
   256
176
     0
 40
1.0
176
     0
 90
        2
176
     1
  1
strokes_ogs.tif
176
     1
290
     0
176
     1
 40
1.0
176
     1
 40
1.0
176
     1
1001
ACAD
1000
AcDbSavedByObjectVersion
1070
     0
  0
DICTIONARYVAR
  5
3CF
102
{ACAD_REACTORS
330
3CA
102
}
330
3CA
100
DictionaryVariables
280
     0
  1
0
  0
DICTIONARYVAR
  5
3D0
102
{ACAD_REACTORS
330
3CA
102
}
330
3CA
100
DictionaryVariables
280
     0
  1
1:1
  0
DICTIONARYVAR
  5
3CC
102
{ACAD_REACTORS
330
3CA
102
}
330
3CA
100
DictionaryVariables
280
     0
  1
STANDARD
  0
DICTIONARYVAR
  5
3CB
102
{ACAD_REACTORS
330
3CA
102
}
330
3CA
100
DictionaryVariables
280
     0
  1
STANDARD
  0
DICTIONARYVAR
  5
3CD
102
{ACAD_REACTORS
330
3CA
102
}
330
3CA
100
DictionaryVariables
280
     0
  1
Imperial24
  0
DICTIONARYVAR
  5
3CE
102
{ACAD_REACTORS
330
3CA
102
}
330
3CA
100
DictionaryVariables
280
     0
  1
Imperial24
  0
DICTIONARY
  5
3D6
330
6B
100
AcDbDictionary
280
     1
281
     1
  3
ACAD_XREC_ROUNDTRIP
360
3D7
  0
DICTIONARY
  5
1A
330
19
100
AcDbDictionary
280
     1
281
     1
  3
BUMPTILE
360
1C
  3
DIFFUSETILE
360
1B
  3
OPACITYTILE
360
1F
  3
REFLECTIONTILE
360
1E
  3
REFRACTIONTILE
360
20
  3
SPECULARTILE
360
1D
  0
DICTIONARY
  5
12
330
11
100
AcDbDictionary
280
     1
281
     1
  3
BUMPTILE
360
14
  3
DIFFUSETILE
360
13
  3
OPACITYTILE
360
17
  3
REFLECTIONTILE
360
16
  3
REFRACTIONTILE
360
18
  3
SPECULARTILE
360
15
  0
DICTIONARY
  5
22
330
21
100
AcDbDictionary
280
     1
281
     1
  3
BUMPTILE
360
24
  3
DIFFUSETILE
360
23
  3
OPACITYTILE
360
27
  3
REFLECTIONTILE
360
26
  3
REFRACTIONTILE
360
28
  3
SPECULARTILE
360
25
  0
DICTIONARY
  5
3D4
330
69
100
AcDbDictionary
280
     1
281
     1
  3
ACAD_XREC_ROUNDTRIP
360
3D5
  0
DICTIONARY
  5
3D1
330
65
100
AcDbDictionary
280
     1
281
     1
  3
ACAD_ROUNDTRIP_2008_TABLESTYLE_CELLSTYLEMAP
360
3D2
  0
XRECORD
  5
3D7
102
{ACAD_REACTORS
330
3D6
102
}
330
3D6
100
AcDbXrecord
280
     1
102
DISPLAYNAME
  1
Imperial24
102
FLAGS
 90
        0
  0
XRECORD
  5
1C
102
{ACAD_REACTORS
330
1A
102
}
330
1A
100
AcDbXrecord
280
     1
270
     1
271
     1
  0
XRECORD
  5
1B
102
{ACAD_REACTORS
330
1A
102
}
330
1A
100
AcDbXrecord
280
     1
270
     1
271
     1
  0
XRECORD
  5
1F
102
{ACAD_REACTORS
330
1A
102
}
330
1A
100
AcDbXrecord
280
     1
270
     1
271
     1
  0
XRECORD
  5
1E
102
{ACAD_REACTORS
330
1A
102
}
330
1A
100
AcDbXrecord
280
     1
270
     1
271
     1
  0
XRECORD
  5
20
102
{ACAD_REACTORS
330
1A
102
}
330
1A
100
AcDbXrecord
280
     1
270
     1
271
     1
  0
XRECORD
  5
1D
102
{ACAD_REACTORS
330
1A
102
}
330
1A
100
AcDbXrecord
280
     1
270
     1
271
     1
  0
XRECORD
  5
14
102
{ACAD_REACTORS
330
12
102
}
330
12
100
AcDbXrecord
280
     1
270
     1
271
     1
  0
XRECORD
  5
13
102
{ACAD_REACTORS
330
12
102
}
330
12
100
AcDbXrecord
280
     1
270
     1
271
     1
  0
XRECORD
  5
17
102
{ACAD_REACTORS
330
12
102
}
330
12
100
AcDbXrecord
280
     1
270
     1
271
     1
  0
XRECORD
  5
16
102
{ACAD_REACTORS
330
12
102
}
330
12
100
AcDbXrecord
280
     1
270
     1
271
     1
  0
XRECORD
  5
18
102
{ACAD_REACTORS
330
12
102
}
330
12
100
AcDbXrecord
280
     1
270
     1
271
     1
  0
XRECORD
  5
15
102
{ACAD_REACTORS
330
12
102
}
330
12
100
AcDbXrecord
280
     1
270
     1
271
     1
  0
XRECORD
  5
24
102
{ACAD_REACTORS
330
22
102
}
330
22
100
AcDbXrecord
280
     1
270
     1
271
     1
  0
XRECORD
  5
23
102
{ACAD_REACTORS
330
22
102
}
330
22
100
AcDbXrecord
280
     1
270
     1
271
     1
  0
XRECORD
  5
27
102
{ACAD_REACTORS
330
22
102
}
330
22
100
AcDbXrecord
280
     1
270
     1
271
     1
  0
XRECORD
  5
26
102
{ACAD_REACTORS
330
22
102
}
330
22
100
AcDbXrecord
280
     1
270
     1
271
     1
  0
XRECORD
  5
28
102
{ACAD_REACTORS
330
22
102
}
330
22
100
AcDbXrecord
280
     1
270
     1
271
     1
  0
XRECORD
  5
25
102
{ACAD_REACTORS
330
22
102
}
330
22
100
AcDbXrecord
280
     1
270
     1
271
     1
  0
XRECORD
  5
3D5
102
{ACAD_REACTORS
330
3D4
102
}
330
3D4
100
AcDbXrecord
280
     1
102
DISPLAYNAME
  1
Imperial24
102
FLAGS
 90
        0
  0
CELLSTYLEMAP
  5
3D2
102
{ACAD_REACTORS
330
3D1
102
}
330
3D1
100
AcDbCellStyleMap
 90
        3
300
CELLSTYLE
  1
TABLEFORMAT_BEGIN
 90
        5
170
     1
 91
        0
 92
    32768
 62
   257
 93
        1
300
CONTENTFORMAT
  1
CONTENTFORMAT_BEGIN
 90
        0
 91
        0
 92
      512
 93
        0
300

 40
0.0
140
1.0
 94
        5
 62
     0
340
55
144
0.25
309
CONTENTFORMAT_END
171
     1
301
MARGIN
  1
CELLMARGIN_BEGIN
 40
1.5
 40
1.5
 40
1.5
 40
1.5
 40
0.18
 40
0.18
309
CELLMARGIN_END
 94
        0
309
TABLEFORMAT_END
  1
CELLSTYLE_BEGIN
 90
        1
 91
        1
300
_TITLE
309
CELLSTYLE_END
300
CELLSTYLE
  1
TABLEFORMAT_BEGIN
 90
        5
170
     1
 91
        0
 92
        0
 62
   257
 93
        1
300
CONTENTFORMAT
  1
CONTENTFORMAT_BEGIN
 90
        0
 91
        0
 92
      512
 93
        0
300

 40
0.0
140
1.0
 94
        5
 62
     0
340
55
144
0.18
309
CONTENTFORMAT_END
171
     1
301
MARGIN
  1
CELLMARGIN_BEGIN
 40
1.5
 40
1.5
 40
1.5
 40
1.5
 40
0.18
 40
0.18
309
CELLMARGIN_END
 94
        0
309
TABLEFORMAT_END
  1
CELLSTYLE_BEGIN
 90
        2
 91
        1
300
_HEADER
309
CELLSTYLE_END
300
CELLSTYLE
  1
TABLEFORMAT_BEGIN
 90
        5
170
     1
 91
        0
 92
        0
 62
   257
 93
        1
300
CONTENTFORMAT
  1
CONTENTFORMAT_BEGIN
 90
        0
 91
        0
 92
      512
 93
        0
300

 40
0.0
140
1.0
 94
        2
 62
     0
340
55
144
0.18
309
CONTENTFORMAT_END
171
     1
301
MARGIN
  1
CELLMARGIN_BEGIN
 40
1.5
 40
1.5
 40
1.5
 40
1.5
 40
0.18
 40
0.18
309
CELLMARGIN_END
 94
        0
309
TABLEFORMAT_END
  1
CELLSTYLE_BEGIN
 90
        3
 91
        2
300
_DATA
309
CELLSTYLE_END
  0
ENDSEC
  0
EOF
